#TITLE:Look at Us;
#SUBTITLE:(Remix);
#ARTIST:Sarina Paris;
#TITLETRANSLIT:;
#SUBTITLETRANSLIT:;
#ARTISTTRANSLIT:;
#CREDIT:;
#BANNER:lookBAN.png;
#BACKGROUND:lookBG.png;
#LYRICSPATH:;
#CDTITLE:;
#MUSIC:LOOK AT US (Daddy DJ Remix).ogg;
#OFFSET:-0.034;
#SAMPLESTART:57.490;
#SAMPLELENGTH:12.000;
#SELECTABLE:YES;
#DISPLAYBPM:135.000;
#BPMS:0.000=134.690,196.000=124.590,196.500=114.490,197.000=104.390,197.500=94.290,198.000=84.190,198.500=74.900,199.000=64.000,199.500=134.690;
#STOPS:;
#BGCHANGES:;
// cache tags:
#FIRSTBEAT:4.000;
#LASTBEAT:199.250;
#SONGFILENAME:Songs/Rodd's Revival/LOOK AT US (Rodd steps)/LOOK AT US (Daddy DJ Remix).sm;
#HASMUSIC:1;
#HASBANNER:1;
#MUSICLENGTH:89.420;
// end cache tags

//---------------dance-single - R. Farias----------------
#NOTES:
     dance-single:
     R. Farias:
     Challenge:
     9:
     0.760,0.780,0.134,0.280,0.732,439.000,12.000,25.000,9.000,0.000:

0000
0000
0000
0000
,
2000
0000
0000
0000
,
3002
0000
0000
0000
,
0203
0000
0320
0030
,
0210
0000
0300
0010
1000
0001
0100
0010
,
2000
0000
0000
3100
0010
0001
0100
0010
,
0200
0000
0000
0302
0000
1003
0200
0000
,
0310
0002
0000
0203
0000
0310
2000
0000
,
3100
0010
0001
0010
0100
1000
0001
0100
0010
0100
0001
1000
0100
0010
0001
0100
,
0001
0100
0010
0100
0001
1000
0100
0010
,
0001
0100
0010
0100
0001
1000
0100
0010
,
0100
1000
0001
0100
0010
1000
0100
1000
,
1100
0000
0000
0100
0010
0001
0100
0010
,
0100
0000
0001
1000
0000
1000
0100
0000
0010
0000
0001
0100
0000
0100
0010
0000
,
0100
0000
0001
1000
0000
1000
0100
0000
0010
0000
0001
0100
0000
0010
1000
0000
,
0100
0010
0001
0010
0100
1000
0001
0100
0010
1000
0100
0010
0001
0100
0010
0100
,
0001
1000
0100
0010
0001
0010
0100
1000
0001
0100
0010
0100
0001
1000
0100
0010
,
0001
0000
0100
0000
0010
1000
0000
1000
0100
0000
0100
0010
0000
0010
0001
0000
,
0101
0110
1010
1100
,
0110
0000
0010
0000
0001
0100
0000
0010
1000
0000
0100
0010
0000
0001
0100
0000
,
0101
0110
1010
1100
,
1001
0000
0001
0000
0100
0010
0000
1000
0100
0000
0010
0001
0000
0001
0010
0000
,
0100
1000
0001
0000
0100
0010
0000
1000
0100
0000
0100
1000
0000
1000
0001
0000
,
0100
0001
0100
0000
0010
1000
0000
1000
0100
0000
0100
0010
0000
0010
0001
0100
,
0010
0100
0001
1000
0100
0010
0001
0010
0100
1000
0001
0100
0010
0100
0001
1000
,
0100
0000
0010
0000
0001
0000
0100
0000
0010
0000
1000
0100
0000
0010
0001
0010
,
0002
0103
0020
0130
0002
1003
0200
0310
,
0002
0000
0103
0000
0010
0000
1000
0100
1000
0000
0100
0010
0000
0010
0001
0100
,
0020
0130
0002
1003
0200
0310
0002
1003
,
0002
0000
0103
0000
0010
0000
0100
0010
0100
0000
0010
1000
0000
1000
0001
1000
,
0001
0100
0010
0100
0001
1000
0100
1000
,
0020
0000
0000
0000
0030
0000
0100
0001
1000
0000
0100
0010
0000
0010
0100
1000
,
0001
0100
0010
0100
0001
1000
0100
0010
0100
1000
0001
0100
0010
1000
0001
0100
,
0010
0100
0001
1000
0100
0010
0100
1000
,
0001
0100
0010
0100
0001
1000
0100
0010
,
0100
0010
0001
0010
0001
0100
0010
1000
,
0200
0000
0300
0010
0001
0100
1000
0100
,
0010
0000
1000
0100
0000
0100
1000
0000
0001
0000
0100
0000
0010
0000
0100
0000
,
0001
0000
1000
0100
0000
0010
0001
0000
0100
0000
0010
0000
0100
0000
0001
0000
,
1000
0000
0100
0010
0000
0010
0001
0000
0100
0000
0010
0000
1000
0000
0001
0000
,
0100
0000
0010
0000
0100
0000
0001
0000
1000
0001
1000
0001
1000
0100
1000
0100
,
1000
0000
0100
0000
0010
0001
0000
0001
0100
0000
0100
0010
0000
0010
1000
0010
,
1000
0000
0100
0000
0010
0001
0000
0100
0010
0000
1000
0100
0000
0010
0001
0010
,
0001
0000
0100
0000
0010
1000
0000
1000
0100
0000
0100
0010
0000
0010
0001
0100
,
0010
0000
0100
0000
0001
1000
0000
1000
0100
0000
0100
0010
0000
0001
0100
0010
,
1000
0100
0001
0100
1000
0010
0100
0001
,
1000
0001
0100
0010
1000
0100
0010
0001
,
0010
0000
0100
0000
1000
0000
0001
0000
0100
0010
0100
0001
1000
0100
0010
0001
,
0010
0100
1000
0001
0100
0010
0100
0001
1000
0100
0010
0001
1000
0100
0010
0001
,
0200
0000
M000
0000
00M0
0000
M000
0000
00M0
M000
00M0
M000
0000
M3M0
0000
0000
;
