#TITLE:Om Namah Shivaya;
#SUBTITLE:;
#ARTIST:MIQUIZTLI;
#TITLETRANSLIT:;
#SUBTITLETRANSLIT:;
#ARTISTTRANSLIT:;
#CREDIT:;
#BANNER:../Banner.png;
#BACKGROUND:../BG.png;
#LYRICSPATH:;
#CDTITLE:../CDTitleKIRBY.png;
#MUSIC:MIQUIZTLI - Om Namah Shivaya.ogg;
#OFFSET:-0.280;
#SAMPLESTART:99.887;
#SAMPLELENGTH:12.000;
#SELECTABLE:YES;
#BPMS:0.000=180.000;
#STOPS:;
#BGCHANGES:;
// cache tags:
#FIRSTBEAT:40.000;
#LASTBEAT:1311.500;
#SONGFILENAME:Songs/Index Fusion - Part 2/Om Namah Shivaya - [Kirby5464]/Om Namah Shivaya.sm;
#HASMUSIC:1;
#HASBANNER:1;
#MUSICLENGTH:445.257;
// end cache tags

//---------------dance-single - ----------------
#NOTES:
     dance-single:
     :
     Challenge:
     26:
     1.000,1.000,0.002,0.202,1.000,4855.000,1.000,90.000,9.000,0.000:
0000
0000
0000
0000
,
0000
0000
0000
0000
,
0000
0000
0000
0000
,
0000
0000
0000
0000
,
0000
0000
0000
0000
,
0000
0000
0000
0000
,
0000
0000
0000
0000
,
0000
0000
0000
0000
,
0000
0000
0000
0000
,
0000
0000
0000
0000
,
0001
0100
0010
1000
0001
1000
0100
0010
0001
1000
0010
1000
0100
0010
0100
1000
,
0001
0010
0001
0100
0010
0100
0001
1000
0001
0010
0100
1000
0010
0100
0010
1000
,
0001
1000
0100
0010
0001
0100
0010
0100
0001
0010
0001
1000
0100
1000
0001
0100
,
0001
0010
0100
1000
0010
0100
0010
1000
0100
0010
0001
1000
0100
1000
0010
0100
,
0010
1000
0100
0010
0001
1000
0100
0010
0100
1000
0001
0010
0001
1000
0010
1000
,
0100
0010
0001
1000
0100
1000
0010
0100
0010
1000
0001
1000
0100
0010
0001
0100
,
0010
0100
0001
0010
0001
1000
0100
0010
0001
1000
0100
1000
0010
0100
0010
1000
,
0100
0000
0010
0000
0001
0000
0100
0000
0010
0000
0100
0000
0001
0000
0010
0000
0001
0000
1000
0000
0010
0000
1000
0000
0001
0010
0100
1000
0010
0000
0100
0000
,
0010
1000
0100
0010
0001
1000
0010
1000
0001
0010
0001
1000
0010
1000
0100
0010
,
0001
1000
0100
0010
0100
1000
0001
0010
0001
0100
0010
0100
0001
1000
0001
0010
,
0100
1000
0010
0100
0010
1000
0001
1000
0100
0010
0001
1000
0100
1000
0001
0010
,
0100
0010
0001
1000
0100
1000
0001
0010
0100
1000
0001
0100
0001
0010
0100
0010
,
0001
1000
0100
1000
0010
0100
0010
1000
0001
1000
0100
0010
0001
0100
0010
0100
,
0001
1000
0001
0010
0100
1000
0010
0100
0010
1000
0100
1000
0001
0010
0001
1000
,
0010
1000
0100
0010
0001
0100
0010
0100
0001
0010
0100
1000
0001
0010
0001
0100
,
0010
0000
0100
0000
0001
0000
0010
0000
0100
0000
1000
0000
0001
0000
0010
0000
0100
0000
0010
0000
0001
0000
1000
0000
0100
0010
0001
1000
0001
0000
0100
0000
,
0010
0100
0001
0010
0100
0010
0001
1000
0100
1000
0001
0010
0100
1000
0001
0100
,
0001
0010
0100
0010
0001
1000
0100
1000
0010
0100
0010
1000
0001
1000
0100
0010
,
0001
0100
0010
0100
0001
1000
0001
0010
0100
1000
0010
0100
0010
1000
0100
1000
,
0001
0000
0000
0010
0000
0000
0001
0000
0000
1000
0000
0000
0010
0000
0000
1000
0000
0000
0100
0000
0000
0010
0000
0000
0001
0000
0000
0100
0000
0000
0010
0000
0000
0100
0000
0000
0001
0000
1000
0000
0010
0000
1000
0000
0000
0001
0000
0000
,
0100
0010
1000
0001
0100
0001
1000
0100
0010
0001
1000
0100
0010
0100
1000
0001
,
0010
0001
1000
0010
1000
0100
0010
0001
1000
0100
1000
0010
0100
0010
1000
0001
,
1000
0100
0010
0001
0100
0010
0100
0001
0010
0001
1000
0100
0010
0001
1000
0100
,
1000
0000
0010
0000
0100
0000
0010
0000
1000
0000
0100
0000
0010
0000
0001
0000
0100
0000
0010
0000
0100
0000
0001
0000
1000
0100
0010
0001
1000
0000
0010
0000
,
0100
0001
0010
0001
1000
0100
0010
0001
1000
0010
1000
0100
0010
0100
1000
0001
,
0010
0001
0100
0010
0100
0001
1000
0001
0010
0100
1000
0010
0100
0010
1000
0001
,
1000
0100
0010
0001
0100
0010
0100
0001
0010
0001
1000
0100
1000
0001
0100
0001
,
0010
0100
1000
0010
0100
0010
1000
0100
0010
0001
1000
0100
1000
0010
0100
0010
,
2000
3000
0200
0300
0020
0030
0002
0003
2000
3000
0200
0300
0020
0030
0200
0300
2000
3000
0002
0003
0020
0030
0002
0003
2000
3000
0020
0030
2000
3000
0200
0300
,
0020
0030
0002
0003
2000
3000
0200
0300
2000
3000
0020
0030
0200
0300
0020
0030
2000
3000
0002
0003
2000
3000
0200
0300
0020
0030
0002
0003
0200
0300
0020
0030
,
0200
0300
0002
0003
0020
0030
0002
0003
2000
3000
0200
0300
0020
0030
0002
0003
2000
3000
0200
0300
2000
3000
0020
0030
0200
0300
0020
0030
2000
3000
0200
0300
,
0020
0030
0002
0003
0200
0300
0020
0030
0200
0300
0002
0003
0020
0030
0002
0003
2000
3000
0200
0300
2000
3000
0002
0003
0010
0100
1000
0001
1000
0000
0000
0000
,
0010
0000
1000
0001
1000
0000
0001
0000
,
1000
0001
1000
0100
,
0010
0001
0010
0100
,
1000
0001
1000
0000
,
1001
0000
0000
0000
,
0000
0000
0000
0000
,
0000
0000
0000
0000
,
0000
0000
0000
0000
,
0001
1000
0100
0010
0001
1000
0010
1000
,
0001
0010
0001
1000
0100
0010
0001
0100
,
0010
0100
0001
0010
0100
1000
0001
0010
,
0100
0000
0000
0000
0010
0000
0000
0000
0001
0000
0000
0000
1000
0000
0000
0000
0100
0000
0000
0000
1000
0000
0000
0000
0001
0010
0100
1000
0001
0000
0000
0000
,
0100
0010
0100
0001
0010
0100
1000
0010
,
0100
0010
1000
0100
0010
0100
1000
0001
,
0010
0001
0100
0010
0100
0001
1000
0001
,
0010
0000
0100
0000
1000
0001
1000
0000
0100
0000
0010
0000
0001
0100
0001
0000
,
1000
0010
0100
0001
0010
0100
1000
0010
0100
0010
1000
0100
0010
0001
1000
0100
0010
0100
1000
0001
0100
0010
1000
0001
,
0100
0010
0100
0001
1000
0001
0010
0100
1000
0010
0100
0010
1000
0001
1000
0100
,
0010
0001
0100
0010
0100
0001
0010
0001
1000
0100
1000
0001
0100
0001
0010
0100
,
1000
0000
0010
0000
0100
0000
0010
0000
1000
0000
0100
0000
0010
0000
0001
0000
1000
0000
0100
0000
1000
0000
0001
0000
0010
0100
1000
0001
1000
0000
0010
0000
,
1000
0001
0010
0001
1000
0100
0010
0100
1000
0001
0010
0001
1000
0100
0010
0001
,
1000
0010
1000
0100
0010
0001
0100
0010
0100
0001
1000
0001
0010
0100
1000
0010
,
0100
0010
1000
0100
1000
0001
0010
0001
1000
0010
1000
0100
0010
0001
0100
0010
,
0100
0000
0001
0000
0010
0000
0100
0000
0010
0000
0001
0000
1000
0000
0100
0000
1000
0000
0001
0000
0010
0000
0100
0000
1000
0001
0010
0001
1000
0000
0100
0000
,
0010
0001
0100
0010
0100
0001
0010
0100
0010
0001
1000
0100
1000
0001
0100
0001
,
0010
0100
1000
0010
0100
0010
1000
0001
1000
0100
0010
0001
0100
0010
0100
0001
,
0010
0100
1000
0001
0010
0001
1000
0100
1000
0010
0100
0010
1000
0001
1000
0100
,
0010
0001
1000
0100
0010
0100
1000
0001
0010
0001
1000
0020
0030
0200
0300
0000
,
1000
0100
0010
0001
1000
0001
0010
0100
1000
0001
0100
0001
0010
0100
0010
0001
,
1000
0100
1000
0010
0100
0010
1000
0001
1000
0100
0010
0001
0100
0010
0100
0001
,
1000
0001
0010
0100
1000
0010
0100
0010
1000
0100
1000
0001
0010
0001
1000
0010
,
1000
0100
0010
0001
0100
0010
0100
0001
0010
0100
1000
0001
0010
0001
0100
0010
,
0100
0001
0010
0100
0010
0001
1000
0100
1000
0010
0100
0010
1000
0100
0010
0001
1000
0010
1000
0001
0010
0001
1000
0001
,
0010
0100
1000
0001
0010
0001
0100
0010
0100
0001
1000
0001
0010
0100
1000
0010
,
0100
0010
1000
0100
1000
0001
0010
0100
1000
0001
0010
0001
0100
0010
0100
0001
,
0010
0000
0100
0000
1000
0000
0010
0000
0100
0000
0010
0000
1000
0000
0100
0000
1000
0000
0001
0000
0100
0000
0001
0000
1000
0100
0010
0001
0100
0000
0010
0000
,
0100
0001
0010
0100
1000
0001
0100
0001
1000
0100
1000
0001
0100
0001
0010
0100
,
1000
0001
0010
0100
0010
0001
1000
0100
1000
0010
0100
0010
1000
0001
1000
0100
,
0010
0001
0100
0010
0100
0001
1000
0001
0010
0100
1000
0001
0010
0001
1000
0100
,
0010
0000
0100
0000
1000
0000
0001
0000
0010
0000
0001
0000
1000
0000
0100
0000
0010
0000
0001
0000
1000
0000
0010
0000
1000
0001
1000
0010
0100
0000
0010
0000
,
1000
0001
0010
0001
0100
0010
0100
0001
1000
0001
0010
0100
1000
0010
0100
0010
,
1000
0001
1000
0100
0010
0001
0100
0010
0100
0001
0010
0001
1000
0100
1000
0001
,
0100
0001
0010
0100
1000
0010
0100
0010
1000
0100
0010
0001
1000
0100
1000
0010
,
0100
0010
1000
0100
0010
0001
1000
0100
0010
0100
1000
0001
0010
0100
1000
0010
,
0100
0010
1000
0100
0010
0100
1000
0001
0010
0001
1000
0100
0010
0001
1000
0010
,
1000
0100
0010
0100
1000
0001
0010
0001
0100
0010
0100
0001
1000
0001
0010
0100
,
1000
0010
0100
0010
1000
0001
1000
0100
0010
0001
0100
0010
0100
0001
0010
0001
,
1000
0100
1000
0001
0100
0001
0010
0100
,
1000
0001
1000
0010
0100
0010
1000
0100
0010
0001
1000
0100
0010
0100
1000
0001
,
0010
0001
1000
0010
1000
0100
0010
0001
1000
0100
1000
0010
0100
0010
1000
0001
,
1000
0100
0010
0001
0100
0010
0100
0001
0010
0001
1000
0100
0010
0001
1000
0100
,
1000
0010
0100
0010
1000
0100
0010
0001
0100
0010
0100
0001
1000
0100
1000
0010
,
0100
0001
0010
0001
1000
0100
0010
0001
1000
0010
1000
0100
0010
0100
1000
0001
,
0010
0001
0100
0010
0100
0001
1000
0001
0010
0100
1000
0010
0100
0010
1000
0001
,
1000
0100
0010
0001
0100
0010
0100
0001
0010
0001
1000
0100
1000
0001
0100
0001
,
0010
0000
0100
0000
1000
0000
0010
0000
0100
0000
0010
0000
1000
0000
0100
0000
0010
0000
0001
0000
1000
0000
0100
0000
1000
0001
0010
0100
1000
0000
0001
0000
,
0010
0100
0010
0001
1000
0100
0010
0100
1000
0001
0010
0001
1000
0010
1000
0100
,
0010
0001
1000
0100
1000
0010
0100
0010
1000
0001
1000
0100
0010
0001
0100
0010
,
0100
0001
0010
0001
1000
0100
0010
0001
1000
0100
1000
0010
0100
0010
1000
0100
,
0010
0001
0100
0010
0100
0001
0010
0001
1000
0100
1000
0001
0010
0100
1000
0010
,
0100
0010
1000
0001
1000
0100
0010
0001
1000
0100
0010
0100
1000
0001
0010
0001
,
1000
0100
1000
0010
0100
0010
1000
0100
0010
0001
1000
0010
1000
0100
0010
0100
,
1000
0001
0010
0001
1000
0010
1000
0100
0010
0001
0100
0010
0100
0001
1000
0001
,
0100
0010
0100
0001
0010
0001
1000
0010
1000
0100
0010
0001
1000
0100
1000
0001
0100
0001
0010
0000
0000
0000
0000
0000
,
0100
0010
0100
0001
1000
0001
0010
0100
1000
0001
0100
0001
0010
0100
0010
0001
,
1000
0100
1000
0010
0100
0010
1000
0001
1000
0100
0010
0001
0100
0010
0100
0001
,
1000
0001
0010
0100
1000
0010
0100
0010
1000
0100
1000
0001
0010
0001
1000
0010
,
1000
0100
0010
0001
0100
0010
0100
0001
0010
0100
1000
0001
0010
0001
0100
0010
,
0100
0001
0010
0100
1000
0001
0010
0100
0010
0001
1000
0100
1000
0001
0100
0001
,
0010
0100
1000
0001
0010
0001
0100
0010
0100
0001
1000
0001
0010
0100
1000
0010
,
0100
0010
1000
0100
1000
0001
0010
0100
1000
0001
0010
0001
0100
0010
0100
0001
,
0010
0100
1000
0010
0100
0010
1000
0100
1000
0001
0100
0001
2000
0000
3020
0000
,
1030
0001
0010
0100
1000
0001
0100
0001
1000
0100
1000
0001
0100
0001
0010
0100
,
1000
0001
0010
0100
0010
0001
1000
0100
1000
0010
0100
0010
1000
0001
1000
0100
,
0010
0001
0100
0010
0100
0001
1000
0001
0010
0100
1000
0001
0010
0001
1000
0100
,
0010
0100
1000
0001
0010
0001
1000
0100
0010
0001
1000
0010
1000
0100
0010
0100
,
1000
0001
0010
0001
0100
0010
0100
0001
1000
0001
0010
0100
1000
0010
0100
0010
,
1000
0001
1000
0100
0010
0001
0100
0010
0100
0001
0010
0001
1000
0100
1000
0001
,
0100
0001
0010
0100
1000
0010
0100
0010
1000
0100
0010
0001
1000
0100
1000
0010
,
0100
0001
0010
0100
1000
0001
0100
0001
,
0100
1000
0001
0100
0010
0100
0001
0010
0100
1000
0010
0100
0010
1000
0100
0010
0100
1000
0001
0010
0001
1000
0100
0010
,
0001
0010
0100
0010
0001
1000
0100
1000
0010
0100
0010
1000
0001
1000
0100
0010
,
0001
0100
0010
0100
0001
1000
0001
0010
0100
1000
0010
0100
0010
1000
0100
1000
,
0001
0010
0001
1000
0010
1000
0100
0010
0001
0100
0010
0100
0001
1000
0001
0100
,
0010
0100
0001
1000
0010
1000
0001
0010
0100
1000
0001
0010
0100
0010
0001
1000
,
0100
1000
0001
0100
0001
0010
0100
1000
0001
0010
0001
0100
0010
0100
0001
1000
,
0001
0010
0100
1000
0010
0100
0010
1000
0100
1000
0001
0010
0100
1000
0001
0010
,
0001
0100
0010
0100
0001
0010
0100
1000
0010
0100
0010
1000
0001
0010
0001
0100
,
0010
1000
0100
1000
0001
0010
0100
1000
0001
0100
0001
0010
0100
0010
0001
1000
,
0100
1000
0010
0100
0010
1000
0001
1000
0100
0010
0001
0100
0010
0100
0001
1000
,
0001
0010
0100
1000
0010
0100
0010
1000
0100
1000
0001
0010
0001
1000
0010
1000
,
0100
0010
0001
0100
0010
0100
0001
0010
0100
1000
0001
0010
0001
0100
0010
0100
,
0001
0010
0100
1000
0001
0010
0100
0010
0001
1000
0100
1000
0001
0100
0001
0010
,
0100
1000
0001
0010
0001
0100
0010
0100
0001
1000
0001
0010
0100
1000
0010
0100
,
0010
1000
0100
1000
0001
0010
0100
1000
0001
0010
0001
0100
0010
0100
0001
0010
,
0100
1000
0001
0010
0001
1000
0100
0010
0001
1000
0100
0010
0100
1000
0001
0010
0001
0100
0010
1000
0100
1000
0001
0100
,
0001
0010
0001
1000
0010
1000
0100
0010
0100
1000
0001
0010
0001
0100
0010
0100
,
0001
1000
0001
0010
0100
1000
0010
0100
0010
1000
0001
1000
0100
0010
0001
0100
,
0010
0100
0001
0010
0001
1000
0100
1000
0001
0100
0001
0010
0100
1000
0010
0100
,
0010
1000
0100
0010
0001
1000
0100
1000
0010
0100
0010
1000
0001
0000
MMMM
0000
,
1000
0100
0010
0001
1000
0100
1000
0001
0100
0001
0010
0100
1000
0001
0010
0001
,
0100
0010
0100
0001
1000
0001
0010
0100
1000
0010
0100
0010
1000
0100
1000
0001
,
0010
0100
1000
0001
0010
0001
0100
0010
0100
0001
0010
0100
1000
0010
0100
0010
,
1000
0100
1000
0001
0010
0100
1000
0010
0100
0010
1000
0100
0010
0001
1000
0010
,
1000
0100
0010
0001
1000
0100
0010
0100
1000
0001
0010
0001
0100
0010
0100
0001
,
1000
0001
0010
0100
0010
0001
1000
0100
1000
0001
0010
0100
1000
0010
0100
0010
,
1000
0001
1000
0100
0010
0001
1000
0100
1000
0001
0010
0001
0100
0010
0100
0001
,
1000
0001
0010
0100
1000
0010
0100
0001
0010
0100
1000
0001
0010
0100
0010
0001
,
1000
0010
1000
0100
0010
0001
0100
0010
0100
0001
1000
0001
0010
0100
1000
0010
,
0100
0010
1000
0100
1000
0001
0010
0001
1000
0010
1000
0100
0010
0100
1000
0001
,
0010
0000
0000
0001
0000
0000
1000
0000
0000
0010
0000
0000
1000
0000
0000
0100
0000
0000
0010
0000
0000
0001
0000
0000
0100
0000
0000
0010
0000
0000
0100
0000
0000
0001
0000
0000
0010
0000
0000
0001
0000
0000
1000
0000
0100
0000
1000
0000
,
0020
0000
0000
0130
0001
0100
0020
0000
0000
1030
0001
1000
0002
0000
0000
0013
0100
0010
0200
0000
0000
0310
0000
0000
,
1000
0100
1000
0010
0100
0010
1000
0001
0010
0001
1000
0100
0010
0001
1000
0010
,
1000
0100
0010
0100
1000
0001
0010
0001
0100
0010
0100
0001
1000
0001
0010
0100
,
1000
0010
0100
0010
1000
0001
1000
0100
0010
0001
0100
0010
0100
0001
0010
0001
,
1000
0100
1000
0001
0100
0001
0010
0100
1000
0010
0100
0010
1000
0000
MMMM
0000
,
0100
0010
1000
0001
0100
0001
1000
0100
0010
0001
1000
0100
0010
0100
1000
0001
,
0010
0001
1000
0010
1000
0100
0010
0001
1000
0100
1000
0010
0100
0010
1000
0001
,
1000
0100
0010
0001
0100
0010
0100
0001
0010
0001
1000
0100
0010
0001
1000
0100
,
1000
0010
0100
0010
1000
0100
0010
0001
0100
0010
0100
0001
1000
0100
1000
0010
,
0100
0001
0010
0001
1000
0100
0010
0001
1000
0010
1000
0100
0010
0100
1000
0001
,
0010
0001
0100
0010
0100
0001
1000
0001
0010
0100
1000
0010
0100
0010
1000
0001
,
1000
0100
0010
0001
0100
0010
0100
0001
0010
0001
1000
0100
1000
0001
0100
0001
,
0010
0100
1000
0010
0100
0010
1000
0100
0010
0001
1000
0100
1000
0010
0100
0010
,
1000
0100
0010
0001
1000
0100
0010
0100
1000
0001
0010
0001
1000
0010
1000
0100
,
0010
0001
1000
0100
1000
0010
0100
0010
1000
0001
1000
0100
0010
0001
0100
0010
,
0100
0000
0000
0001
0000
0000
0010
0000
0000
0001
0000
0000
1000
0000
0000
0100
0000
0000
0010
0000
0000
0001
0000
0000
1000
0000
0000
0100
0000
0000
1000
0000
0000
0010
0000
0000
0100
0000
0000
0010
0000
0000
1000
0000
0001
0000
1000
0000
,
0020
0000
0000
0130
0010
0100
0002
0000
0000
1003
0010
0100
0002
0000
0000
1003
0100
0010
0002
0000
0000
2003
0000
0000
,
3001
0010
0001
1000
0100
0010
0001
0100
0010
0100
0001
1000
0001
0010
0100
1000
,
0010
0100
0010
1000
0100
1000
0001
0010
0001
1000
0010
1000
0100
0010
0100
1000
,
0001
0000
0000
0010
0000
0000
0001
0000
0000
1000
0000
0000
0010
0000
0000
1000
0000
0000
0100
0000
0000
0010
0000
0000
0001
0000
0000
0100
0000
0000
0010
0000
0000
0100
0000
0000
0001
0000
0000
1000
0000
0000
0001
0000
0010
0000
0100
0000
,
2000
0000
0000
3010
0100
0010
2000
0000
0000
3001
0100
0001
2000
0000
0000
3100
0010
0100
0010
0000
0000
2000
0000
0000
,
3001
0000
0000
0000
,
0000
0000
0000
0000
,
0000
0000
0000
0000
,
0000
0000
0000
0000
,
0000
0000
0000
0000
,
0000
0000
0000
0000
,
0000
0000
0000
0000
,
0000
0000
0000
0000
,
0000
0000
0000
0000
,
0000
0000
0000
0000
,
0000
0000
0000
0000
,
0000
0000
0000
0000
,
0001
0010
0001
0000
0000
0000
1000
0100
1000
0000
0000
0000
0001
0100
0001
0000
0000
0000
1000
0010
1000
0000
0000
0000
,
0100
0010
0100
0000
0000
0000
0010
0100
0010
0000
0000
0000
1000
0001
1000
0000
0000
0000
0001
1000
0001
0000
0000
0000
,
0010
0100
0001
0000
0000
0000
0100
1000
0010
0000
0000
0000
0001
0100
0010
0000
0000
0000
1000
0010
0100
0000
0000
0000
,
0001
0010
0001
0000
0000
0000
1000
0100
1000
0000
0000
0000
0001
0100
0001
0000
0000
0000
0000
0000
0000
0000
0000
0000
,
0010
0100
0001
0000
0000
0000
1000
0010
0100
0000
0000
0000
0001
0010
0001
0000
0000
0000
1000
0010
1000
0000
0000
0000
,
0001
0100
0010
0000
0000
0000
1000
0100
1000
0000
0000
0000
0001
1000
0001
0000
0000
0000
0100
0010
0100
0000
0000
0000
,
0001
0010
0001
0000
0000
0000
1000
0100
1000
0000
0000
0000
0010
0100
0010
0000
0000
0000
1000
0001
1000
0000
0000
0000
,
0001
1000
0001
0000
0000
0000
0100
0001
0010
0000
0000
0000
1000
0010
0100
0000
0000
0000
0000
0000
0000
0000
0000
0000
,
0001
1000
0001
0000
0000
0000
0100
0010
0100
0000
0000
0000
0001
0010
0001
0000
0000
0000
1000
0010
1000
0000
0000
0000
,
0001
0100
0001
0000
0000
0000
1000
0100
1000
0000
0000
0000
0001
0100
0010
0000
0000
0000
1000
0010
1000
0000
0000
0000
,
0010
0100
0010
0000
0000
0000
1000
0010
1000
0000
0000
0000
0001
0100
0001
0000
0000
0000
1000
0010
0100
0000
0000
0000
,
0001
1000
0001
0000
0000
0000
1000
0001
1000
0000
0000
0000
0010
0100
0010
0000
0000
0000
0000
0000
0000
0000
0000
0000
,
1000
0001
1000
0000
0000
0000
0001
1000
0001
0000
0000
0000
0100
0010
0100
0000
0000
0000
0010
0100
0010
0000
0000
0000
,
1000
0010
1000
0000
0000
0000
0001
0100
0001
0000
0000
0000
0100
0010
0100
0000
0000
0000
0001
0010
0001
0000
0000
0000
,
1000
0100
1000
0000
0000
0000
0001
0100
0010
0000
0000
0000
1000
0010
1000
0000
0000
0000
0001
1000
0001
0000
0000
0000
,
0100
0010
0100
0000
0000
0000
1000
0010
0100
0000
0000
0000
0001
0100
0010
0000
0000
0000
0000
0000
0000
0000
0000
0000
,
0010
0100
0001
0010
0100
1000
0001
0100
0001
0010
0100
0010
0001
1000
0100
1000
,
0010
0100
0010
1000
0001
1000
0100
0010
0001
0100
0010
0100
0001
1000
0001
0010
,
0100
1000
0010
0100
0010
1000
0100
1000
0001
0010
0001
1000
0010
1000
0100
0010
,
0001
0100
0010
0100
0001
0010
0100
1000
0001
0010
0001
0100
0010
0100
0001
0010
,
0100
1000
0001
0010
0100
0010
0001
1000
0100
1000
0001
0100
0001
0010
0100
1000
,
0001
0010
0001
0100
0010
0100
0001
1000
0001
0010
0100
1000
0010
0100
0010
1000
,
0100
1000
0001
0010
0100
1000
0001
0010
0001
0100
0010
0100
0001
0010
0100
1000
,
0010
0100
0010
1000
0100
1000
0001
0010
0100
1000
0001
0010
0001
1000
0100
0010
,
0001
1000
0010
1000
0100
0010
0100
1000
0001
0010
0001
0100
0010
0100
0001
1000
,
0001
0010
0100
1000
0010
0100
0010
1000
0001
1000
0100
0010
0001
0100
0010
0100
,
0001
0010
0001
1000
0100
1000
0001
0100
0001
0010
0100
1000
0010
0100
0010
1000
,
0001
0010
0001
0100
0010
1000
0001
0100
0001
1000
0100
0010
0001
1000
0100
0010
,
0100
1000
0001
0010
0001
1000
0010
1000
0100
0010
0001
1000
0100
1000
0010
0100
,
0010
1000
0001
1000
0100
0010
0001
0100
0010
0100
0001
0010
0001
1000
0100
0010
,
0001
1000
0100
1000
0010
0100
0010
1000
0100
0010
0001
0100
0010
0100
0001
1000
,
0200
2300
3020
0230
0302
0023
0032
2003
3200
0320
0032
2003
3020
0030
0000
0000
,
1000
0100
1000
0001
0010
0100
1000
0010
0100
0010
1000
0100
0010
0001
1000
0100
0010
0100
1000
0001
0010
0001
1000
0010
,
1000
0100
0010
0001
0100
0010
0100
0001
1000
0001
0010
0100
1000
0010
0100
0010
1000
0100
0010
0001
0100
0010
0100
0001
,
0010
0100
0010
0001
1000
0100
1000
0001
0100
0001
0010
0100
1000
0010
0100
0010
1000
0100
1000
0001
0010
0001
1000
0010
,
1000
0000
0000
0000
0001
0000
0000
0000
0100
0000
0000
0000
0001
0000
0000
0000
0010
0000
0000
0000
0100
0000
0000
0000
1000
0000
0000
0000
0010
0000
0000
0000
0100
0000
0000
0000
0010
0000
0000
0000
1000
0000
0000
0000
0001
0000
0000
0000
1000
0000
0000
0000
0010
0000
0000
0000
0100
0000
0000
0000
0010
0000
0000
0000
1000
0000
0000
0000
0001
0000
0000
0000
0100
0000
0000
0001
0000
0000
0010
0000
0000
0100
0000
0000
1000
0000
0000
0000
0001
0000
0000
0000
0010
0000
0000
0000
,
0001
1000
0100
0010
0001
0100
0010
0100
0001
0010
0100
1000
0001
0010
0100
0010
0001
1000
0100
1000
0001
0100
0001
0010
,
0100
1000
0010
0100
0010
1000
0001
1000
0100
0010
0001
0100
0010
0100
0001
0010
0100
1000
0010
0100
0010
1000
0100
0010
,
0100
1000
0001
0010
0001
1000
0010
1000
0100
0010
0001
0100
0010
0100
0001
0010
0001
1000
0100
1000
0001
0100
0001
1000
,
0010
0000
0000
0000
1000
0000
0000
0000
0100
0000
0000
0000
0010
0000
0000
0000
0001
0000
0000
0000
0100
0000
0000
0000
0010
0000
0000
0000
0100
0000
0000
0000
0001
0000
0000
0000
1000
0000
0000
0000
0001
0000
0000
0000
0100
0000
0000
0000
0010
0000
0000
0000
0100
0000
0000
0000
0001
0000
0000
0000
1000
0000
0000
0000
0100
0000
0000
0000
0010
0000
0000
0000
0001
0000
0000
1000
0000
0000
0100
0000
0000
1000
0000
0000
0001
0000
0000
0000
0010
0000
0000
0000
0001
0000
0000
0000
,
1000
0010
0100
0001
0010
0100
1000
0010
0100
0010
1000
0100
0010
0001
1000
0100
0010
0100
1000
0001
0010
0001
1000
0010
,
1000
0100
0010
0001
0100
0010
0100
0001
1000
0001
0010
0100
1000
0010
0100
0010
1000
0100
0010
0001
0100
0010
1000
0001
,
1000
0010
0100
0010
1000
0100
1000
0001
0100
0001
0010
0100
1000
0010
0100
0010
1000
0001
1000
0010
0100
0001
1000
0100
,
0010
0000
0000
0000
0001
0000
0000
0000
0100
0000
0000
0000
0010
0000
0000
0000
0100
0000
0000
0000
0001
0000
0000
0000
0010
0000
0000
0000
0100
0000
0000
0000
0010
0000
0000
0000
0001
0000
0000
0000
1000
0000
0000
0000
0100
0000
0000
0000
1000
0000
0000
0000
0001
0000
0000
0000
0010
0000
0000
0000
0100
0000
0000
0000
1000
0000
0000
0000
0001
0000
0000
0000
0100
0000
0000
0010
0000
0000
1000
0000
0000
0001
0000
0000
1000
0000
0000
0000
0010
0000
0000
0000
0100
0000
0000
0000
,
0010
1000
0001
1000
0100
0010
0001
1000
0100
0010
0100
1000
0001
0010
0001
1000
0010
1000
0100
0010
0001
1000
0100
1000
,
0001
0100
0001
0010
0100
1000
0010
0100
0010
1000
0100
0010
0001
1000
0100
0010
0100
1000
0001
0010
0001
0100
0010
0100
,
0001
0010
0100
1000
0010
0100
0010
1000
0100
1000
0001
0010
0001
1000
0100
0010
0001
1000
0100
0010
0100
1000
0001
0010
,
0001
0000
1000
0000
0010
0000
1000
0000
0100
0000
0010
0000
0001
0000
0100
0000
0010
0000
0100
0000
0001
0000
1000
0000
0001
0000
0100
0000
0010
0000
1000
0000
0100
0000
0010
0000
0001
1000
0100
1000
0001
0100
0010
1000
0100
0010
0001
0100
,
0010
1000
0100
1000
0001
0010
0001
1000
0010
1000
0100
0010
0001
1000
0100
0010
0100
1000
0001
0010
0001
0100
0010
0100
,
0001
1000
0001
0010
0100
1000
0010
0100
0010
1000
0001
1000
0100
0010
0001
0100
0010
0100
0001
1000
0001
0100
0010
1000
,
0100
0010
0001
1000
0100
1000
0010
0100
0010
1000
0100
0010
0001
0100
0010
0100
0001
0010
0001
1000
0100
1000
0010
0100
,
0010
0000
0000
0000
1000
0000
0000
0000
0100
0000
0000
0000
0010
0000
0000
0000
0001
0000
0000
0000
0100
0000
0000
0000
0010
0000
0000
0000
0100
0000
0000
0000
0001
0000
0000
0000
1000
0000
0000
0000
0001
0000
0000
0000
0010
0000
0000
0000
0100
0000
0000
0000
1000
0000
0000
0000
0010
0000
0000
0000
0100
0000
0000
0000
0010
0000
0000
0000
1000
0000
0000
0000
0001
0000
0000
0010
0000
0000
0100
0000
0000
0010
0000
0000
0001
0000
0000
0000
1000
0000
0000
0000
0100
0000
0000
0000
,
1000
0010
0100
0010
1000
0001
1000
0100
0010
0001
0100
0010
0100
0001
1000
0001
0010
0100
1000
0001
0010
0001
0100
0010
,
0100
0001
0010
0100
1000
0010
0100
0010
1000
0100
0010
0001
1000
0100
0010
0100
1000
0001
0010
0001
1000
0010
1000
0100
,
0010
0001
0100
0010
0100
0001
0010
0001
1000
0100
1000
0001
0010
0100
1000
0010
0100
0010
1000
0100
0010
0001
1000
0100
,
0010
0000
0000
0000
0100
0000
0000
0000
1000
0000
0000
0000
0001
0000
0000
0000
0010
0000
0000
0000
0001
0000
0000
0000
0100
0000
0000
0000
0010
0000
0000
0000
0100
0000
0000
0000
0001
0000
0000
0000
1000
0000
0000
0000
0001
0000
0000
0000
0010
0000
0000
0000
0100
0000
0000
0000
1000
0000
0000
0000
0010
0000
0000
0000
0100
0000
0000
0000
0010
0000
0000
0000
1000
0000
0000
0001
0000
0000
0100
0000
0000
0010
0000
0000
1000
0000
0000
0000
0001
0000
0000
0000
0100
0000
0000
0000
,
0001
1000
0100
0010
0001
1000
0100
0010
0100
1000
0001
0010
0001
0100
0010
0100
0001
1000
0001
0010
0100
1000
0010
0100
,
0010
1000
0100
1000
0001
0010
0001
1000
0010
1000
0100
0010
0001
1000
0100
0010
0100
1000
0001
0010
0001
1000
0100
1000
,
0001
0010
0100
0010
0001
1000
0100
1000
0001
0100
0001
0010
0100
1000
0010
0100
0010
1000
0001
1000
0100
0010
0001
0100
,
0010
0000
0000
0000
0100
0000
0000
0000
0001
0000
0000
0000
1000
0000
0000
0000
0001
0000
0000
0000
0010
0000
0000
0000
0100
0000
0000
0000
1000
0000
0000
0000
0010
0000
0000
0000
0100
0000
0000
0000
0010
0000
0000
0000
1000
0000
0000
0000
0001
0000
0000
0000
1000
0000
0000
0000
0100
0000
0000
0000
0010
0000
0000
0000
0001
0000
0000
0000
1000
0000
0000
0000
0100
0000
0000
1000
0000
0000
0001
0000
0000
1000
0000
0000
0010
0000
0000
0000
0100
0000
0000
0000
0001
0000
0000
0000
,
0010
0100
1000
0010
0100
0001
1000
0010
1000
0100
0010
0001
1000
0100
0010
0100
1000
0001
0010
0001
1000
0100
0010
0001
,
1000
0100
1000
0010
0100
0010
1000
0100
0010
0001
0100
0010
0100
0001
1000
0001
0010
0100
1000
0001
0010
0100
0010
0001
,
1000
0100
1000
0010
0100
0010
1000
0001
0100
0010
1000
0100
0010
0100
1000
0001
0010
0001
1000
0010
1000
0100
0010
0001
,
1000
0000
0100
0000
1000
0000
0010
0000
0100
0000
0010
0000
1000
0000
0100
0000
0010
0000
0001
0000
1000
0000
0100
0000
1000
0000
0010
0000
0100
0000
0010
0000
1000
0000
0100
0000
1000
0001
0010
0100
1000
0001
0100
0010
0100
0001
1000
0001
,
0100
0010
0100
0001
1000
0001
0010
0100
1000
0010
0100
0010
1000
0100
0010
0001
1000
0100
0010
0100
1000
0001
0010
0001
,
0100
0010
0100
0001
1000
0001
0010
0100
1000
0010
0100
0010
1000
0001
0100
0010
1000
0100
1000
0001
0100
0001
0010
0100
,
1000
0001
0010
0100
0010
0001
1000
0100
1000
0010
0100
0010
1000
0100
0010
0100
1000
0001
0010
0001
1000
0100
0010
0001
,
0100
0000
0000
0000
0010
0000
0000
0000
0100
0000
0000
0000
0001
0000
0000
0000
1000
0000
0000
0000
0001
0000
0000
0000
0010
0000
0000
0000
0100
0000
0000
0000
1000
0000
0000
0000
0010
0000
0000
0000
0100
0000
0000
0000
0010
0000
0000
0000
1000
0000
0000
0000
0100
0000
0000
0000
0010
0000
0000
0000
0100
0000
0000
0000
1000
0000
0000
0000
0001
0000
0000
0000
0010
0000
0000
0001
0000
0000
1000
0000
0000
0001
0000
0000
1000
0000
0000
0000
0010
0000
0000
0000
0100
0000
0000
0000
,
0001
0010
0100
1000
0010
0100
0010
1000
0100
0010
0001
1000
0100
1000
0010
0100
0010
1000
0100
0010
0001
1000
0010
1000
,
0100
0010
0001
1000
0100
0010
0100
1000
0001
0010
0001
0100
0010
0100
0001
1000
0001
0010
0100
1000
0010
0100
0010
1000
,
0100
1000
0001
0010
0001
1000
0100
0010
0001
0100
0010
0100
0001
1000
0001
0010
0100
1000
0010
0100
0010
1000
0100
0010
,
0001
0000
0000
0000
1000
0000
0000
0000
0100
0000
0000
0000
0010
0000
0000
0000
0100
0000
0000
0000
1000
0000
0000
0000
0001
0000
0000
0000
0010
0000
0000
0000
0001
0000
0000
0000
1000
0000
0000
0000
0100
0000
0000
0000
0010
0000
0000
0000
0001
0000
0000
0000
1000
0000
0000
0000
0100
0000
0000
0000
1000
0000
0000
0000
0001
0000
0000
0000
0100
0000
0000
0000
0001
0000
0000
0010
0000
0000
0100
0000
0000
1000
0000
0000
0001
0000
0000
0000
0100
0000
0000
0000
0010
0000
0000
0000
,
0100
0001
1000
0001
0010
0100
1000
0001
0010
0100
0010
0001
1000
0100
1000
0001
0100
0010
1000
0100
0010
0100
1000
0001
,
0010
0001
1000
0010
0100
0001
0010
0100
1000
0010
0100
0010
1000
0100
1000
0001
0010
0001
1000
0010
1000
0100
0010
0001
,
1000
0100
1000
0010
0100
0010
1000
0001
1000
0100
0010
0001
0100
0010
0100
0001
0010
0001
1000
0100
1000
0010
0100
0001
,
0010
0000
0000
0000
0100
0000
0000
0000
1000
0000
0000
0000
0001
0000
0000
0000
0010
0000
0000
0000
0100
0000
0000
0000
0010
0000
0000
0000
0001
0000
0000
0000
1000
0000
0000
0000
0100
0000
0000
0000
1000
0000
0000
0000
0001
0000
0000
0000
0010
0000
0000
0000
0100
0000
0000
0000
0010
0000
0000
0000
0001
0000
0000
0000
1000
0000
0000
0000
0010
0000
0000
0000
1000
0000
0000
0100
0000
0000
0010
0000
0000
0001
0000
0000
1000
0000
0000
0000
0010
0000
0000
0000
0100
0000
0000
0000
,
0010
1000
0100
0010
0001
1000
0100
1000
0001
0100
0001
0010
0100
1000
0010
0100
0010
1000
0100
1000
0001
0010
0001
1000
,
0100
0010
0001
1000
0100
0010
0100
1000
0001
0010
0001
1000
0010
1000
0100
0010
0001
1000
0100
1000
0010
0100
0010
1000
,
0100
0010
0100
1000
0001
0010
0001
1000
0100
0010
0001
0100
0010
0100
0001
0010
0001
1000
0100
1000
0001
0100
0001
1000
,
0010
1000
0001
0010
0001
0100
0010
0100
0001
0010
0100
1000
0010
0100
0010
1000
0100
0010
0100
1000
0001
0010
0001
1000
,
0100
1000
0010
0100
0010
1000
0100
0010
0001
0100
0010
0100
0001
1000
0001
0010
0100
1000
0010
0100
0010
1000
0100
0010
,
0001
1000
0100
1000
0001
0010
0100
0010
0001
1000
0100
1000
0001
0100
0001
0010
0100
1000
0010
0100
0010
1000
0100
0010
,
0001
0100
0010
0100
0001
0010
0001
1000
0100
1000
0010
0100
0010
1000
0001
1000
0100
0010
0001
1000
0100
0010
0100
1000
,
0001
0000
0000
0000
0010
0000
0000
0000
0001
0000
0000
0000
1000
0000
0000
0000
0010
0000
0000
0000
1000
0000
0000
0000
0100
0000
0000
0000
0010
0000
0000
0000
0001
0000
0000
0000
1000
0000
0000
0000
0100
0000
0000
0000
1000
0000
0000
0000
0010
0000
0000
0000
0100
0000
0000
0000
0010
0000
0000
0000
1000
0000
0000
0000
0001
0000
0000
0000
1000
0000
0000
0000
0010
0000
0000
0100
0000
0000
0001
0000
0000
1000
0000
0000
0010
0000
0000
0000
0100
0000
0000
0000
0010
0000
0000
0000
,
1000
0100
1000
0001
0100
0001
0010
0100
1000
0010
0100
0010
1000
0100
0010
0001
0100
0010
1000
0100
0010
0100
1000
0001
,
0010
0001
0100
0010
0100
0001
0010
0100
0010
0001
1000
0100
1000
0010
0100
0010
1000
0100
0010
0001
0100
0010
0100
0001
,
0010
0100
1000
0010
0100
0010
1000
0001
1000
0100
0010
0001
1000
0100
1000
0010
0100
0010
1000
0100
0010
0100
1000
0001
,
0010
0000
0000
0000
0001
0000
0000
0000
1000
0000
0000
0000
0010
0000
0000
0000
1000
0000
0000
0000
0100
0000
0000
0000
0010
0000
0000
0000
0001
0000
0000
0000
1000
0000
0000
0000
0010
0000
0000
0000
0100
0000
0000
0000
0001
0000
0000
0000
0010
0000
0000
0000
0100
0000
0000
0000
1000
0000
0000
0000
0010
0000
0000
0000
0100
0000
0000
0000
0001
0000
0000
0000
0010
0000
0000
0100
0000
0000
1000
0000
0000
0001
0000
0000
0100
0000
0000
0000
0010
0000
0000
0000
1000
0000
0000
0000
,
0100
0010
0001
0100
0010
0100
0001
0010
0100
1000
0001
0010
0001
0100
0010
0100
0001
1000
0001
0010
0100
1000
0010
0100
,
0010
1000
0100
0010
0100
1000
0001
0010
0001
1000
0100
1000
0010
0100
0010
1000
0001
1000
0100
0010
0001
1000
0100
0010
,
0100
1000
0001
0010
0001
0100
0010
0100
0001
1000
0001
0010
0100
1000
0010
0100
0010
1000
0100
0010
0001
0100
0010
1000
,
0001
0000
0000
0000
0010
0000
0000
0000
0100
0000
0000
0000
1000
0000
0000
0000
0010
0000
0000
0000
0100
0000
0000
0000
0010
0000
0000
0000
1000
0000
0000
0000
0100
0000
0000
0000
1000
0000
0000
0000
0001
0000
0000
0000
0010
0000
0000
0000
0100
0000
0000
0000
0010
0000
0000
0000
0001
0000
0000
0000
1000
0000
0000
0000
0100
0000
0000
0000
1000
0000
0000
0000
0010
0000
0000
0100
0000
0000
0001
0000
0000
1000
0000
0000
0010
0000
0000
0000
0100
0000
0000
0000
0001
0000
0000
0000
,
0010
0100
1000
0010
0100
0010
1000
0100
1000
0001
0010
0100
0010
0001
1000
0100
1000
0001
0100
0001
0010
0100
1000
0001
,
0010
0001
0100
0010
0100
0001
0010
0100
1000
0010
0100
0010
1000
0100
1000
0001
0010
0001
1000
0100
0010
0100
1000
0001
,
0010
0001
0100
0010
0100
0001
0010
0100
0010
0001
1000
0100
1000
0010
0100
0010
1000
0100
0010
0001
1000
0010
1000
0100
,
0010
0000
0000
0000
0001
0000
0000
0000
1000
0000
0000
0000
0100
0000
0000
0000
0010
0000
0000
0000
0100
0000
0000
0000
1000
0000
0000
0000
0001
0000
0000
0000
0010
0000
0000
0000
0001
0000
0000
0000
0100
0000
0000
0000
0010
0000
0000
0000
0100
0000
0000
0000
0001
0000
0000
0000
0010
0000
0000
0000
0100
0000
0000
0000
0010
0000
0000
0000
0001
0000
0000
0000
1000
0000
0000
0100
0000
0000
0010
0000
0000
0001
0000
0000
0100
0000
0000
0010
0000
0000
0100
0000
0000
0001
0000
0000
,
1000
0000
0000
0000
,
0000
0000
0000
0000
,
0000
0000
0000
0000
,
0000
0000
0000
0000
,
0010
0100
0010
1000
0100
0010
0100
1000
0001
0010
0001
1000
0100
1000
0010
0100
,
0010
1000
0100
0010
0001
0100
0010
0100
0001
1000
0001
0010
0100
1000
0010
0100
,
0010
1000
0100
0010
0100
1000
0001
0010
0001
1000
0010
1000
0100
0010
0001
0100
,
0010
0100
0001
0010
0100
0010
0001
1000
0100
1000
0010
0100
0010
1000
0001
1000
,
0100
0010
0001
1000
0010
1000
0100
0010
0100
1000
0001
0010
0001
1000
0010
1000
,
0100
0010
0100
1000
0001
0100
0010
1000
0100
0010
0001
0100
0010
0100
0001
1000
,
0001
0010
0100
1000
0010
0100
0010
1000
0100
1000
0001
0010
0001
1000
0100
0010
,
0001
0100
0010
0100
0001
1000
0001
0010
0100
1000
0010
0100
0010
1000
0100
0010
,
0100
1000
0001
0010
0001
1000
0010
1000
0100
0010
0001
0100
0010
0100
0001
0010
,
0100
0010
0001
1000
0100
1000
0010
0100
0010
1000
0001
1000
0100
0010
0001
1000
,
0010
1000
0100
0010
0100
1000
0001
0010
0001
1000
0010
1000
0100
0010
0100
1000
,
0001
0100
0010
1000
0100
0010
0001
0100
0010
0100
0001
1000
0001
0010
0100
1000
,
0010
0100
0010
1000
0100
1000
0001
0010
0001
1000
0100
0010
0001
1000
0010
0100
,
0001
0010
0100
1000
0010
0100
0010
1000
0001
1000
0100
0010
0001
0100
0010
0100
,
0001
0010
0100
0010
0001
1000
0100
1000
0001
0100
0001
0010
0100
1000
0010
0100
,
0010
1000
0100
0010
0100
1000
0001
0010
0001
0100
0010
0100
0001
1000
0001
0010
,
0100
1000
0001
0100
0001
0010
0100
0010
0001
1000
0100
1000
0001
0100
0001
0010
,
0100
0010
0001
1000
0010
0100
0001
0010
0100
1000
0010
0100
0010
1000
0001
1000
,
0100
0010
0001
0100
0010
0100
0001
0010
0001
1000
0100
1000
0001
0010
0100
1000
,
0001
0010
0100
0010
0001
1000
0100
1000
0001
0010
0001
0100
0010
0100
0001
1000
,
0001
0100
0010
0100
0001
0010
0100
1000
0010
0100
0010
1000
0100
0010
0001
0100
,
0010
0100
0001
1000
0001
0010
0100
1000
0010
0100
0010
1000
0100
1000
0001
0010
,
0001
1000
0100
0010
0100
1000
0001
0010
0001
1000
0010
1000
0100
0010
0001
0100
,
0010
0100
0001
0000
1000
0010
0100
0000
0001
0010
0001
0000
1000
0100
1000
0000
,
0001
0000
0000
0000
,
0000
0000
0000
0000
,
0000
0000
0000
0000
,
0000
0000
0000
0000
,
0000
0000
0000
0000
,
0000
0000
0000
0000
,
0000
0000
0000
0000
,
0000
0000
0000
0000
,
0000
0000
0000
0000
,
0000
0000
0000
0000
,
0000
0000
0000
0000
,
0000
0000
0000
0000
,
0000
0000
0000
0000
,
0000
0000
0000
0000
,
0000
0000
0000
0000
,
0000
0000
0000
0000
,
0000
0000
0000
0000
,
0000
0000
0000
0000
0000
0000
0000
00M0
,
0000
0000
0000
0000
,
0000
0000
0000
0000
,
0000
0000
0000
0000
,
0000
0000
0000
0000
,
0000
0000
0000
0000
,
0000
0000
0000
0000
;
