#TITLE:War of Worlds;
#SUBTITLE:Beyond Abilities (2002);
#ARTIST:Warmen;
#TITLETRANSLIT:;
#SUBTITLETRANSLIT:;
#ARTISTTRANSLIT:;
#CREDIT:;
#BANNER:War of Worlds - Banner.jpg;
#BACKGROUND:War of Worlds - Background.jpg;
#LYRICSPATH:;
#CDTITLE:CDTitle.gif;
#MUSIC:warmen - War Of Worlds.mp3;
#OFFSET:0.280;
#SAMPLESTART:61.748;
#SAMPLELENGTH:12.000;
#SELECTABLE:YES;
#BPMS:0.000=155.010;
#STOPS:239.000=0.360
;
#BGCHANGES:;
// cache tags:
#FIRSTBEAT:1.000;
#LASTBEAT:566.500;
#SONGFILENAME:Songs/Astronomic Metal Collection/War of Worlds (N.T.M.)/War Of Worlds.sm;
#HASMUSIC:1;
#HASBANNER:1;
#MUSICLENGTH:227.754;
// end cache tags

//---------------dance-single - Blank----------------
#NOTES:
     dance-single:
     Blank:
     Hard:
     12:
     0.922,1.000,0.645,1.000,0.854,1043.000,147.000,280.000,0.000,0.000:
0000
0000
0000
0000
1000
0100
0010
0001
1000
0100
0010
0001
0010
0100
1000
0001
,
1000
0001
0100
0010
1001
0000
0000
0000
0000
0000
0001
0010
0100
0000
0010
0000
,
1000
0200
0000
0302
0000
0023
0000
0032
,
0000
1003
0200
0000
0000
0000
0000
0000
,
0000
0300
1000
0100
0010
0002
0000
0000
0000
0000
0000
0000
0000
0000
0000
0000
,
0000
0000
0000
0003
2000
0000
0000
0000
0000
0000
0000
0000
0000
0000
0000
0000
,
0000
0000
0000
0000
0000
0000
0000
0000
0000
0000
0000
3000
0100
1000
0001
0100
,
0010
0100
0001
1000
0200
0000
0000
0000
0000
0300
0010
0100
1000
0000
0010
0000
,
0100
0000
0000
0001
0000
0000
1000
0010
0000
0000
0000
1000
0100
0010
0001
0000
1000
0100
0001
0010
0100
1000
0100
0001
,
0010
0000
0100
0000
1000
0000
0100
0000
0000
0010
0000
0000
0002
0000
0000
0000
0000
0000
0000
0000
0000
0000
0000
0000
0003
0000
0000
0000
0000
0000
2200
0000
0000
0000
0000
0000
0000
0000
0000
3300
0000
0000
2020
0000
0000
0000
0000
0000
,
0000
3030
0202
0000
0000
0303
0022
0000
0000
0033
1100
0000
0011
0000
1000
0000
,
0101
0000
0000
1100
0000
0000
1000
0100
0010
0001
0010
1000
0100
0010
0001
0010
0100
0010
0001
1000
0001
0100
0010
0001
,
1000
0001
0010
0100
1000
0001
0100
0010
0100
1000
0001
0100
0001
0010
0100
1000
0100
0002
0000
0000
0000
0003
0000
0000
,
0001
0000
0010
0000
0100
0000
2000
0000
0000
0000
0000
0000
0000
0000
0000
0000
0000
0000
3200
0000
0000
0000
0000
0000
0000
0000
0000
0320
0000
0000
0000
0000
0000
0000
0000
0000
0032
0000
0000
0000
0000
0000
0000
0000
0000
0023
0000
0000
,
0000
0000
0000
0000
0000
0000
0000
0000
0000
0030
0000
0000
0001
0000
0010
0000
0100
0000
1000
0000
0001
0000
0010
0000
0100
0000
1000
0000
0001
0000
0010
0000
0100
0000
1000
0000
0001
0000
0000
0010
0000
0000
0100
0000
0000
1000
0000
0000
,
0001
0000
0000
0010
0000
0000
0100
0000
0000
1000
0000
0000
0020
0000
0000
0000
0000
0000
0000
0000
0000
0000
0000
0000
0000
0000
0000
0030
0000
0000
1000
0000
0000
0100
0000
0000
0001
0000
0000
0000
0010
0000
0000
0000
0100
0000
0000
0000
,
1000
0000
0000
0000
0100
0000
0000
0000
0010
0000
0000
0000
0001
0000
0000
0100
0000
0000
0001
0000
0000
0100
0000
0000
0001
0000
0000
0100
0000
0000
0001
0000
0000
0100
0000
0000
0001
0000
0000
0100
0000
0000
1000
0000
0000
0010
0000
0000
,
0100
0001
0100
0010
2000
0000
0000
0000
0000
0000
0000
3000
0101
0000
0000
0000
,
0202
0000
0000
0303
1010
1001
0220
0000
,
0000
0000
0000
0330
0000
0000
1010
0000
0000
0000
0101
0000
1010
0000
0000
0000
1010
0000
0002
0000
0000
0000
0000
0000
,
0000
0000
0003
1100
0022
0033
1100
0022
,
0033
0000
1100
0000
2002
0000
0000
0000
3003
0000
0100
0010
0001
0000
1000
0000
,
0010
0000
0100
0000
0001
0010
0100
1000
0100
0010
0002
0000
0000
0003
0100
0010
,
0002
0000
0103
0000
0010
0000
1000
0100
0010
0001
0100
0010
0001
1000
0010
0001
,
1000
0100
0001
1000
0200
0000
0000
0000
0000
0300
0020
0000
0000
0000
0000
0000
,
0000
0030
1001
0000
0000
1000
0100
0010
,
1000
0000
0022
0000
0000
0033
2200
0000
0000
3300
0220
0000
0000
0330
2002
0000
,
0000
3003
0202
0000
0000
0303
1000
0000
0010
0100
2020
0000
0000
3030
1100
0000
,
0011
0000
2002
0000
0000
0000
0000
3003
0110
0000
0202
0000
0000
0303
1100
0000
,
0011
0000
0220
0000
0000
0000
0000
0000
0000
0330
0101
0000
1001
0000
0110
0000
,
1010
0000
0202
0000
0000
0303
2020
0000
0000
3030
0022
0000
0000
0033
2020
0000
,
0000
3030
2200
0000
0000
3300
0220
0000
0000
0330
0022
0000
0000
0033
0220
0000
,
0000
0330
2200
0000
0000
3300
0001
0010
0100
1000
0001
0010
0100
1000
0001
0100
,
0010
1000
0100
1000
0020
0000
0000
0000
0000
0000
0000
0000
0000
0000
0000
0000
,
0000
0000
2030
0000
0000
3002
0000
0000
,
0000
0000
0203
0000
0320
0000
0000
0000
0000
0000
1030
0001
0100
0010
0100
0001
,
1000
0100
0010
0001
2000
0000
0000
3000
2000
3000
2000
0000
0000
0000
0000
3000
,
0010
0000
0000
0100
0000
0000
2000
0000
0000
0000
0000
0000
0000
0000
0000
0000
0000
0000
0000
0000
0000
0000
0000
0000
0000
0000
0000
0000
0000
0000
0000
0000
0000
3000
0000
0000
2000
0000
0000
0000
3100
0000
0001
0000
0010
0000
0100
0000
,
1000
0000
0000
0100
0000
0000
0010
0000
0000
0001
0000
0000
0010
0000
0000
0100
0000
0000
1000
0000
0100
0000
0010
0000
0001
0000
0010
0000
0100
0000
1000
0000
0100
0000
0010
0000
0002
0000
0000
0000
0000
0000
0000
0000
0000
0000
0000
0000
,
0000
0103
0002
0000
0023
0230
0000
2300
,
0000
0000
3010
0000
0001
0010
0100
1000
0001
0010
0100
1000
0001
0010
0100
1000
,
0001
0000
0000
1000
0000
0000
0001
0000
0010
0000
0100
0000
1000
0000
0000
0000
0000
0000
1010
0000
0000
0000
0000
0000
0000
0000
0000
1010
0000
0000
0000
0000
0000
0000
0000
0000
1010
0000
0000
0000
0000
0000
0000
0000
0000
1100
0000
0000
,
0000
0000
0011
0000
2002
0000
0000
0000
3003
0000
0110
0000
0022
0000
0000
0033
,
0110
0000
0202
0000
0000
0303
1000
0100
0010
0001
0000
0000
0100
0000
0000
0010
,
0000
0000
1000
0000
0001
0010
0100
1000
0010
0100
1000
0001
0100
1000
0001
0010
,
1000
0001
0010
0100
0001
0010
0100
1000
0010
0100
1000
0001
0100
1000
0001
0010
,
1000
0001
0010
0100
2002
0000
0000
0000
0000
0000
0000
0000
0000
3003
0000
0011
,
0000
0000
0200
0000
0000
0000
0301
0010
2000
0000
0000
0000
3100
0010
0002
0000
,
0103
0020
0000
0000
1030
0100
0010
0001
1000
0100
0010
0002
0000
0000
0000
0000
,
0000
0000
0000
0000
0000
0000
0000
0000
0000
0000
0000
0000
1003
0000
0100
0000
0010
0000
0001
0000
0000
1000
0000
0000
0100
0000
0000
0010
0000
0000
0001
0000
0000
0100
0000
0000
0010
0000
0000
1000
0000
0000
0200
0000
0000
0000
0000
0000
,
0300
1000
0100
0010
1001
0000
0000
0000
0000
0000
1000
0000
0100
0000
0010
0000
,
1000
0000
0022
0000
0000
0033
2200
0000
0000
3300
0220
0000
0000
0330
2002
0000
,
0000
3003
0202
0000
0000
0303
1000
0000
0010
0100
2020
0000
0000
3030
1100
0000
,
0011
0000
2002
0000
0000
0000
0000
3003
0110
0000
0202
0000
0000
0303
1100
0000
,
0011
0000
0220
0000
0000
0000
0000
0000
0000
0330
0101
0000
1001
0000
0110
0000
,
1010
0000
0202
0000
0000
0303
2020
0000
0000
3030
0022
0000
0000
0033
2020
0000
,
0000
3030
2200
0000
0000
3300
0220
0000
0000
0330
0022
0000
0000
0033
0220
0000
,
0000
0330
2200
0000
0000
3300
0010
0000
0100
0000
2002
0000
0000
0000
0000
0000
,
0000
0000
0000
0000
0000
0000
0000
0000
0000
3003
0000
0000
1000
0000
0100
0000
0010
0000
0001
0000
1000
0000
0100
0000
0010
0000
0001
0000
1000
0000
0100
0000
0010
0000
0001
0000
1000
0000
0001
0000
0010
0000
0100
0000
1000
0000
0001
0000
,
0010
0100
1000
0001
0010
0100
1000
0010
0100
0001
1000
0010
0100
0001
1000
0010
0100
0001
0110
0000
0000
0000
0000
0000
,
1001
0000
0000
0001
0100
0010
0100
2000
,
0000
3020
0000
0230
0000
0320
0000
2030
,
0000
3002
0000
0203
0000
0301
0010
0001
,
0020
0000
0000
0000
0000
0000
0000
0000
0000
0030
0001
0000
0010
0000
0100
0000
,
2000
0000
3001
0020
0000
0000
0030
0200
,
0000
0301
0002
0000
0000
0003
1000
0020
,
0000
0000
0030
0100
0000
0010
0100
2000
,
0000
0000
3000
0000
0000
0100
0010
0100
,
0002
0000
0013
0100
0000
1000
0001
0200
,
0000
0000
0310
0001
0010
0100
0010
2000
,
0000
0000
0000
3000
0000
0000
0001
0100
,
0010
0100
0000
0200
0000
0301
0010
0002
,
0000
0000
0103
0020
0000
0000
0130
0020
,
0000
0000
0000
0030
0000
0000
0000
0000
,
1000
0010
0100
0002
0000
1003
0000
0010
,
0100
0100
0100
0100
0100
0001
0010
0001
0010
0001
0010
0100
,
2000
0000
0000
0000
0000
3000
0010
0200
,
0000
0000
0000
0300
,
0000
0000
1000
0100
0010
0001
0200
0000
0000
0000
0301
0000
2000
0000
0000
0000
,
0000
0000
3001
0000
0020
0000
0000
0000
0000
0000
0030
0000
0000
0000
0000
0100
,
1000
0000
0000
0000
0100
0000
0000
0000
0010
0000
0000
0000
0001
0000
0000
0000
2000
0000
0000
0000
0000
0000
0000
0000
3000
0002
0000
0000
0000
0000
0000
0000
,
0000
0003
0100
0000
0001
0000
0100
0000
0020
0000
0000
0000
1030
0000
0200
0000
,
0000
0000
0310
0000
0001
0000
1000
0000
0100
0000
2000
0000
0000
0000
3001
0100
,
0020
0000
0000
0000
0000
0000
0000
0000
0000
0030
0000
0000
1000
0000
0100
0000
0010
0000
0001
0000
1000
0000
0010
0000
,
0200
0000
0000
0000
0000
0000
0310
2000
,
0000
0000
0000
0000
0000
0000
3000
0100
0001
0010
0100
1000
0001
0010
0100
1000
,
0002
0000
1003
0200
0000
1300
0000
0020
,
0000
0000
0031
0000
1000
0010
0100
0001
,
2000
0000
0000
0000
0000
0000
3000
0022
0000
0033
0000
2020
0000
3030
0000
0202
,
0000
0000
0000
0000
0000
0000
0000
0303
,
0010
0100
0001
1000
0100
1000
0100
0010
1000
0001
0010
0001
0010
0100
0001
1000
,
0100
1000
0100
0010
1000
0001
0010
0100
1000
0010
1000
0001
0010
0100
1000
0001
,
0020
0000
0000
0000
0000
0000
0000
0000
0000
0000
0000
0030
0020
0030
0020
0000
,
0000
0000
0000
0000
0000
0000
0031
1000
,
0010
0200
0000
0320
0000
0000
0030
2000
,
0000
3100
0010
0001
0010
1000
0010
0001
,
0020
0000
0000
0000
0000
0000
0000
0000
0000
0000
0000
0000
0000
0000
0000
0030
1000
0000
0100
0000
0010
0000
0001
0000
1000
0000
0000
0100
0000
0000
0010
0000
0000
0000
0000
0000
0002
0000
0000
0000
0000
0000
0000
0000
0000
0003
0000
0000
,
0002
0000
0000
0003
0000
0000
0002
0000
0000
0000
0000
0000
1003
0000
0000
0100
0000
0000
0001
0000
0010
0000
0100
0000
2000
0000
0000
0000
0000
0000
0000
0000
0000
0000
0000
0000
3000
0000
0000
0000
0000
0000
0100
0000
0000
0010
0000
0000
,
0000
0000
0000
0000
0000
0000
0010
0000
0000
0000
0000
0000
1000
0000
0000
0000
0100
0000
0001
0000
0010
0000
0100
0000
1000
0000
0100
0000
0010
0000
0001
0000
0010
0000
0100
0000
1000
0000
0000
0100
0000
0000
0010
0000
0000
0001
0000
0000
,
1100
1010
0110
0101
0011
0101
0110
1010
,
0110
0000
0000
2200
0000
0000
0000
0000
0000
0000
3300
0011
0000
0000
0101
0000
,
0000
0000
0000
0000
2200
0000
0000
0000
0000
0000
0000
0000
0000
0000
0000
0000
0000
0000
3300
0000
0010
0000
0000
0000
0200
0000
0000
0000
0000
0000
0000
0300
,
0000
0000
0000
0000
1000
0000
0000
0000
0100
0000
0000
0000
0002
0000
0000
0000
0000
0000
0000
0003
1000
0000
0000
0000
0100
0000
0000
0000
0020
0000
0000
0000
,
0000
0000
0000
0000
0000
0000
0000
0000
0000
0000
0000
0000
0000
0000
0000
0000
0000
0000
0030
0000
0000
0000
0000
0000
1000
0000
0000
0000
0000
0000
0000
0000
0100
0000
0000
0000
0000
0000
0000
0000
0010
0000
0000
0000
0000
0000
0000
0000
0001
0000
0000
0000
0000
0000
0000
0000
0000
0000
0000
0000
0000
0000
0000
0000
0010
0000
0000
0000
0000
0000
0000
0000
0000
0000
0000
0000
0000
0000
0000
0000
0100
0000
0000
0000
0000
0000
0000
0000
0000
0000
0000
0000
0000
0000
0000
0000
1000
0000
0000
0000
0000
0000
0000
0000
0000
0000
0000
0000
0000
0000
0000
0000
0100
0000
0000
0000
0000
0000
0000
0000
0000
0000
0000
0000
0000
0000
0000
0000
0010
0000
0000
0000
0000
0000
0000
0000
0000
0000
0000
0000
0000
0000
0000
0000
0001
0000
0000
0000
0000
0000
0000
0000
0100
0000
0000
0000
0000
0000
0000
0000
0010
0000
0000
0000
0000
0000
0000
0000
1000
0000
0000
0000
0000
0000
0000
0000
0010
0000
0000
0000
0000
0000
0000
0000
0100
0000
0000
0000
0000
0000
0000
0000
,
0001
0010
0100
1000
0100
0010
0001
0010
0100
1000
0100
0010
0002
0000
0000
0203
0000
0000
0000
0000
0000
2000
0000
0000
,
3300
0000
0000
0001
0010
0100
1000
0001
0010
0100
1000
0001
0010
0100
0000
0001
0010
0000
0001
0200
0000
0000
0000
0000
,
0320
0000
0000
1030
0100
0010
0001
0010
0100
1000
0100
0010
0001
0100
1000
0001
0100
1000
0001
0100
1000
0001
0100
1000
,
0002
0000
0000
0000
0003
0000
1000
0000
0100
0000
0010
0000
0001
0000
0010
0000
0100
0000
1000
0000
0000
0100
0000
0000
0010
0000
0000
0001
0000
0000
0010
0000
0000
0100
0000
0000
1000
0000
0000
0001
0000
0000
0010
0000
0000
0100
0000
0000
,
2000
0000
0000
0000
,
0000
3001
0010
0100
0010
0001
0010
0100
,
2000
0000
0000
0000
,
3002
0000
0203
0320
,
0032
0000
0000
0000
0000
0013
0010
0010
,
0020
0000
0000
0000
0000
0000
1030
0100
0000
0100
0001
0010
0100
1000
0010
0100
,
0001
0010
2000
0000
0000
0000
0000
0000
0000
0000
0000
0000
0000
3000
0020
0000
,
0000
0000
0000
0030
0000
0000
0001
0000
0010
0000
0100
0000
1000
0000
0001
0000
0010
0000
0100
0000
1000
0000
0100
0000
0010
0000
0001
0000
0010
0000
0100
0000
1000
0000
0100
0000
0010
0000
0001
0000
1000
0000
0100
0000
0010
0000
0001
0000
,
0200
0000
0000
0000
0000
0000
1300
0200
,
0000
0000
0000
0000
0300
0001
0000
0010
0000
1000
0000
0100
0000
0001
0000
0020
,
0000
0000
0000
0000
2030
0000
0000
0000
0000
0000
0000
0000
0000
0000
0000
0000
0000
0000
0000
0000
0000
0000
0000
0000
3000
0002
0000
0000
0000
0000
0000
0000
,
0000
0023
0000
0230
0000
2300
0000
3010
,
0002
0000
0000
0000
0000
0000
0000
0000
1003
0100
0010
0001
0010
0100
1000
0100
,
0010
0000
0000
0001
0000
0000
0010
0000
0000
0100
0000
0000
1000
0000
0100
0000
0010
0000
0001
0000
0000
0010
0000
0000
0100
0000
0000
1000
0000
0000
0001
0000
0000
0010
0000
0000
0100
0000
0000
1000
0000
0000
0020
0000
0000
0000
0000
0000
,
0000
0000
0000
0000
0030
0100
1000
0020
0000
0130
1000
0010
0100
0001
0010
1000
,
0001
0000
0000
0100
0000
0000
0001
0000
0000
0100
0000
0000
0001
0000
0000
0100
0000
0000
0001
0000
0000
0100
0000
0000
1000
0000
0000
0010
0000
0000
0001
0000
1000
0000
0001
0000
1000
0000
0001
0000
0110
0000
0000
0000
0000
0000
0000
0000
,
2000
0000
0000
0000
0000
3100
0010
0100
,
0002
0000
0000
0000
0000
0000
0000
0000
0000
0000
0000
0000
0000
0000
0000
0000
0000
0000
0000
0000
1003
0000
0100
0000
0010
0000
0002
0000
0000
0000
0000
0000
0000
0000
0000
0000
0000
0000
0000
1003
0000
0000
0000
0000
0000
0000
0000
0000
,
0002
0000
0000
0000
0000
0000
0000
0000
0000
0000
0000
0000
0000
0000
0000
0003
,
1000
0100
0010
0001
0110
0000
1100
0000
0110
0000
0202
0000
0000
0303
0110
0000
,
1001
0000
0000
0001
0010
0100
1000
0010
0100
0010
1000
0001
0010
0100
1000
0100
,
0010
0100
0001
1000
0100
0010
0001
0100
0010
0100
0001
1000
0100
0010
0001
0200
,
0000
0000
0301
0010
0100
1000
0001
0010
0100
1000
0002
0000
0000
0103
1000
0010
,
0100
0001
0010
0100
0010
0002
0000
0000
0000
0003
2000
0000
0000
0000
3000
0000
,
1001
0000
0000
1000
0100
0010
1000
0022
,
0000
0033
2200
0000
0000
3300
0220
0000
0000
0330
2002
0000
0000
3003
0202
0000
,
0000
0303
1000
0000
0010
0100
2020
0000
0000
3030
1100
0000
0011
0000
2002
0000
,
0000
0000
0000
3003
0110
0000
0202
0000
0000
0303
1100
0000
0011
0000
0220
0000
,
0000
0000
0000
0000
0000
0330
0101
0000
1001
0000
0110
0000
1010
0000
0202
0000
,
0000
0303
2020
0000
0000
3030
0022
0000
0000
0033
2020
0000
0000
3030
2200
0000
,
0000
3300
0220
0000
0000
0330
0022
0000
0000
0033
0220
0000
0000
0330
2200
0000
,
0000
3300
1100
0000
0000
0002
0000
0000
0000
0000
0000
0000
0000
0000
0000
0000
,
0200
0000
0000
0000
,
0000
0000
0000
0000
0000
0303
0000
0000
;
