#TITLE:Starships;
#SUBTITLE:;
#ARTIST:Doctor DRRR;
#TITLETRANSLIT:;
#SUBTITLETRANSLIT:;
#ARTISTTRANSLIT:;
#CREDIT:Rynker;
#BANNER:Bn-Star.png;
#BACKGROUND:Bg-Star.png;
#LYRICSPATH:;
#CDTITLE:;
#MUSIC:02. Doctor DRRR - Starships.ogg;
#OFFSET:-0.011;
#SAMPLESTART:102.061;
#SAMPLELENGTH:12.000;
#SELECTABLE:YES;
#BPMS:0.000=150.000;
#STOPS:;
#BGCHANGES:;
// cache tags:
#FIRSTBEAT:16.000;
#LASTBEAT:353.000;
#SONGFILENAME:Songs/SPEEEDCOOOORE 3/Starships - [Rynker]/starships.sm;
#HASMUSIC:1;
#HASBANNER:1;
#MUSICLENGTH:142.165;
// end cache tags

//---------------dance-single - Rynker----------------
#NOTES:
     dance-single:
     Rynker:
     Challenge:
     12:
     0.958,1.000,0.225,0.281,1.000,875.000,32.000,40.000,3.000,2.000:
0000
0000
0000
0000
,
0000
0000
0000
0000
,
0000
0000
0000
0000
,
0000
0000
0000
0000
,
2001
0000
0000
0001
3000
0000
0100
0000
0000
0000
0010
0000
1000
0010
0000
0000
,
2000
0000
0000
0100
3000
0000
0010
0000
0000
0000
0100
0000
1000
0001
0000
0000
,
0200
0000
0000
0001
0300
0000
0010
0000
0000
0000
0100
0000
0010
0100
0000
0000
,
2000
0000
0000
0001
0000
3000
0000
0000
0000
0000
0000
0000
0000
0000
0000
0001
0000
0000
1000
0000
0000
0000
0000
0000
,
0001
0100
0010
0100
0001
1000
0100
0010
0001
1000
0001
1000
0010
0100
0010
1000
,
0001
0000
0000
0010
0000
0000
0100
0000
0000
0010
0000
0000
0001
0000
0000
1000
0000
0000
0001
0000
0000
0100
0000
0000
0010
0000
0000
0000
0000
0000
1000
0000
0001
0000
1000
0000
0001
0000
0000
0000
0000
0000
1000
0000
0001
0000
1000
0000
,
0001
0100
0010
0100
0001
1000
0100
0010
0001
0010
0100
1000
0010
0000
0000
0000
,
0100
0000
0000
0001
0000
0000
0100
0000
0000
0010
0000
0000
0100
0000
0000
0010
0000
0000
1000
0000
0000
0010
0000
0000
1000
0000
0001
0000
0100
0000
0001
0000
0000
1000
0000
0000
0100
0000
0010
0000
0001
0000
1000
0000
0001
0000
0010
0000
,
0100
0000
0000
1000
0000
0000
0100
0000
0000
0010
0000
0000
0001
0000
0000
1000
0000
0000
0001
0000
0000
0100
0000
0000
0001
0000
0000
0100
0000
0000
0010
0000
0000
1000
0000
0000
0010
0000
0000
0000
0000
0000
0100
0000
0001
0000
0100
0000
,
0001
0000
0000
1000
0000
0000
0100
0000
0000
0010
0000
0000
0001
0000
0000
1000
0000
0000
0001
0000
0000
0100
0000
0000
0010
0000
1000
0000
0001
0000
1000
0000
0100
0000
0010
0000
0001
0000
0000
0000
0000
0000
0001
0000
0000
0000
0000
0000
,
1000
0000
0000
0001
0000
0000
0100
0000
0000
0010
0000
0000
0100
0000
0000
0001
0000
0000
0010
0000
0000
0100
0000
0000
1000
0000
0000
0100
0000
0000
0010
0000
0000
0001
0000
0000
1000
0000
0100
0000
0010
0000
0001
0000
1000
0000
0001
0000
,
2000
0000
0000
0000
3102
0000
4003
0000
3102
0000
0000
0003
1100
0000
0000
0000
,
0001
0001
0001
0001
0001
0001
0001
0001
,
1000
1000
1000
0100
0100
0100
0100
0100
,
1000
1000
1000
1000
1000
1000
1000
1000
,
0001
0001
0001
0100
0100
0100
0100
0100
,
0001
0001
0001
0001
0001
0001
0001
0001
,
1000
1000
1000
0100
0100
0100
0100
0100
,
1000
1000
1000
1000
1000
1000
1000
1000
,
0000
0000
0000
0000
0000
0002
0203
0320
,
2030
3000
0001
0000
1001
0000
1000
0000
,
0100
0000
0000
0100
0000
0000
0100
0000
0000
0000
2000
0000
3020
0000
2030
0000
,
3002
0003
0100
0000
0010
0000
1000
0000
,
0001
0000
0000
0001
0000
0000
0001
0000
0000
0000
0020
0000
0032
0000
2003
0000
,
3200
0300
0010
0000
0001
0000
1000
0000
,
0010
0000
0000
0010
0000
0000
0010
0000
0000
0000
2000
0000
3002
0000
0203
0000
,
0302
0003
0100
0000
0010
0000
1000
0000
,
0001
0000
0000
0001
0000
0000
0001
0000
0000
0000
0020
0000
0230
0000
2300
3000
,
1001
0000
0000
0000
1100
0000
0000
0100
0010
0000
0001
0000
1000
0000
0000
0000
,
0010
0000
0010
0000
0100
0000
0001
0100
0001
0000
1000
0100
1000
0000
0000
0000
,
0101
0000
0000
0000
0100
0000
0000
0010
1000
0000
0001
0000
0100
0000
0000
0000
,
0011
0000
0000
0000
0010
0000
0000
0100
1000
0000
0100
0000
0010
0000
0001
0000
,
1001
0000
0000
0000
1000
0000
0000
0010
0100
0000
0010
0000
1000
0000
0000
0000
,
1001
0000
1000
0000
0100
0000
0010
0001
0010
0000
0100
1000
0100
0000
0000
0000
,
1100
0000
0000
0000
1000
0000
0000
0001
0100
0000
0010
0000
1000
0000
0000
0000
,
2010
0000
0000
0000
0000
0000
3001
0001
,
1000
0100
0010
0001
1000
0001
0100
0010
0100
0010
1000
0100
0010
0001
0010
0100
,
1000
0000
0000
0001
0000
0000
0100
0000
0000
0001
0000
0000
1000
0000
0000
0001
0000
0000
0100
0000
0000
0001
0000
0000
1000
0000
0000
0000
0000
0000
0100
0000
1000
0000
0001
0000
1000
0000
0000
0000
0000
0000
0001
0000
0010
0000
0001
0000
,
1000
0001
0010
0001
0100
0010
0100
0010
1000
0100
0010
0001
0020
0000
0000
0000
,
0130
0000
0000
1000
0000
0000
0100
0000
0000
0010
0000
0000
0001
0000
0000
1000
0000
0000
0010
0000
0000
0100
0000
0000
0010
0000
1000
0000
0001
0000
1000
0000
0000
0010
0000
0000
0100
0000
0001
0000
0100
0000
0010
0000
1000
0000
0001
0000
,
1000
0000
0000
0001
0000
0000
0100
0000
0000
0010
0000
0000
0100
0000
0000
0001
0000
0000
0010
0000
0000
0100
0000
0000
1000
0000
0000
0100
0000
0000
0010
0000
0000
0001
0000
0000
0010
0000
0000
0000
0000
0000
0001
0000
1000
0000
0010
0000
,
0100
0000
0000
0001
0000
0000
1000
0000
0000
0100
0000
0000
0010
0000
0000
0001
0000
0000
1000
0000
0000
0001
0000
0000
1000
0000
0100
0000
1000
0000
0001
0000
0010
0000
0001
0000
1000
0000
0000
0000
0000
0000
1000
0000
0000
0000
0000
0000
,
0001
0000
0000
0100
0000
0000
0010
0000
0000
0100
0000
0000
0001
0000
0000
0010
0000
0000
0100
0000
0000
1000
0000
0000
0100
0000
0000
0010
0000
0000
0001
0000
0000
1000
0000
0000
0001
0000
1000
0000
0010
0000
0100
0000
0001
0000
0100
0000
,
0001
0000
0000
0000
0000
0000
1200
0000
0000
0340
0000
0030
2200
0000
0000
3300
0000
0000
2200
0000
0000
3300
0000
0000
,
1000
0001
0100
0010
0100
0010
1000
0100
0010
0001
0010
0100
1000
0001
0100
0001
,
1000
0000
0000
0010
0000
0000
1000
0000
0000
0001
0000
0000
1000
0000
0000
0010
0000
0000
1000
0000
0000
0001
0000
0000
1000
0000
0001
0000
0010
0000
0100
0000
1000
0000
0001
0000
0010
0000
0100
0000
1000
0000
0100
0000
0010
0000
0001
0000
,
0010
0001
1000
0010
0100
0010
0100
0001
1000
0100
0010
0001
0100
0000
0100
0000
,
0110
0010
1010
1000
1001
0000
1001
0000
,
0001
0000
0000
0010
0000
0000
0100
0000
0000
0010
0000
0000
0001
0000
0000
1000
0000
0000
0001
0000
0000
0100
0000
0000
0010
0000
0000
0100
0000
0000
0001
0000
0000
1000
0000
0000
0100
0000
0010
0000
0001
0000
0010
0000
0001
0000
1000
0000
,
0010
0100
0001
0010
0100
1000
0100
0010
0001
1000
0001
0100
0010
0100
0010
1000
,
0001
0010
0100
0010
0001
1000
0001
0100
0010
1000
0100
0010
0100
1000
0010
1000
,
0001
0000
0000
0000
0000
0000
0000
0000
0000
0000
0000
1000
0010
0000
0010
0000
,
1001
0000
0000
0000
1100
0000
0000
0100
0010
0000
0001
0000
1000
0000
0000
0000
,
0010
0000
0010
0000
0100
0000
0001
0100
0001
0000
1000
0100
1000
0000
0000
0000
,
0101
0000
0000
0000
0100
0000
0000
0010
1000
0000
0001
0000
0100
0000
0000
0000
,
0011
0000
0000
0000
0010
0000
0000
0100
1000
0000
0100
0000
0010
0000
0001
0000
,
1001
0000
0000
0000
1000
0000
0000
0010
0100
0000
0010
0000
1000
0000
0000
0000
,
1001
0000
1000
0000
0100
0000
0010
0001
0010
0000
0100
1000
0100
0000
0000
0000
,
1100
0000
0000
0000
1000
0000
0000
0001
0100
0000
0010
0000
1000
0000
0000
0000
,
2010
0000
3000
0MMM
,
1000
0010
0100
0010
1000
0001
0010
0100
1000
0001
1000
0001
0100
0010
0100
0001
,
1000
0000
0000
0100
0000
0000
0010
0000
0000
0100
0000
0000
1000
0000
0000
0001
0000
0000
1000
0000
0000
0010
0000
0000
0100
0000
0000
0000
0000
0000
0001
0000
1000
0000
0001
0000
1000
0000
0000
0000
0000
0000
0001
0000
1000
0000
0001
0000
,
1000
0010
0100
0010
1000
0001
0010
0100
1000
0100
0010
0001
0100
0000
0000
0000
,
0010
0000
0000
1000
0000
0000
0010
0000
0000
0100
0000
0000
0010
0000
0000
0100
0000
0000
0001
0000
0000
0100
0000
0000
0001
0000
1000
0000
0010
0000
1000
0000
0000
0001
0000
0000
0010
0000
0100
0000
1000
0000
0001
0000
1000
0000
0100
0000
,
0010
0000
0000
0001
0000
0000
0010
0000
0000
0100
0000
0000
1000
0000
0000
0001
0000
0000
1000
0000
0000
0010
0000
0000
1000
0000
0000
0010
0000
0000
0100
0000
0000
0001
0000
0000
0100
0000
0000
0000
0000
0000
0010
0000
1000
0000
0010
0000
,
1000
0000
0000
0001
0000
0000
0010
0000
0000
0100
0000
0000
1000
0000
0000
0001
0000
0000
1000
0000
0000
0010
0000
0000
0100
0000
0001
0000
1000
0000
0001
0000
0010
0000
0100
0000
1000
0000
0000
0000
0000
0000
1000
0000
0000
0000
0000
0000
,
0001
0000
0000
1000
0000
0000
0010
0000
0000
0100
0000
0000
0010
0000
0000
1000
0000
0000
0100
0000
0000
0010
0000
0000
0001
0000
0000
0010
0000
0000
0100
0000
0000
1000
0000
0000
0001
0000
0010
0000
0100
0000
1000
0000
0001
0000
1000
0000
,
0002
0000
0000
0000
2013
0000
3004
0000
2013
0000
0000
3000
0011
0000
0000
0000
,
1000
0000
0001
1000
0001
0000
1000
0000
0100
0000
0010
0000
0100
0000
1000
0000
,
0001
0000
0000
0100
0000
0000
0010
0000
0000
0100
0000
0000
0001
1000
0100
0010
0001
1000
0001
0000
0000
0001
0000
0000
,
1000
0000
0100
0000
1000
0000
0001
0000
0010
0000
0100
0000
1000
0000
0001
0100
,
0010
0000
0100
0000
0001
0000
1000
0000
0400
0300
0400
0300
0010
0000
0000
0000
,
0001
0000
1000
0000
0001
0000
0100
0000
0010
0000
0100
0000
0001
0000
1000
0100
,
1000
0000
0000
0001
0000
0000
0100
0000
0000
0010
0000
0000
0100
0000
0000
0001
0000
0000
1000
0100
1000
0001
0010
0100
,
1000
0000
0001
0000
0100
0000
0001
0000
1000
0000
0100
0000
1000
0400
0300
0100
,
0010
0001
0100
0001
1000
0001
0000
0000
,
0001
0100
0010
0100
0001
1000
0100
0010
0001
1000
0001
1000
0010
0100
0010
1000
,
0001
0000
0000
0010
0000
0000
0100
0000
0000
0010
0000
0000
0001
0000
0000
1000
0000
0000
0001
0000
0000
0100
0000
0000
0010
0000
0000
0000
0000
0000
1000
0000
0001
0000
1000
0000
0001
0000
0000
0000
0000
0000
1000
0000
0001
0000
1000
0000
,
0001
0100
0010
0100
0001
1000
0100
0010
0001
0010
0100
1000
0010
0000
0000
0000
,
0100
0000
0000
0001
0000
0000
0100
0000
0000
0010
0000
0000
0100
0000
0000
0010
0000
0000
1000
0000
0000
0010
0000
0000
1000
0000
0001
0000
0100
0000
0001
0000
0000
1000
0000
0000
0100
0000
0010
0000
0001
0000
1000
0000
0001
0000
0010
0000
,
0100
0000
0000
1000
0000
0000
0100
0000
0000
0010
0000
0000
0001
0000
0000
1000
0000
0000
0001
0000
0000
0100
0000
0000
0001
0000
0000
0100
0000
0000
0010
0000
0000
1000
0000
0000
0010
0000
0000
0000
0000
0000
0100
0000
0001
0000
0100
0000
,
0001
0000
0000
1000
0000
0000
0100
0000
0000
0010
0000
0000
0001
0000
0000
1000
0000
0000
0001
0000
0000
0100
0000
0000
0010
0000
1000
0000
0001
0000
1000
0000
0100
0000
0010
0000
0001
0000
0000
0000
0000
0000
0001
0000
0000
0000
0000
0000
,
1000
0000
0000
0001
0000
0000
0100
0000
0000
0010
0000
0000
0100
0000
0000
0001
0000
0000
0010
0000
0000
0100
0000
0000
1000
0000
0000
0100
0000
0000
0010
0000
0000
0001
0000
0000
1000
0000
0100
0000
0010
0000
0001
0000
1000
0000
0001
0000
,
2000
0000
0000
0000
3000
0000
0000
0000
0000
0000
0000
0001
0100
0000
0000
0000
,
2002
3003
0000
0000
;
