#TITLE:Death Egg;
#SUBTITLE:Sonic & Knuckles;
#ARTIST:Paul Stetich;
#TITLETRANSLIT:;
#SUBTITLETRANSLIT:;
#ARTISTTRANSLIT:;
#CREDIT:owenviau1;
#BANNER:BN.png;
#BACKGROUND:BG.png;
#LYRICSPATH:;
#CDTITLE:../CDTitleOV1.png;
#MUSIC:Paul Stetich - Sonic & Knuckles - Death Egg.mp3;
#OFFSET:-0.012;
#SAMPLESTART:85.512;
#SAMPLELENGTH:29.999;
#SELECTABLE:YES;
#DISPLAYBPM:80.000:160.000;
#BPMS:0.000=60.000,12.000=160.000;
#STOPS:;
#BGCHANGES:;
// cache tags:
#FIRSTBEAT:12.000;
#LASTBEAT:778.333;
#SONGFILENAME:Songs/owenviau1 Simfiles 7/Death Egg - [owenviau1] v1.0.1/Death Egg.sm;
#HASMUSIC:1;
#HASBANNER:1;
#MUSICLENGTH:302.455;
// end cache tags

//---------------dance-single - 14.28 (14) (owenviau----------------
#NOTES:
     dance-single:
     14.28 (14) (owenviau:
     Challenge:
     14:
     1.000,1.000,0.010,0.079,1.000,2793.000,3.000,24.000,11.000,0.000:
0000
0000
0000
0000
,
0000
0000
0000
0000
,
0000
0000
0000
0000
,
1000
0100
0010
0001
0100
0010
1000
0010
0100
0001
0010
0100
1000
0001
0010
0001
,
0100
0010
1000
0001
0010
0001
0100
0010
1000
0001
0100
0001
0010
0100
1000
0010
,
0100
0001
1000
0100
0010
0001
0100
0010
0100
0001
1000
0001
0010
0100
1000
0010
,
0100
0001
0100
0010
1000
0010
0100
0001
1000
0100
0010
0001
0100
0010
1000
0001
,
0010
0100
1000
0010
0100
0010
1000
0100
0010
0001
0100
0010
1000
0001
0010
0001
,
0100
0010
1000
0010
0100
0001
1000
0001
0010
0100
1000
0010
0100
0010
1000
0001
,
0100
0010
0100
0001
1000
0100
0010
0001
0100
0010
1000
0100
0010
0001
1000
0010
,
1000
0100
0010
0001
0100
0010
1000
0001
0010
0001
1000
0100
1000
0001
0100
0010
,
1000
0100
0010
0001
0100
0010
1000
0001
0100
0010
1000
0100
0010
0001
0100
0010
,
1000
0100
0010
0001
0100
0010
1000
0010
0100
0001
0010
0100
1000
0001
0010
0001
,
0100
0010
1000
0001
0010
0001
0100
0010
1000
0001
0100
0001
0010
0100
1000
0010
,
0100
0001
1000
0100
0010
0001
0100
0010
0100
0001
1000
0001
0010
0100
1000
0010
,
0100
0001
0100
0010
1000
0010
0100
0001
1000
0100
0010
0001
0100
0010
1000
0001
,
0010
0100
1000
0010
0100
0010
1000
0100
0010
0001
0100
0010
1000
0001
0010
0001
,
0100
0010
1000
0010
0100
0001
1000
0001
0010
0100
1000
0010
0100
0010
1000
0001
,
0100
0010
0100
0001
1000
0100
0010
0001
0100
0010
1000
0100
0010
0001
1000
0010
,
100M
0000
0000
0000
0000
000M
0000
M000
0001
0100
0010
1000
0010
0100
0001
0010
,
0100
1000
0001
0010
0001
0100
0010
1000
0001
0010
0001
0100
0010
1000
0001
0100
,
0001
0010
0100
1000
0010
0100
0001
1000
0100
0010
0001
0100
0010
0100
0001
1000
,
0001
0010
0100
1000
0010
0100
0001
0100
0010
1000
0010
0100
0001
1000
0100
0010
,
0001
0100
0010
1000
0001
0010
0100
1000
0010
0100
0010
1000
0100
0010
0001
0100
,
0010
1000
0001
0010
0001
0100
0010
1000
0010
0100
0001
1000
0001
0010
0100
1000
,
0010
0100
0010
1000
0001
0100
0010
0100
0001
1000
0100
0010
0001
0100
0010
1000
,
0100
0010
0001
1000
0010
1000
0100
0010
0001
0100
0010
1000
0001
0010
0001
1000
,
0100
1000
0001
0100
0010
1000
0100
0010
0001
0100
0010
1000
0001
0100
0010
1000
,
0100
0010
0001
0100
0010
1000
0100
0010
0001
0100
0010
1000
0010
0100
0001
0010
,
0100
1000
0001
0010
0001
0100
0010
1000
0001
0010
0001
0100
0010
1000
0001
0100
,
0001
0010
0100
1000
0010
0100
0001
1000
0100
0010
0001
0100
0010
0100
0001
1000
,
0001
0010
0100
1000
0010
0100
0001
0100
0010
1000
0010
0100
0001
1000
0100
0010
,
0001
0100
0010
1000
0001
0010
0100
1000
0010
0100
0010
1000
0100
0010
0001
0100
,
0010
1000
0001
0010
0001
0100
0010
1000
0010
0100
0001
1000
0001
0010
0100
1000
,
0010
0100
0010
1000
0001
0100
0010
0100
0001
1000
0100
0010
0001
0100
0010
1000
,
0100
0010
0001
0100
0010
1000
0010
0100
0001
0010
0100
1000
0001
0010
0001
0100
,
0010
1000
0001
0010
0001
0100
0010
1000
0001
0100
0001
0010
0100
1000
0010
0100
,
0001
1000
0100
0010
0001
0100
0010
0100
0001
1000
0001
0010
0100
1000
0010
0100
,
0001
0100
0010
1000
0010
0100
0001
1000
0100
0010
0001
0100
0010
1000
0001
0010
,
0100
1000
0001
0000
0100
0000
0000
0000
0010
0000
1000
0001
0010
0200
0000
0000
,
1300
0010
0100
0001
1000
0001
0010
0100
1000
0010
0100
0010
1000
0001
0100
0010
,
0100
0001
1000
0100
0010
0001
0100
0010
1000
0100
0010
0001
1000
0010
1000
0100
,
0010
0001
0100
0010
1000
0001
0010
0001
1000
0100
1000
0001
0100
0010
1000
0100
,
0010
0001
0100
0000
0010
0000
0000
0000
1000
0100
0010
0001
0100
0010
1000
0001
,
1000
0100
0010
0001
0100
0010
1000
0010
0100
0001
0010
0100
1000
0001
0010
0001
,
0100
0010
1000
0001
0010
0001
0100
0010
1000
0001
0100
0001
0010
0100
1000
0010
,
0100
0001
1000
0100
0010
0001
0100
0010
0100
0001
1000
0001
0010
0100
1000
0010
,
0100
0001
0100
0010
1000
0010
0100
0001
1000
0100
0010
0001
0100
0010
1000
0001
,
0010
0100
1000
0010
0100
0010
1000
0100
0010
0001
0100
0010
1000
0001
0010
0001
,
0100
0010
1000
0010
0100
0001
1000
0001
0010
0100
1000
0010
0100
0010
1000
0001
,
0100
0010
0100
0001
1000
0100
0010
0001
0100
0010
1000
0100
0010
0001
1000
0010
,
1000
0100
0010
0001
0100
0010
1000
0001
0010
0001
1000
0100
1000
0001
0100
0010
,
1000
0100
0010
0001
0100
0010
1000
0001
0100
0010
1000
0100
0010
0001
0100
0010
,
1000
0100
0010
0001
0100
0010
1000
0010
0100
0001
0010
0100
1000
0001
0010
0001
,
0100
0010
1000
0001
0010
0001
0100
0010
1000
0001
0100
0001
0010
0100
1000
0010
,
0100
0001
1000
0100
0010
0001
0100
0010
0100
0001
1000
0001
0010
0100
1000
0010
,
0100
0001
0100
0010
1000
0010
0100
0001
1000
0100
0010
0001
0100
0010
1000
0001
,
0010
0100
1000
0010
0100
0010
1000
0100
0010
0001
0100
0010
1000
0001
0010
0001
,
0100
0010
1000
0010
0100
0001
1000
0001
0010
0100
1000
0010
0100
0010
1000
0001
,
0100
0010
0100
0001
1000
0100
0010
0001
0100
0010
1000
0010
0100
0001
0010
0100
,
1000
0010
0100
0001
1000
0001
0010
0100
1000
0010
0100
0010
1000
0001
0100
0010
,
0100
0001
1000
0100
0010
0001
0100
0010
1000
0100
0010
0001
1000
0010
1000
0100
,
0010
0001
0100
0010
1000
0001
0010
0001
1000
0100
1000
0001
0100
0010
1000
0100
,
0010
0001
0100
0000
0010
0000
0000
0000
1000
0000
0001
0100
0010
0200
0000
0000
,
0310
1000
0001
0010
0001
0100
0010
1000
0001
0100
0001
0010
0100
1000
0010
0100
,
0001
1000
0100
0010
0001
0100
0010
0100
0001
1000
0001
0010
0100
1000
0010
0100
,
0001
0100
0010
1000
0010
0100
0001
1000
0100
0010
0001
0100
0010
1000
0001
0010
,
0100
1000
0001
0000
0100
0000
0000
0000
0010
1000
0100
0010
0001
0100
0010
1000
,
0010
0100
0001
0010
0001
0100
0010
1000
0001
0100
0001
0010
0100
1000
0010
0100
,
0001
1000
0100
0010
0001
0100
0010
0100
0001
1000
0001
0010
0100
1000
0010
0100
,
0001
0100
0010
1000
0010
0100
0001
1000
0100
0010
0001
0100
0010
1000
0001
0010
,
0100
1000
0001
0000
0100
0000
0000
0000
0010
0000
1000
0001
0010
0200
0000
0000
,
1300
0010
1000
0001
0010
0100
1000
0010
0100
0010
1000
0100
0010
0001
0100
0010
,
1000
0001
0010
0001
0100
0010
1000
0010
0100
0001
1000
0001
0010
0100
1000
0010
,
0100
0010
1000
0001
0100
0010
0100
0001
1000
0100
0010
0001
0100
0010
1000
0100
,
0010
0001
1000
0000
0010
0000
0000
0000
0100
0001
0010
0100
1000
0100
0010
0001
,
0100
0010
1000
0001
1000
0100
0010
0001
0100
0010
1000
0010
0100
0001
0010
0100
,
1000
0001
0010
0001
0100
0010
1000
0001
0010
0001
0100
0010
1000
0001
0100
0001
,
0010
0100
1000
0010
0100
0001
1000
0100
0010
0001
0100
0010
0100
0001
1000
0001
,
0010
0100
1000
0010
0100
0001
0100
0010
1000
0010
0100
0001
1000
0100
0010
0001
,
0100
0010
1000
0001
0010
0100
1000
0010
0100
0010
1000
0100
0010
0001
0100
0010
,
1000
0001
0010
0001
0100
0010
1000
0010
0100
0001
1000
0001
0010
0100
1000
0010
,
0100
0010
1000
0001
0100
0010
0100
0001
1000
0100
0010
0001
0100
0010
1000
0100
,
0010
0001
1000
0010
1000
0100
0010
0001
0100
0010
1000
0001
0010
0001
1000
0100
,
1000
0001
0100
0010
1000
0100
0010
0001
0100
0010
1000
0001
0100
0010
1000
0100
,
0010
0001
0100
0010
1000
0100
0010
0001
0100
0010
1000
0010
0100
0001
0010
0100
,
1000
0001
0010
0001
0100
0010
1000
0001
0010
0001
0100
0010
1000
0001
0100
0001
,
0010
0100
1000
0010
0100
0001
1000
0100
0010
0001
0100
0010
0100
0001
1000
0001
,
0010
0100
1000
0010
0100
0001
0100
0010
1000
0010
0100
0001
1000
0100
0010
0001
,
0100
0010
1000
0001
0010
0100
1000
0010
0100
0010
1000
0100
0010
0001
0100
0010
,
1000
0001
0010
0001
0100
0010
1000
0010
0100
0001
1000
0001
0010
0100
1000
0010
,
0100
0010
1000
0001
0100
0010
0100
0001
1000
0100
0010
0001
0100
0010
1000
0001
,
1000
0100
0010
0001
0100
0010
1000
0010
0100
0001
0010
0100
1000
0001
0010
0001
,
0100
0010
1000
0001
0010
0001
0100
0010
1000
0001
0100
0001
0010
0100
1000
0010
,
0100
0001
1000
0100
0010
0001
0100
0010
0100
0001
1000
0001
0010
0100
1000
0010
,
0100
0001
0100
0010
1000
0010
0100
0001
1000
0100
0010
0001
0100
0010
1000
0001
,
0010
0100
1000
0010
0100
0010
1000
0100
0010
0001
0100
0010
1000
0001
0010
0001
,
0100
0010
1000
0010
0100
0001
1000
0001
0010
0100
1000
0010
0100
0010
1000
0001
,
0100
0010
1000
0100
0010
0001
0200
0000
,
0000
0310
1000
0001
0010
0001
0100
0010
,
1010
0100
0001
0010
0100
1000
0002
0000
,
0000
0103
0010
1000
0100
0010
0001
1000
,
0010
1000
0001
0100
0010
1000
0200
0000
,
0000
0310
0001
0100
0010
0100
0001
1000
,
0100
0010
0001
1000
0010
0100
0002
0000
,
0000
1003
0100
0010
0001
0100
0010
0100
,
0001
1000
0001
0010
0100
1000
0020
0000
,
0000
0130
0001
1000
1001
0010
0100
0001
,
1000
0100
0010
0001
0100
0010
1000
0001
1000
0100
0010
0001
0100
0010
1000
0010
,
0100
0001
0010
0100
1000
0001
0010
0001
0100
0010
1000
0001
0010
0001
0100
0010
,
1000
0001
0100
0001
0010
0100
1000
0010
0100
0001
1000
0100
0010
0001
0100
0010
,
0100
0001
1000
0001
0010
0100
1000
0010
0100
0001
0100
0010
1000
0010
0100
0001
,
1000
0100
0010
0001
0100
0010
1000
0001
0010
0100
1000
0010
0100
0010
1000
0100
,
0010
0001
0100
0010
1000
0001
0010
0001
0100
0010
1000
0010
0100
0001
1000
0001
,
0010
0100
1000
0010
0100
0010
1000
0001
0100
0010
0100
0001
1000
0100
0010
0001
,
0100
0010
1000
0100
0010
0001
1000
0010
1000
0100
0010
0001
0100
0010
1000
0001
,
0010
0001
1000
0100
1000
0001
0100
0010
1000
0100
0010
0001
0100
0010
1000
0001
,
0100
0010
1000
0100
0010
0001
0100
0010
1000
0100
0010
0001
0100
0010
1000
0010
,
0100
0001
0010
0100
1000
0001
0010
0001
0100
0010
1000
0001
0010
0001
0100
0010
,
1000
0001
0100
0001
0010
0100
1000
0010
0100
0001
1000
0100
0010
0001
0100
0010
,
0100
0001
1000
0001
0010
0100
1000
0010
0100
0001
0100
0010
1000
0010
0100
0001
,
1000
0100
0010
0001
0100
0010
1000
0001
0010
0100
1000
0010
0100
0010
1000
0100
,
0010
0001
0100
0010
1000
0001
0010
0001
0100
0010
1000
0010
0100
0001
1000
0001
,
0010
0100
1000
0010
0100
0010
1000
0001
0100
0010
0100
0001
1000
0100
0010
0001
,
0100
0010
1000
0001
1000
0100
0010
0001
0100
0010
1000
0010
0100
0001
0010
0100
,
1000
0001
0010
0001
0100
0010
1000
0001
0010
0001
0100
0010
1000
0001
0100
0001
,
0010
0100
1000
0010
0100
0001
1000
0100
0010
0001
0100
0010
0100
0001
1000
0001
,
0010
0100
1000
0010
0100
0001
0100
0010
1000
0010
0100
0001
1000
0100
0010
0001
,
0100
0010
1000
0001
0010
0100
1000
0010
0100
0010
1000
0100
0010
0001
0100
0010
,
1000
0100
0010
0001
0100
0010
1000
0001
1000
0100
0010
0001
0100
0010
1000
0010
,
0100
0001
0010
0100
1000
0001
0010
0001
0100
0010
1000
0001
0010
0001
0100
0010
,
1000
0001
0100
0001
0010
0100
1000
0010
0100
0001
1000
0100
0010
0001
0100
0010
,
0100
0001
1000
0001
0010
0100
1000
0010
0100
0001
0100
0010
1000
0010
0100
0001
,
1000
0100
0010
0001
0100
0010
1000
0001
0010
0100
1000
0010
0100
0010
1000
0100
,
0010
0001
0100
0010
1000
0001
0010
0001
0100
0010
1000
0010
0100
0001
1000
0001
,
0010
0100
1000
0010
0100
0010
1000
0001
0100
0010
0100
0001
1000
0100
0010
0001
,
0100
0010
2000
3001
0020
0100
0030
0100
,
2000
3020
0030
0200
0300
0002
0000
1000
,
0003
0100
0020
1030
0002
0100
0003
1000
,
0020
0230
0300
0001
0000
2000
3000
0001
,
2001
0001
0000
0001
0000
0001
0000
0001
,
0000
0001
0000
0001
3000
0002
0003
0200
,
0000
0010
0000
0010
0000
0010
0000
0010
,
0301
1000
0001
0000
0010
0100
1000
0000
0010
0100
0001
0000
1000
0100
0010
0001
,
1000
0010
0100
0001
0100
0010
1000
0001
0100
0010
0100
0001
1000
0100
0010
0001
,
0100
0010
1000
0001
1000
0100
0010
0001
0100
0010
1000
0010
0100
0001
0010
0100
,
1000
0001
0010
0001
0100
0010
1000
0001
0010
0001
0100
0010
1000
0001
0100
0001
,
0010
0100
1000
0010
0100
0001
1000
0100
0010
0001
0100
0010
0100
0001
1000
0001
,
0010
0100
1000
0010
0100
0001
0100
0010
1000
0010
0100
0001
1000
0100
0010
0001
,
0100
0010
1000
0001
0010
0100
1000
0010
0100
0010
1000
0100
0010
0001
0100
0010
,
1000
0001
0010
0001
0100
0010
1000
0010
0100
0001
1000
0001
0010
0100
1000
0010
,
0100
0010
1000
0001
0100
0010
1000
0100
0010
0001
0100
0010
1000
0001
0100
0001
,
1000
0100
0010
0001
0100
0010
1000
0010
0100
0001
0010
0100
1000
0001
0010
0001
,
0100
0010
1000
0001
0010
0001
0100
0010
1000
0001
0100
0001
0010
0100
1000
0010
,
0100
0001
1000
0100
0010
0001
0100
0010
0100
0001
1000
0001
0010
0100
1000
0010
,
0100
0001
0100
0010
1000
0010
0100
0001
1000
0100
0010
0001
0100
0010
1000
0001
,
0010
0100
1000
0010
0100
0010
1000
0100
0010
0001
0100
0010
1000
0001
0010
0001
,
0100
0010
1000
0010
0100
0001
1000
0001
0010
0100
1000
0010
0100
0010
1000
0001
,
0100
0010
0100
0001
1000
0100
0010
0001
0100
0010
1000
0100
0010
0001
1000
0010
,
1000
0100
0010
0001
0100
0010
1000
0001
0010
0001
1000
0100
1000
0001
0100
0010
,
1000
0100
0010
0001
0100
0010
1000
0001
0100
0010
1000
0100
0010
0001
0100
0010
,
1000
0100
0010
0001
0100
0010
1000
0010
0100
0001
0010
0100
1000
0001
0010
0001
,
0100
0010
1000
0001
0010
0001
0100
0010
1000
0001
0100
0001
0010
0100
1000
0010
,
0100
0001
1000
0100
0010
0001
0100
0010
0100
0001
1000
0001
0010
0100
1000
0010
,
0100
0001
0100
0010
1000
0010
0100
0001
1000
0100
0010
0001
0100
0010
1000
0001
,
0010
0100
1000
0010
0100
0010
1000
0100
0010
0001
0100
0010
1000
0001
0010
0001
,
0100
0010
1000
0010
0100
0001
1000
0001
0010
0100
1000
0010
0100
0010
1000
0001
,
0100
0010
0100
0001
1000
0100
0010
0001
0100
0010
1000
0010
0100
0001
0010
0100
,
1000
0010
0100
0001
1000
0001
0010
0100
1000
0010
0100
0010
1000
0001
0100
0010
,
0100
0001
1000
0100
0010
0001
0100
0010
1000
0100
0010
0001
1000
0010
1000
0100
,
0010
0001
0100
0010
1000
0001
0010
0001
1000
0100
1000
0001
0100
0010
1000
0100
,
0010
0001
0100
0000
0010
0000
0000
0000
1000
0000
0001
0100
0010
0200
0000
0000
,
0310
1000
0001
0010
0001
0100
0010
1000
0001
0100
0001
0010
0100
1000
0010
0100
,
0001
1000
0100
0010
0001
0100
0010
0100
0001
1000
0001
0010
0100
1000
0010
0100
,
0001
0100
0010
1000
0010
0100
0001
1000
0100
0010
0001
0100
0010
1000
0001
0010
,
0100
1000
0001
0000
0100
0000
0000
0000
0010
1000
0100
0010
0001
0100
0010
1000
,
0010
0100
0001
0010
0001
0100
0010
1000
0001
0100
0001
0010
0100
1000
0010
0100
,
0001
1000
0100
0010
0001
0100
0010
0100
0001
1000
0001
0010
0100
1000
0010
0100
,
0001
0100
0010
1000
0010
0100
0001
1000
0100
0010
0001
0100
0010
1000
0001
0010
,
0100
1000
0001
0000
0100
0000
0000
0000
0010
0000
1000
0001
0010
0200
0000
0000
,
1300
0010
1000
0001
0010
0100
1000
0010
0100
0010
1000
0100
0010
0001
0100
0010
,
1000
0001
0010
0001
0100
0010
1000
0010
0100
0001
1000
0001
0010
0100
1000
0010
,
0100
0010
1000
0001
0100
0010
0100
0001
1000
0100
0010
0001
0100
0010
1000
0100
,
0010
0001
1000
0000
0010
0000
0000
0000
0100
0001
0010
0100
1000
0100
0010
0001
,
1000
0100
0010
0001
0100
0010
1000
0010
0100
0001
0010
0100
1000
0001
0010
0001
,
0100
0010
1000
0001
0010
0001
0100
0010
1000
0001
0100
0001
0010
0100
1000
0010
,
0100
0001
1000
0100
0010
0001
0100
0010
0100
0001
1000
0001
0010
0100
1000
0010
,
0100
0001
0100
0010
1000
0010
0100
0001
1000
0100
0010
0001
0100
0010
1000
0001
,
0010
0100
1000
0010
0100
0010
1000
0100
0010
0001
0100
0010
1000
0001
0010
0001
,
0100
0010
1000
0010
0100
0001
1000
0001
0010
0100
1000
0010
0100
0010
1000
0001
,
0100
0010
0100
0001
1000
0100
0010
0001
0100
0010
1000
0100
0010
0001
1000
0010
,
1000
0100
0010
0001
0100
0010
1000
0001
0010
0001
1000
0100
1000
0001
0100
0010
,
M000
0000
0000
000M
0000
0M00
0000
0000
0000
0M00
0000
0000
,
0000
0M00
0000
0000
0000
0000
0000
0M00
0000
0000
0000
0000
,
0000
0M00
0000
0000
0000
0000
0000
0M00
0000
0000
0000
0000
,
0000
0000
0000
0000
,
0000
0000
0000
0000
,
0000
0000
0000
0000
;
