#TITLE:Bug A Boo;
#SUBTITLE:(Maurice's Xclusive Bug A Boo Club Mix);
#ARTIST:Destiny's Child;
#TITLETRANSLIT:;
#SUBTITLETRANSLIT:;
#ARTISTTRANSLIT:;
#CREDIT:;
#BANNER:bugaboomxbabcm.png;
#BACKGROUND:bugaboomxbabcm-bg.png;
#LYRICSPATH:;
#CDTITLE:;
#MUSIC:bugaboomxbabcm.mp3;
#OFFSET:-7.732;
#SAMPLESTART:45.400;
#SAMPLELENGTH:12.000;
#SELECTABLE:YES;
#BPMS:0.000=125.230;
#STOPS:;
#BGCHANGES:;
// cache tags:
#FIRSTBEAT:0.000;
#LASTBEAT:193.500;
#SONGFILENAME:Songs/other/bugaboomxbabcm/bugaboomxbabcm.sm;
#HASMUSIC:1;
#HASBANNER:1;
#MUSICLENGTH:101.754;
// end cache tags

//---------------dance-single - ----------------
#NOTES:
     dance-single:
     :
     Easy:
     3:
     0.206,0.236,0.020,0.059,0.000,139.000,2.000,6.000,0.000,0.000:  // measure 1
2000
3000
0200
0300
,  // measure 2
0010
0000
0100
0000
,  // measure 3
2000
3000
0002
0003
,  // measure 4
0100
0000
0100
0000
,  // measure 5
0010
0000
1000
1000
,  // measure 6
0001
0001
0100
0000
,  // measure 7
0010
0000
0100
0100
,  // measure 8
0001
0001
1000
0000
,  // measure 9
0100
0010
0002
0003
,  // measure 10
0100
0010
2000
3000
,  // measure 11
0100
0010
0001
0001
,  // measure 12
0100
0010
1000
0000
,  // measure 13
1001
0100
0010
1000
,  // measure 14
0100
0100
0010
0001
,  // measure 15
0100
0010
1000
0001
,  // measure 16
1000
0100
1000
0010
,  // measure 17
0110
0100
0001
0100
,  // measure 18
0010
1000
0010
1000
,  // measure 19
0100
1000
0001
0100
,  // measure 20
0001
0001
1000
0010
,  // measure 21
0100
0000
0001
0001
,  // measure 22
1000
0000
0100
0100
,  // measure 23
0010
0000
0001
0000
,  // measure 24
0100
0000
0010
0000
,  // measure 25
1000
0000
0010
0010
,  // measure 26
0100
0000
0001
0001
,  // measure 27
1000
0000
0100
0100
,  // measure 28
0010
0010
0001
0000
,  // measure 29
0100
0010
1000
0000
,  // measure 30
0100
0010
0001
0000
,  // measure 31
0010
0100
1000
0000
,  // measure 32
0010
0000
0100
0000
,  // measure 33
0001
1000
0100
0000
,  // measure 34
1000
0010
0100
0000
,  // measure 35
0010
0100
0001
0000
,  // measure 36
1000
0000
0100
0000
,  // measure 37
1000
0000
0010
0000
,  // measure 38
0100
0100
0100
0000
,  // measure 39
0001
0000
0010
0000
,  // measure 40
0100
0100
0100
0000
,  // measure 41
1000
0000
0001
0000
,  // measure 42
0010
0010
0010
0000
,  // measure 43
0100
0000
1000
0010
,  // measure 44
1000
0100
0010
0000
,  // measure 45
0001
0000
0001
0000
,  // measure 46
1000
0000
1000
0000
,  // measure 47
0010
0000
0100
0000
,  // measure 48
0010
0000
0100
0000
,  // measure 49
0001
0000
0000
0000
;

//---------------dance-single - ----------------
#NOTES:
     dance-single:
     :
     Medium:
     6:
     0.366,0.377,0.020,0.167,0.010,242.000,2.000,17.000,0.000,0.000:  // measure 1
1000
0010
0100
0100
,  // measure 2
0001
0100
0100
0100
,  // measure 3
0010
1000
1000
0001
,  // measure 4
0100
0010
1000
1000
,  // measure 5
0100
0100
0000
0010
0001
0100
0001
0100
,  // measure 6
0010
1000
0010
0100
0100
0000
0001
0000
,  // measure 7
0010
0010
0000
0100
1000
0010
1000
0010
,  // measure 8
0100
0001
0100
0010
0010
0000
1000
0000
,  // measure 9
0100
0100
0010
0001
,  // measure 10
0100
0010
0010
1000
,  // measure 11
0001
1000
0001
0100
,  // measure 12
0010
1000
0001
0100
0010
0000
0000
1000
,  // measure 13
1000
0000
0001
0001
0020
0000
0130
1000
,  // measure 14
0100
0100
1000
1000
0002
0000
0103
0010
,  // measure 15
1000
1000
0100
0100
0020
0000
0031
0001
,  // measure 16
1000
0000
0010
0000
0010
0000
0100
0001
,  // measure 17
0001
0000
0010
0010
0200
0000
1300
0001
,  // measure 18
1000
1000
0100
0100
0020
0000
0130
1000
,  // measure 19
0001
0100
0010
1000
,  // measure 20
0100
0100
0010
0001
,  // measure 21
0100
0010
0100
0000
0010
0000
0010
0000
,  // measure 22
1000
0000
0100
0000
1000
0001
1000
0000
,  // measure 23
0010
0010
0100
0100
,  // measure 24
0001
0001
0000
1000
1000
0000
0110
0000
,  // measure 25
0100
0000
0001
0000
0010
0100
0010
0000
,  // measure 26
0001
0000
0100
0000
0010
1000
0010
0000
,  // measure 27
0100
0001
1000
1000
,  // measure 28
0100
0000
0010
0001
0100
0000
0100
0000
,  // measure 29
0010
1000
0002
0000
0203
0000
0310
0000
,  // measure 30
1000
0100
0020
0000
0032
0000
0103
0000
,  // measure 31
0010
1000
0200
0000
2300
0000
3001
0000
,  // measure 32
0100
0010
1000
0100
,  // measure 33
0010
0001
2000
0000
3020
0000
0130
0000
,  // measure 34
0001
0100
0020
0000
2030
0000
3100
0000
,  // measure 35
0010
0001
0200
0000
0320
0000
1030
0000
,  // measure 36
0001
1000
0001
1000
,  // measure 37
0100
0000
0000
0010
0000
0000
0001
0000
0100
0000
0100
0000
0010
0000
0000
0000
,  // measure 38
1000
0000
0000
0001
0000
0000
1000
0000
0010
0000
0010
0000
0100
0000
0000
0000
,  // measure 39
0001
1000
0100
0010
,  // measure 40
0010
0010
0000
0100
0100
0000
1010
0000
,  // measure 41
0100
0000
0001
0000
1000
0100
0010
0000
,  // measure 42
0100
0000
1000
0000
0010
0100
0010
0000
,  // measure 43
0100
0001
0010
0010
,  // measure 44
0100
0100
1000
1000
,  // measure 45
0010
0000
0100
0000
0001
0000
0010
0100
,  // measure 46
1000
0000
0010
0000
0100
0000
0001
1000
,  // measure 47
0100
0000
1000
0000
0010
0000
0100
0001
,  // measure 48
1000
0000
0001
0000
0100
0000
0010
1000
,  // measure 49
0100
0000
0000
0000
;

//---------------dance-single - ----------------
#NOTES:
     dance-single:
     :
     Hard:
     9:
     0.541,0.495,0.059,0.020,0.609,377.000,6.000,2.000,0.000,0.000:  // measure 1
1000
0010
0001
0000
0001
0010
0100
0000
,  // measure 2
0001
1000
0001
0000
0010
0001
0100
0000
,  // measure 3
0010
0000
0000
0010
0000
0000
1000
0000
0100
0000
0000
0010
0000
0000
0010
0000
,  // measure 4
0001
0000
1000
0000
0001
0000
0000
0000
0100
0000
0100
0000
0001
1000
0001
0000
,  // measure 5
0010
0000
0010
0000
0000
0100
1000
0100
1000
0000
0000
0010
0000
0000
0100
0000
,  // measure 6
0000
0001
0000
0000
1000
0000
0100
0000
0110
0000
0000
0000
0001
0000
0100
0010
,  // measure 7
1000
0000
1000
0000
0000
0010
0100
0010
0100
0000
0000
0001
0000
0000
1000
0000
,  // measure 8
0000
0100
0000
0000
0010
0000
0001
0000
0101
0000
0000
0000
1000
0100
0010
0100
,  // measure 9
0000
1000
0000
0010
0000
1000
0000
0100
0000
0000
0000
0000
0010
0001
0010
0100
,  // measure 10
0000
0010
0000
0001
0000
0100
0000
0010
0000
0000
0000
0000
1000
0001
1000
0010
,  // measure 11
0000
0100
0000
0001
0000
0010
0000
0001
0000
0100
0000
0000
0010
0000
0000
1000
,  // measure 12
0000
0100
0010
0001
0100
0000
0010
1000
,  // measure 13
1001
0000
0000
0010
0100
0010
0100
0000
0002
0000
0000
0000
1003
0000
0100
1000
,  // measure 14
0001
0000
0100
0000
0010
0000
1000
0000
1000
0000
0000
0000
0100
0010
0100
0010
,  // measure 15
0001
0000
0100
0000
0010
0000
0100
0000
0001
0000
0000
0000
1000
0000
0100
0010
,  // measure 16
0100
1000
0010
0100
0001
0000
1000
0010
,  // measure 17
0110
0000
0000
0100
0001
0100
0001
0000
2000
0000
0000
0000
3010
0000
0100
0001
,  // measure 18
1000
0000
0100
0000
0010
0000
0001
0000
0100
0000
0000
0000
0010
1000
0010
1000
,  // measure 19
0001
0000
0100
0000
0010
0000
1000
0000
0100
0000
0000
0000
0010
0001
0010
0100
,  // measure 20
1000
0010
0100
0001
0100
0010
1000
0001
,  // measure 21
0010
0000
0010
0000
0100
0000
1000
0001
0000
0001
1000
0000
0010
0000
0000
0100
,  // measure 22
0000
0100
0000
0001
0010
0000
0010
0001
0000
0001
0100
0000
0010
0000
0000
1000
,  // measure 23
0000
0100
0000
1000
0000
0010
0000
0100
0000
0100
0000
0001
0000
0000
1000
0000
,  // measure 24
0100
0010
0100
0000
0000
1000
0010
0100
0010
0000
0000
0000
0000
1000
0001
0100
,  // measure 25
0010
0000
0010
0000
0100
0000
0001
0010
0000
0010
0001
0000
0100
0000
0000
0001
,  // measure 26
0000
0001
0000
1000
0100
0000
0010
0100
0010
0100
0000
1000
0000
0000
0001
0000
,  // measure 27
0100
0010
0100
0000
0000
0000
0001
0000
1000
0000
0001
0000
0010
0000
0100
0000
,  // measure 28
1000
0000
0001
0000
1000
0000
0010
0000
1000
0000
0001
0000
0100
0010
0100
0000
,  // measure 29
0001
0000
0010
0000
1000
0000
0010
0001
0000
0001
0100
0000
0000
0000
0010
0000
,  // measure 30
1000
0000
0001
0000
1000
0000
0010
0100
0000
0100
0001
0000
0000
0000
0000
0000
,  // measure 31
0010
0000
0100
0000
1000
0000
0010
0100
0000
0100
0001
0000
0000
0000
1000
0100
,  // measure 32
0000
1000
0100
0000
0000
0000
0010
0001
0000
0010
0001
0000
0000
0000
0100
0000
,  // measure 33
0010
0000
1000
0000
0010
0000
0001
0010
0000
0010
0100
0000
0000
0000
0001
0000
,  // measure 34
1000
0000
0100
0000
0010
0000
0001
0100
0000
0100
0010
0000
0000
0000
1000
0000
,  // measure 35
0001
0000
0010
0000
0001
0000
0100
0010
0000
0010
1000
0000
0000
0000
0010
0100
,  // measure 36
0000
0010
0100
0000
0000
0000
0001
0010
0000
0001
0010
0000
0000
0000
0100
0000
,  // measure 37
1000
0000
0000
0001
0000
0000
1000
0000
0010
0000
0100
0000
1001
0000
0000
0000
,  // measure 38
0100
0000
0000
0010
0000
0000
0100
0000
0001
0000
1000
0000
0110
0000
0000
0100
,  // measure 39
0000
0100
0000
0001
0000
0010
0000
0001
0000
0001
0000
0100
0000
0000
0010
0000
,  // measure 40
1000
0000
0000
0001
0100
0001
0100
0000
0000
0010
0100
0010
0100
0000
0000
0000
,  // measure 41
0001
0000
0001
0000
1000
0000
0010
0100
0000
0100
0001
0000
1000
0000
0000
0010
,  // measure 42
0000
0010
0000
0100
0001
0000
1000
0100
1000
0100
0000
0010
0000
0000
0001
0000
,  // measure 43
1000
0100
1000
0000
0000
0000
0010
0000
0100
0000
0001
0000
0100
0000
0010
0000
,  // measure 44
1000
0100
1000
0001
1000
0010
1000
0100
,  // measure 45
0010
0000
0001
0000
0000
0100
0000
0100
0000
0000
0000
0000
0010
0000
1000
0000
,  // measure 46
0010
0000
0100
0000
0000
0001
0000
0001
0000
0000
0010
0000
0100
0000
1000
0000
,  // measure 47
0010
0000
1000
0000
0000
0001
0000
0001
0000
0000
0000
0000
0010
0000
0100
0000
,  // measure 48
0010
0000
0001
0000
0000
0100
0000
0100
0000
0000
0010
0000
1000
0000
0010
0000
,  // measure 49
0100
0000
0000
0000
;

//---------------dance-single - ----------------
#NOTES:
     dance-single:
     :
     Challenge:
     10:
     0.730,0.689,0.187,0.049,1.000,496.000,19.000,5.000,0.000,0.000:  // measure 1
0100
1000
0100
0001
0010
1000
0010
0000
,  // measure 2
0100
0001
0100
1000
0010
0001
0010
0000
,  // measure 3
0100
0001
0010
1000
0010
0100
0001
0000
,  // measure 4
0100
0000
1000
0000
0010
0000
0001
0000
0010
0000
1000
0000
0100
0010
0100
1000
,  // measure 5
0001
0000
0001
0000
0000
1000
0010
1000
0001
0100
0001
0010
0100
0010
0001
0100
,  // measure 6
0001
1000
0100
1000
0100
0000
0010
0000
0010
0000
0000
0000
0001
0000
1000
0010
,  // measure 7
0100
0000
0100
0000
0000
0001
0010
0001
0100
0010
0100
0001
1000
0001
0010
0100
,  // measure 8
0010
0001
0100
0001
1000
0000
0100
0000
0100
0000
0000
0000
0010
0001
0100
0001
,  // measure 9
0000
1000
0000
1000
0000
0100
0000
0010
0000
0000
0100
0000
1000
0010
1000
0001
,  // measure 10
0000
0100
0000
0010
0000
0010
0000
1000
0000
0000
0001
0000
0100
0010
1000
0010
,  // measure 11
0000
0100
0000
0001
0000
0010
0000
0100
0000
1000
0010
1000
0001
0010
0001
1000
,  // measure 12
0100
1000
0001
0100
0001
0000
1000
0000
1000
0000
0000
0000
0010
0000
0100
0000
,  // measure 13
1001
0000
0000
1000
0100
0010
0001
0000
1001
0000
0000
0000
0100
0000
0010
1000
,  // measure 14
0010
0100
0001
0000
1000
0000
1000
0000
0110
0000
0000
0000
0010
0001
0010
0100
,  // measure 15
0010
0000
0001
0000
1000
0010
1000
0000
0100
0000
0000
0000
0010
0000
0001
1000
,  // measure 16
0010
0000
0100
0001
1000
0000
0001
0010
0000
0000
0000
0000
0100
0000
1000
0000
,  // measure 17
1001
0000
0000
0001
0010
0100
1000
0000
1001
0000
0000
0000
0100
0000
0010
1000
,  // measure 18
0010
0100
0001
0000
0010
0000
0100
0000
1100
0000
0000
0000
0010
0001
0100
0001
,  // measure 19
1000
0000
0010
0100
0001
0000
1000
0100
0000
0000
0000
0000
0010
0001
0100
0010
,  // measure 20
1000
0100
0010
0001
0100
0000
0010
1000
0000
0000
0000
0001
0100
0001
0010
0100
,  // measure 21
0010
0000
0001
0000
0100
0000
1000
0100
0000
0010
0001
0000
0011
0000
0000
1000
,  // measure 22
0000
0100
0000
1000
0010
0000
0001
0010
0000
0100
1000
0000
1100
0000
0000
0001
,  // measure 23
0000
0110
0000
1000
0000
0110
0000
0001
0000
1000
0000
0110
0000
0100
0001
0100
,  // measure 24
0010
1000
0100
0000
0000
0100
0010
0001
0100
0000
0100
0000
0000
0001
1000
0001
,  // measure 25
0100
0000
0010
0000
1000
0000
0010
0001
0000
1000
0100
0000
1100
0000
0000
0010
,  // measure 26
0000
1000
0000
0001
0100
0000
1000
0100
0010
0001
0000
0011
0000
1000
0100
1000
,  // measure 27
0010
0100
0001
0000
0000
0001
0010
0100
1000
0010
0100
0001
0010
0100
1000
0010
,  // measure 28
0100
0001
1000
0100
0010
0001
0100
0000
0010
0000
0010
0000
1000
0100
1000
0000
,  // measure 29
0001
0100
0001
0010
0100
0000
1000
0010
0000
0010
0100
0000
0001
0000
0001
0000
,  // measure 30
1000
0100
0010
0001
0010
0000
0100
1000
0000
1000
0010
0000
0100
0000
0100
0000
,  // measure 31
0010
1000
0001
0010
0100
0000
1000
0010
0000
0010
0100
0000
0001
0000
1000
0100
,  // measure 32
0000
0010
0001
0000
0100
0000
0010
1000
0000
0001
0100
0000
0010
0000
0010
0000
,  // measure 33
1000
0100
1000
0001
0100
0000
0010
1000
0000
1000
0001
0000
0010
0000
0100
0000
,  // measure 34
1000
0100
1000
0010
0100
0000
0001
0010
0000
0010
0100
0000
1000
0000
0010
0000
,  // measure 35
0100
0001
1000
0100
1000
0000
0010
0100
0000
0100
0001
0000
0010
0000
0100
1000
,  // measure 36
0000
0001
0010
0000
0100
0000
0010
0001
0000
1000
0100
0000
0010
0001
0100
0001
,  // measure 37
1000
0000
0100
0000
1000
0000
0010
0100
0000
0001
0100
0000
0110
0000
0000
1000
,  // measure 38
0000
0100
0000
1000
0010
0000
0100
0001
0000
1000
0010
0000
0110
0000
0000
0100
,  // measure 39
0000
0001
0000
0010
0000
0100
0000
1000
0000
0010
0000
0110
0000
1000
0001
1000
,  // measure 40
0010
0100
0001
0100
0010
1000
0010
0100
0001
0100
0010
1000
0010
1000
0100
0010
,  // measure 41
0001
0000
0100
0000
0010
0000
1000
0100
0000
0010
0001
0000
0110
0000
0000
0100
,  // measure 42
0000
1000
0000
0001
0100
0000
0010
1000
0010
0100
0000
1001
0000
0100
0010
1000
,  // measure 43
0001
0100
0001
0000
0000
0010
0100
1000
0100
0010
0001
0010
0100
1000
0100
0010
,  // measure 44
0001
0100
0010
1000
0100
1000
0010
0000
0110
0000
0000
1000
0100
1000
0010
0100
,  // measure 45
0001
0000
0200
0000
0010
0010
0000
1300
0000
0000
0000
0100
0001
0100
0010
1000
,  // measure 46
0001
0000
2000
0000
0100
0100
0000
3001
0000
0000
0000
0100
0010
1000
0100
0010
,  // measure 47
0001
0000
0020
0000
0100
0100
0000
0031
0000
0000
0000
1000
0100
1000
0010
0100
,  // measure 48
0001
0000
2000
0000
0010
0010
0000
3100
0000
0000
0000
0100
0001
1000
0100
0010
,  // measure 49
0002
0000
0000
0003
0000
0000
0000
0000
;
