#TITLE:Athletic BGM;
#SUBTITLE:Super Mario Brothers 3;
#ARTIST:PHOENIX Project;
#TITLETRANSLIT:;
#SUBTITLETRANSLIT:;
#ARTISTTRANSLIT:;
#CREDIT:;
#BANNER:Athletic BGM.png;
#BACKGROUND:Athletic BGM-bg.png;
#LYRICSPATH:;
#CDTITLE:Almsty.png;
#MUSIC:Athletic BGM.mp3;
#OFFSET:-0.720;
#SAMPLESTART:22.790;
#SAMPLELENGTH:12.000;
#SELECTABLE:YES;
#DISPLAYBPM:230.000;
#BPMS:0.000=230.240;
#STOPS:;
#BGCHANGES:;
// cache tags:
#FIRSTBEAT:0.000;
#LASTBEAT:166.000;
#SONGFILENAME:Songs/VGMP 2/Athletic BGM (Almsty)/Athletic BGM.sm;
#HASMUSIC:1;
#HASBANNER:1;
#MUSICLENGTH:48.907;
// end cache tags

//---------------dance-single - ----------------
#NOTES:
     dance-single:
     :
     Hard:
     12:
     1.000,1.000,1.000,0.777,0.296,324.000,168.000,38.000,0.000,0.000:

1000
0100
0010
0010
0001
0100
0010
0010
,
1000
1000
0001
0001
0202
0303
2020
3030
,
1001
1010
0110
0101
1001
0110
1100
0110
,
0011
1100
1010
0110
0000
0110
0101
0110
,
1010
0110
1100
0101
0011
1001
0110
1100
,
0011
0000
0110
0000
1001
0000
0110
0000
0000
0000
0110
0000
1001
0000
0000
0010
,
1001
1000
0100
0010
0101
0010
1000
0010
,
0101
1010
0110
0101
0000
0101
0110
1100
,
0011
0000
0100
0000
0010
0000
2002
0000
0000
3003
0110
0000
0001
0000
1000
0000
,
0110
0000
0001
0000
1000
0000
2020
0000
0000
3030
0101
0000
0010
0000
1000
0000
,
0110
0000
0001
0000
1000
0000
2002
0000
0000
3003
0110
0000
0100
0000
0010
0000
,
2002
3003
0000
0110
0000
1001
0100
0010
,
1001
0000
0000
0000
0100
0000
0000
0000
0010
0000
0000
0000
1010
0000
0000
0000
0000
0000
0100
0000
0000
0000
0000
0000
0110
0000
0000
0000
0000
0000
1000
0000
0000
0000
0000
0000
1010
0000
0000
0000
0000
0000
0100
0000
0000
0010
0000
0000
,
0101
0000
0010
0000
0101
0000
1000
0000
0110
0000
0001
0000
1010
0000
1000
0001
,
0110
0000
1000
0000
1010
0000
0100
0000
0101
0000
1000
0000
0011
0000
0010
0100
,
1001
0100
0011
0100
1100
0010
0022
0033
,
2200
0000
3300
0000
0110
0000
0001
0000
1010
0000
0100
0000
0101
0000
0010
0001
,
1100
0000
0010
0000
0101
0000
0010
0000
0011
0000
0100
0000
0110
0000
1000
0100
,
0011
1000
0110
0001
1100
0010
1000
0110
,
0101
0000
1001
0000
0010
0000
0001
0100
0010
0000
1000
0100
1000
0000
0001
0100
,
0010
0000
1000
0001
0100
0000
0010
1000
0001
0000
0100
0010
2200
0000
3300
0000
,
0220
0330
0101
0011
1010
1100
1001
0110
,
0101
1010
1001
0110
0101
0110
0000
0110
,
1010
0110
0101
0011
1001
0110
1010
1100
,
0011
0110
1001
0011
1100
0110
0000
0101
,
1010
0000
0000
0010
0101
0000
0010
0000
1000
0000
0100
0000
1010
0000
0100
0000
,
0001
0010
1100
0101
1001
0110
0000
0110
,
1100
0000
0110
0000
0011
0000
0100
0000
0010
0000
2200
0000
0000
3300
0101
0000
,
0010
0000
1000
0000
1001
0000
0100
0000
0001
0000
0220
0000
0000
0330
1010
0000
,
1000
0000
0100
0000
0011
0000
0100
0000
1000
0000
0022
0000
0000
0033
0110
0000
,
1000
0001
0220
0330
0000
1001
0000
0110
,
1000
0000
0000
0001
0000
0000
0101
0000
0010
0000
0100
0000
1100
0000
0000
0010
0000
0000
1010
0000
0000
0010
0000
0000
,
0101
0000
0010
0100
1010
0000
0100
0000
0011
0000
0010
0000
1100
0000
0001
0000
,
0110
0000
0001
0100
1010
0000
0100
0000
0110
0000
0001
0000
0101
0000
0010
0000
,
1100
0000
0010
0100
1001
0000
0100
0000
0101
0000
0010
0000
1100
0000
0001
0000
,
2200
3300
0022
0033
1001
0100
1010
0100
,
0011
0000
1000
0010
0101
0000
1000
0000
1010
0000
0100
0000
0110
0000
0001
0000
,
0011
0000
0100
0010
1100
0000
0001
0000
0110
0000
1000
0000
0110
0000
0001
0000
,
1000
0000
0110
0000
0101
0000
1010
0000
0100
0000
0010
0001
0010
0000
0100
1000
,
0100
0000
0010
0001
0100
0000
0010
1000
0100
0000
0010
0100
0001
0000
0010
0100
,
2020
3030
0202
0303
2002
0000
0000
0000
,
0000
0000
0000
0000
0000
3003
0010
0100
1001
0000
0000
0000
0000
0000
0000
0000
;
