#TITLE:N.O.E.in;
#SUBTITLE:;
#ARTIST:DJ Sharpnel;
#TITLETRANSLIT:;
#SUBTITLETRANSLIT:;
#ARTISTTRANSLIT:;
#CREDIT:;
#BANNER:noein bn.png;
#BACKGROUND:noein bg.png;
#LYRICSPATH:;
#CDTITLE:;
#MUSIC:NOEin.ogg;
#OFFSET:-0.060;
#SAMPLESTART:108.647;
#SAMPLELENGTH:18.095;
#SELECTABLE:YES;
#DISPLAYBPM:212.198;
#BPMS:0.000=106.099,32.000=212.198,512.000=106.099,528.000=212.198;
#STOPS:;
#BGCHANGES:;
// cache tags:
#FIRSTBEAT:16.000;
#LASTBEAT:671.500;
#SONGFILENAME:Songs/SHARPNELSTREAMZ v2/NOEin/NOEin.sm;
#HASMUSIC:1;
#HASBANNER:1;
#MUSICLENGTH:208.169;
// end cache tags

//---------------dance-single - 18- (CTalon)----------------
#NOTES:
     dance-single:
     18- (CTalon):
     Challenge:
     18:
     1.000,1.000,0.077,0.207,1.000,2247.000,16.000,43.000,12.000,1.000:
0000
0000
0000
0000
,
0000
0000
0000
0000
,
0000
0000
0000
0000
,
0000
0000
0000
0000
,
1001
0000
0000
1001
0000
0001
0010
0000
0110
0000
0000
0110
0000
0100
1000
0000
,
1010
0000
0000
1010
0000
0010
0100
0000
0101
0000
0000
0101
0000
0001
11M1
0000
,
1001
0000
0000
1001
0000
0001
0010
0000
0011
0000
0000
0011
0000
0001
0100
0000
,
0101
0000
0000
0101
0000
0001
1000
0000
00M0
0M00
000M
M000
000M
00M0
0M00
M000
,
0MM1
1000
0100
1000
0001
0010
0100
1000
0001
0010
0100
0010
0001
1000
0001
1000
,
0100
0010
0001
0010
0001
1000
0100
0010
0001
0010
0100
1000
0100
1000
0001
0010
,
0001
0010
0100
1000
0001
0010
0001
1000
0001
1000
0100
0010
0001
1000
0001
1000
,
0001
0010
0100
1000
0100
1000
0001
0010
0100
1000
0100
1000
0001
1000
0100
0010
,
0001
1000
0010
0100
0010
1000
0001
0100
0001
1000
0001
0100
0001
1000
0010
1000
,
0001
0100
0010
1000
0001
1000
0001
0100
0010
1000
0001
1000
0010
0100
0001
1000
,
0001
1000
0010
1000
0001
0100
0010
1000
0010
0100
0010
1000
0001
0100
0010
0100
,
0001
1000
0001
1000
0100
0010
0100
1000
0001
0100
0001
0100
0010
1000
0010
1000
,
0001
0010
0001
1000
0100
1000
0100
0010
0001
0010
0100
1000
0001
1000
0001
0010
,
0100
1000
0100
0010
0001
1000
0001
1000
0100
0010
0100
0010
0001
0010
0001
1000
,
0001
0010
0100
1000
0001
0010
0100
1000
0100
0010
0001
1000
0001
1000
0100
0010
,
0001
1000
0100
1000
0001
0010
0100
0010
0001
1000
0001
1000
0001
0010
0100
1000
,
0001
1000
0010
1000
0001
0100
0001
1000
0010
0100
0010
1000
0001
0100
0010
1000
,
0001
1000
0010
0100
0001
1000
0001
1000
0010
0100
0001
0100
0010
0100
0001
1000
,
0001
0100
0001
0100
0001
1000
0001
1000
0001
0100
0001
0100
0001
1000
0001
1000
,
0001
0100
0010
1000
0010
0100
0001
1000
0001
0100
0010
0100
0001
1000
0001
1000
,
0001
0010
0100
1000
0010
0100
0001
1000
0010
0100
0001
0010
0100
0010
0001
1000
,
0001
0100
0010
0100
0001
0010
0100
1000
0100
0010
0100
1000
0010
0100
0001
1000
,
0001
0010
0100
1000
0010
0100
0001
1000
0001
0100
0010
1000
0100
0010
0100
1000
,
0001
0010
0001
1000
0100
0010
0001
0100
0010
1000
0001
0100
0001
1000
0001
0010
,
0001
1000
0001
0100
0010
1000
0100
0010
0001
0010
0100
1000
0001
0100
0010
1000
,
0100
0010
0100
1000
0100
0010
0001
0100
0010
1000
0001
1000
0100
0010
0100
1000
,
0010
0100
0001
1000
0010
0100
0010
1000
0001
1000
0100
0010
0001
0100
0010
1000
,
0001
1000
0010
0100
0001
1000
0100
0010
0001
0100
0010
1000
0010
0100
0001
1000
,
0001
0100
0010
1000
0100
0010
0001
1000
0100
0010
0001
0100
0010
0100
0001
1000
,
0001
0010
0100
0010
0001
0100
0010
1000
0010
0100
0010
1000
0100
0010
0001
1000
,
0001
0100
0010
1000
0100
0010
0001
1000
0001
0010
0100
1000
0010
0100
0010
1000
,
0001
0100
0001
1000
0010
0100
0001
0010
0100
1000
0001
0010
0001
1000
0001
0100
,
0001
1000
0001
0010
0100
1000
0010
0100
0001
0100
0010
1000
0001
0010
0100
1000
,
0010
0100
0010
1000
0010
0100
0001
0010
0100
1000
0001
1000
0010
0100
0010
1000
,
0100
0010
0001
1000
0100
0010
0100
1000
0001
1000
0010
0100
0001
0010
0100
1000
,
0001
1000
0100
0010
0001
1000
0010
0100
0001
0010
0100
1000
0100
0010
0001
1000
,
0001
0010
0001
1000
0001
0100
0010
1000
0001
0010
0001
1000
0001
0100
0010
1000
,
0001
0010
0001
1000
0001
0100
0010
1000
0001
0010
0001
1000
0001
0100
0010
1000
,
0001
1000
0100
0010
0100
1000
0001
0100
0001
1000
0100
0010
0100
1000
0001
0100
,
0001
1000
0100
0010
0100
1000
0001
0100
0001
1000
0100
0010
0100
1000
0001
0100
,
0001
1000
0100
1000
0001
0100
0001
1000
0001
1000
0100
1000
0001
0100
0001
1000
,
0001
1000
0100
1000
0001
0100
0001
1000
0001
1000
0100
1000
0001
0100
0001
1000
,
0001
0010
0100
1000
0001
0100
0001
1000
0001
0010
0100
1000
0001
0100
0001
1000
,
0001
0010
0100
1000
0001
0100
0001
1000
0001
0010
0100
1000
0001
0100
0001
1000
,
0001
0010
0001
1000
0001
0100
0010
1000
0001
0010
0001
1000
0001
0100
0010
1000
,
0001
0010
0001
1000
0001
0100
0010
1000
0001
0010
0001
1000
0001
0100
0010
1000
,
0001
1000
0100
0010
0100
1000
0001
0100
0001
1000
0100
0010
0100
1000
0001
0100
,
0001
1000
0100
0010
0100
1000
0001
0100
0001
1000
0100
0010
0100
1000
0001
0100
,
0001
1000
0100
1000
0001
0100
0001
1000
0001
1000
0100
1000
0001
0100
0001
1000
,
0001
1000
0100
1000
0001
0100
0001
1000
0001
1000
0100
1000
0001
0100
0001
1000
,
0001
0010
0100
1000
0001
0100
0001
1000
0001
0010
0100
1000
0001
0100
0001
1000
,
0001
0010
0100
1000
0001
0100
0001
1000
0001
0010
0100
1000
0001
0100
0001
1000
,
0001
0010
0001
0100
0001
1000
0100
1000
0001
0010
0001
0100
0001
1000
0100
1000
,
0001
0010
0001
0100
0001
1000
0100
1000
0001
0010
0001
0100
0001
1000
0100
1000
,
0001
0100
0001
0010
0100
1000
0010
1000
0001
0100
0001
0010
0100
1000
0010
1000
,
0001
0100
0001
0010
0100
1000
0010
1000
0001
0100
0001
0010
0100
1000
0010
1000
,
0001
0100
0001
0010
0001
1000
0010
1000
0001
0100
0001
0010
0001
1000
0010
1000
,
0001
0100
0001
0010
0001
1000
0010
1000
0001
0100
0001
0010
0001
1000
0010
1000
,
0001
0010
0001
0100
0010
1000
0100
1000
0001
0010
0001
0100
0010
1000
0100
1000
,
0001
0010
0001
0100
0010
1000
0100
1000
0001
0010
0001
0100
0010
1000
0100
1000
,
0001
0010
0001
0100
0001
1000
0100
1000
0001
0010
0001
0100
0001
1000
0100
1000
,
0001
0010
0001
0100
0001
1000
0100
1000
0001
0010
0001
0100
0001
1000
0100
1000
,
0001
0100
0001
0010
0100
1000
0010
1000
0001
0100
0001
0010
0100
1000
0010
1000
,
0001
0100
0001
0010
0100
1000
0010
1000
0001
0100
0001
0010
0100
1000
0010
1000
,
0001
0010
0100
1000
0010
1000
0100
0010
,
0001
0100
0010
1000
0100
1000
0010
0100
,
0001
0010
0100
1000
0010
1000
0100
0010
,
0001
0100
0010
1000
0100
1000
0010
0100
,
0001
0000
0000
0000
0000
0000
0000
0000
0001
0000
0000
0000
0000
0000
0000
0000
0002
0000
0000
0000
0000
0000
0000
0000
0000
0000
0000
0000
0000
0000
0000
0003
0002
0000
0000
0000
0000
0000
0000
0000
0000
0000
0000
0000
0000
0000
0000
0000
0013
0000
0000
0000
0100
0000
0000
0000
0000
0000
0000
0000
1000
0000
0000
0000
,
0001
0001
0001
0001
0100
0010
0200
0000
,
0301
0001
0002
0000
1003
0100
0010
0200
,
0000
1300
0010
1000
0010
1000
0020
0000
,
1030
0000
1000
0000
2000
0000
0000
0000
3001
0100
0000
0001
2000
0000
0000
0000
,
3001
0010
0000
0100
0000
1000
0000
0001
0000
1000
0010
0000
0100
0000
0001
0000
,
1000
1000
1000
1000
1000
1000
1000
1000
,
0010
0010
0010
0100
0010
1000
0200
0000
,
0320
0000
0031
1000
0020
0000
0130
0001
,
1000
1000
1000
2000
0000
3200
0000
0310
,
0002
0000
0000
0000
0000
0000
0000
0000
0000
0000
0000
0000
0000
0000
0000
0000
1003
0000
0000
0000
0010
0000
0000
0000
2000
0000
0000
0000
0000
0000
0000
0000
0000
0000
0000
0000
0000
0000
0000
3000
2000
0000
0000
0000
0000
0000
0000
0000
0000
0000
0000
0000
0000
0000
0000
0000
3001
0000
0000
0000
0000
0000
0000
0000
,
0100
0100
0001
0010
0001
0010
0001
1000
,
0010
0100
0010
0100
0010
0000
1000
0001
0000
1000
0001
0000
0010
0000
0200
0000
,
0000
1300
0001
0100
0010
0100
0100
0001
,
1000
1000
0001
2000
0000
3200
0000
0310
,
0001
0000
0000
0000
1000
0001
0000
0000
0000
1000
0000
0001
0000
0000
0000
1000
,
0001
0010
0001
0100
0001
1000
0001
0010
0100
1000
0100
0010
0001
1000
0010
1000
,
0001
0010
0001
0100
0001
1000
0001
0010
0100
1000
0100
0010
0001
1000
0010
1000
,
0001
0100
0010
0100
0001
0010
0001
1000
0100
0010
0100
1000
0001
0100
0010
1000
,
0001
0100
0010
0100
0001
0010
0001
1000
0100
0010
0100
1000
0001
0100
0010
1000
,
0001
0010
0100
1000
0010
0100
0010
1000
0001
0100
0001
1000
0100
0010
0001
1000
,
0001
0010
0100
1000
0010
0100
0010
1000
0001
0100
0001
1000
0100
0010
0001
1000
,
0001
0100
0010
1000
0100
0010
0100
1000
0001
1000
0010
0100
0010
0100
0001
1000
,
0001
0100
0010
1000
0100
0010
0100
1000
0001
1000
0010
0100
0010
0100
0001
1000
,
0001
0010
0100
1000
0010
0100
0001
1000
0100
0010
0001
1000
0010
0100
0010
1000
,
0001
0010
0100
1000
0010
0100
0001
1000
0100
0010
0001
1000
0010
0100
0010
1000
,
0001
0100
0001
0010
0001
1000
0100
0010
0001
1000
0001
0100
0010
1000
0001
1000
,
0001
0100
0001
0010
0001
1000
0100
0010
0001
1000
0001
0100
0010
1000
0001
1000
,
0001
0010
0001
0010
0001
0100
0010
0100
0001
1000
0100
0010
0001
1000
0010
1000
,
0001
0010
0001
0010
0001
0100
0010
0100
0001
1000
0100
0010
0001
1000
0010
1000
,
0001
1000
0100
0010
0001
0100
0010
0100
0001
1000
0010
1000
0001
0010
0100
1000
,
0001
1000
0100
0010
0001
0100
0010
0100
0001
1000
0010
1000
0001
0010
0100
1000
,
0001
1000
0010
0100
0001
0010
0001
1000
0100
0010
0001
1000
0001
1000
0010
0100
,
0001
1000
0010
0100
0001
0010
0001
1000
0100
0010
0001
1000
0001
1000
0010
0100
,
0001
1000
0001
0010
0100
0010
0001
0100
0010
1000
0001
0010
0100
0010
0001
1000
,
0001
1000
0001
0010
0100
0010
0001
0100
0010
1000
0001
0010
0100
0010
0001
1000
,
0001
0010
0001
0100
0010
1000
0001
0010
0100
1000
0010
1000
0001
0100
0001
1000
,
0001
0010
0001
0100
0010
1000
0001
0010
0100
1000
0010
1000
0001
0100
0001
1000
,
0001
0100
0001
0010
0100
1000
0001
1000
0100
0010
0001
0100
0010
0100
0001
1000
,
0001
0100
0001
0010
0100
1000
0001
1000
0100
0010
0001
0100
0010
0100
0001
1000
,
0001
0010
0100
1000
0001
0010
0001
0100
0010
1000
0001
0010
0001
0100
0010
1000
,
0001
0010
0100
1000
0001
0010
0001
0100
0010
1000
0001
0010
0001
0100
0010
1000
,
0001
0010
0100
1000
0010
0100
0001
0010
0001
1000
0010
1000
0010
1000
0100
0010
,
0001
0010
0100
1000
0010
0100
0001
0010
0001
1000
0010
1000
0010
1000
0100
0010
,
0001
1000
0010
0100
0001
0010
0001
0010
0100
1000
0010
0100
0010
1000
0001
0010
,
0001
1000
0010
0100
0001
0010
0001
0010
0100
1000
0010
0100
0010
1000
0001
0010
,
0001
1000
0100
1000
0010
0100
0001
1000
0001
0010
0001
0100
0001
1000
0001
0100
,
0001
1000
0100
1000
0010
0100
0001
1000
0001
0010
0001
0100
0001
1000
0001
0100
,
0001
1000
0100
0010
0001
0100
0001
1000
0001
1000
0100
1000
0010
0100
0010
1000
,
0001
1000
0100
0010
0001
0100
0001
1000
0001
1000
0100
1000
0010
0100
0010
1000
,
0001
0010
0100
1000
0010
0100
0001
0010
0001
1000
0010
1000
0100
0010
0001
1000
,
0001
0010
0100
1000
0010
0100
0001
0010
0001
1000
0010
1000
0100
0010
0001
1000
,
0002
0000
0000
0000
,
0000
0003
0000
0000
0000
0000
0000
2001
,
0000
0000
0000
0000
,
0000
0000
0000
0000
,
3001
0000
0200
0320
,
2030
0000
3002
0023
0230
0000
0320
0000
,
0032
0000
2003
3200
2300
3200
0320
0032
,
2003
0000
3200
0000
0320
0000
0032
2003
,
3002
0000
0000
0000
,
2003
0000
0000
0000
,
3001
1000
0100
1000
0001
0010
0100
1000
0001
0010
0100
0010
0001
1000
0001
1000
,
0100
0010
0001
0010
0001
1000
0100
0010
0001
0010
0100
1000
0100
1000
0001
0010
,
0001
0010
0100
1000
0001
0010
0001
1000
0001
1000
0100
0010
0001
1000
0001
1000
,
0001
0010
0100
1000
0100
1000
0001
0010
0100
1000
0100
1000
0001
1000
0100
0010
,
0001
1000
0010
0100
0010
1000
0001
0100
0001
1000
0001
0100
0001
1000
0010
1000
,
0001
0100
0010
1000
0001
1000
0001
0100
0010
1000
0001
1000
0010
0100
0001
1000
,
0001
1000
0010
1000
0001
0100
0010
1000
0010
0100
0010
1000
0001
0100
0010
0100
,
0001
1000
0001
1000
0001
0100
0010
0100
0001
1000
0001
1000
0010
1000
0010
1000
,
0001
0010
0001
1000
0100
1000
0100
0010
0001
0010
0100
1000
0001
1000
0001
0010
,
0100
1000
0100
0010
0001
1000
0001
1000
0100
0010
0100
0010
0001
0010
0001
1000
,
0001
0010
0100
1000
0001
0010
0100
1000
0100
0010
0001
1000
0001
1000
0100
0010
,
0001
1000
0100
1000
0001
0010
0100
0010
0001
1000
0001
1000
0001
0010
0100
1000
,
0001
1000
0010
1000
0001
0100
0001
1000
0010
0100
0010
1000
0001
0100
0010
1000
,
0001
1000
0010
0100
0001
1000
0001
1000
0010
0100
0001
0100
0010
0100
0001
1000
,
0001
0100
0001
0100
0001
1000
0001
1000
0001
0100
0001
0100
0001
1000
0001
1000
,
0001
0100
0010
1000
0010
0100
0001
1000
0001
0100
0010
0100
0001
1000
0001
1000
,
0001
0010
0100
1000
0010
0100
0001
1000
0010
0100
0001
0010
0100
0010
0001
1000
,
0001
0100
0010
0100
0001
0010
0100
1000
0100
0010
0100
1000
0010
0100
0001
1000
,
0001
0010
0100
1000
0010
0100
0001
1000
0001
0100
0010
1000
0100
0010
0100
1000
,
0001
0010
0001
1000
0100
0010
0001
0100
0010
1000
0001
0100
0001
1000
0001
0010
,
0001
1000
0001
0100
0010
1000
0100
0010
0001
0010
0100
1000
0001
0100
0010
1000
,
0100
0010
0100
1000
0100
0010
0001
0100
0010
1000
0001
1000
0100
0010
0100
1000
,
0010
0100
0001
1000
0010
0100
0010
1000
0001
1000
0100
0010
0001
0100
0010
1000
,
0001
1000
0010
0100
0001
1000
0100
0010
0001
0100
0010
1000
0010
0100
0001
1000
,
0001
0100
0010
1000
0100
0010
0001
1000
0100
0010
0001
0100
0010
0100
0001
1000
,
0001
0010
0100
0010
0001
0100
0010
1000
0010
0100
0010
1000
0100
0010
0001
1000
,
0001
0100
0010
1000
0100
0010
0001
1000
0001
0010
0100
1000
0010
0100
0010
1000
,
0001
0100
0001
1000
0010
0100
0001
0010
0100
1000
0001
0010
0001
1000
0001
0100
,
0001
1000
0001
0010
0100
1000
0010
0100
0001
0100
0010
1000
0001
0010
0100
1000
,
0010
0100
0010
1000
0010
0100
0001
0010
0100
1000
0001
1000
0010
0100
0010
1000
,
0100
0010
0001
1000
0100
0010
0100
1000
0001
1000
0010
0100
0001
0010
0100
1000
,
0001
1000
0100
0010
0001
1000
0010
0100
0001
0010
0100
1000
0100
0010
0001
1000
,
0002
0000
0000
0000
,
0000
0000
0003
0000
0000
0000
0000
0M00
;

//---------------dance-single - 17+ (CTalon)----------------
#NOTES:
     dance-single:
     17+ (CTalon):
     Hard:
     17:
     1.000,1.000,0.235,0.211,1.000,2032.000,49.000,44.000,84.000,0.000:
0000
0000
0000
0000
,
0000
0000
0000
0000
,
0000
0000
0000
0000
,
0000
0000
0000
0000
,
1001
0000
0000
1001
0000
0001
0010
0000
0110
0000
0000
0110
0000
0100
1000
0000
,
1010
0000
0000
1010
0000
0010
0100
0000
0101
0000
0000
0101
0000
0001
11M0
0000
,
1001
0000
0000
1001
0000
0001
0010
0000
0011
0000
0000
0011
0000
0001
0100
0000
,
0101
0000
0000
0101
0000
0001
1000
0000
00M0
0M00
000M
M000
000M
00M0
0M00
M000
,
0MM1
1000
0100
1000
0001
0010
0100
1000
0001
0010
0100
0010
0001
1000
0001
1000
,
0100
0010
0001
0010
0001
1000
0100
0010
0001
0010
0100
1000
0100
1000
0001
0010
,
0001
0010
0100
1000
0001
0010
0001
1000
0001
1000
0100
0010
0001
1000
0001
1000
,
0001
0010
0100
1000
0100
1000
0001
0010
0100
0000
0100
0000
11MM
0000
0000
0000
,
1000
0001
0100
0010
0100
0001
1000
0010
1000
0001
1000
0010
1000
0001
0100
0001
,
1000
0010
0100
0001
1000
0001
1000
0010
0100
0001
1000
0001
0100
0010
1000
0001
,
1000
0001
0100
0001
1000
0010
0100
0001
0100
0010
0100
0001
1000
0010
0100
0010
,
1000
0001
1000
0001
1000
0000
0000
0000
1M1M
0000
0000
0000
M1M1
0000
0000
0000
,
0001
0010
0001
1000
0100
1000
0100
0010
0001
0010
0100
1000
0001
1000
0001
0010
,
0100
1000
0100
0010
0001
1000
0001
1000
0100
0010
0100
0010
0001
0010
0001
1000
,
0001
0010
0100
1000
0001
0010
0100
1000
0100
0010
0001
1000
0001
1000
0100
0010
,
0001
1000
0100
1000
0001
0010
0100
0010
0001
0000
0001
0000
1MM1
0000
0000
0000
,
1000
0001
0100
0001
1000
0010
1000
0001
0100
0010
0100
0001
1000
0010
0100
0001
,
1000
0001
0100
0010
1000
0001
1000
0001
0100
0010
1000
0010
0100
0010
1000
0001
,
1000
1MM1
1MM1
1MM1
,
0001
1000
0001
0000
1000
0000
0000
0000
M11M
0000
0000
0000
1MM1
0000
0000
0000
,
0001
0010
0100
0010
0001
1000
0100
0010
0001
1000
0100
1000
0001
0010
0100
1000
,
0001
1000
0100
0010
0100
1000
0001
1000
0001
0010
0100
1000
0001
1000
0001
0010
,
0001
1000
0010
0100
0010
0100
0001
1000
0010
0100
0001
1000
0001
0100
0001
0100
,
0010
1000
0001
0100
0001
1000
0001
0100
0010
0000
0010
0000
1M1M
0000
0000
0000
,
1000
0001
0100
0001
0100
0010
0100
0001
1000
0010
1000
0001
0100
0001
1000
0001
,
0100
0010
0100
0001
1000
0010
0100
0010
1000
0001
1000
0010
0100
0001
0100
0010
,
1000
0001
0010
0100
0010
0001
0010
0100
1000
0100
0010
0001
1000
0001
0010
0100
,
1000
0001
1000
0001
1000
0000
0000
0000
11MM
0000
0000
0000
MM11
0000
0000
0000
,
0001
0010
0001
1000
0100
1000
0001
0010
0100
1000
0001
0010
0001
1000
0100
1000
,
0001
0010
0100
1000
0100
0010
0001
1000
0100
1000
0001
0010
0100
1000
0001
1000
,
0001
0100
0010
0100
0001
1000
0010
1000
0001
0100
0010
0100
0001
1000
0010
1000
,
0010
0100
0001
1000
0001
1000
0010
0100
0001
0000
0001
0000
1MM1
0000
0000
0000
,
1000
0010
1000
0010
1000
0001
0100
0001
1000
0010
1000
0001
0100
0001
0100
0001
,
1000
0010
0100
0001
0100
0010
1000
0010
0100
0010
1000
0001
0100
0010
1000
0001
,
1000
1MM1
1MM1
1MM1
,
0001
0010
0001
0000
1000
0000
0100
1000
0100
0000
0000
0000
1000
0000
0000
0000
,
0001
0010
0001
1000
0001
0100
0010
1000
0001
0010
0001
1000
0001
0100
0010
1000
,
0001
0010
0001
1000
0001
0100
0010
1000
0001
0010
0001
1000
0001
0100
0010
1000
,
0001
1000
0100
0010
0100
1000
0001
0100
0001
1000
0100
0010
0100
1000
0001
0100
,
0001
1000
0100
0010
0100
1000
0001
0100
0001
1000
0100
0010
0100
1000
0001
0100
,
0001
1000
0100
1000
0001
0100
0001
1000
0001
1000
0100
1000
0001
0100
0001
1000
,
0001
1000
0100
1000
0001
0100
0001
1000
0001
1000
0100
1000
0001
0100
0001
1000
,
0001
0010
0100
1000
0001
0100
0001
1000
0001
0010
0100
1000
0001
0100
0001
1000
,
0001
0010
0100
1000
0001
0100
0001
1000
0001
0010
0100
1000
0001
0100
0001
1000
,
0001
0010
0001
1000
0001
0100
0010
1000
0001
0010
0001
1000
0001
0100
0010
1000
,
0001
0010
0001
1000
0001
0100
0010
1000
0001
0010
0001
1000
0001
0100
0010
1000
,
0001
1000
0100
0010
0100
1000
0001
0100
0001
1000
0100
0010
0100
1000
0001
0100
,
0001
1000
0100
0010
0100
1000
0001
0100
0001
1000
0100
0010
0100
1000
0001
0100
,
0001
1000
0100
1000
0001
0100
0001
1000
0001
1000
0100
1000
0001
0100
0001
1000
,
0001
1000
0100
1000
0001
0100
0001
1000
0001
1000
0100
1000
0001
0100
0001
1000
,
0001
0010
0100
1000
0001
0100
0001
1000
0001
0010
0100
1000
0001
0100
0001
1000
,
0001
0010
0100
1000
0001
0100
0001
1000
0001
0010
0100
1000
0001
0100
0001
1000
,
0001
0010
0001
0100
0001
1000
0100
1000
0001
0010
0001
0100
0001
1000
0100
1000
,
0001
0010
0001
0100
0001
1000
0100
1000
0001
0010
0001
0100
0001
1000
0100
1000
,
0001
0100
0001
0010
0100
1000
0010
1000
0001
0100
0001
0010
0100
1000
0010
1000
,
0001
0100
0001
0010
0100
1000
0010
1000
0001
0100
0001
0010
0100
1000
0010
1000
,
0001
0100
0001
0010
0001
1000
0010
1000
0001
0100
0001
0010
0001
1000
0010
1000
,
0001
0100
0001
0010
0001
1000
0010
1000
0001
0100
0001
0010
0001
1000
0010
1000
,
0001
0010
0001
0100
0010
1000
0100
1000
0001
0010
0001
0100
0010
1000
0100
1000
,
0001
0010
0001
0100
0010
1000
0100
1000
0001
0010
0001
0100
0010
1000
0100
1000
,
0001
0100
0001
0010
0001
0100
0001
0010
,
0001
1000
0100
1000
0010
1000
0100
1000
,
0001
0010
0001
0100
0001
0010
0001
0100
,
0001
1000
0010
1000
0100
1000
0010
1000
,
0001
1000
0000
0100
0000
0010
0000
0001
,
0000
1000
0000
0010
0000
0100
0000
0001
,
0000
M000
0000
000M
0000
00M0
0000
0M00
,
0000
M000
0000
0M00
0000
00M0
0000
000M
,
1000
0000
0000
0000
0000
0000
0000
0000
1000
0000
0000
0000
0000
0000
0000
0000
2000
0000
0000
0000
0000
0000
0000
0000
0000
0000
0000
0000
0000
0000
0000
3000
2000
0000
0000
0000
0000
0000
0000
0000
0000
0000
0000
0000
0000
0000
0000
0000
3100
0000
0000
0000
0010
0000
0000
0000
0000
0000
0000
0000
0001
0000
0000
0000
,
1000
1000
1000
1000
0010
0100
0020
0000
,
1030
1000
2000
0000
3001
0010
0100
0020
,
0000
0031
0100
0001
0100
0001
0200
0000
,
0301
0000
0001
0000
0002
0000
0000
0000
1003
0010
0000
1000
0002
0000
0000
0000
,
1003
0100
0000
0010
0000
0001
0000
1000
0000
0001
0100
0000
0010
0000
1000
0000
,
0001
0001
0001
0001
0001
0001
0001
0001
,
0100
0100
0100
0010
0100
0001
0020
0000
,
0230
0000
1300
0001
0200
0000
0310
1000
,
0001
0001
0001
0002
0000
0023
0000
0130
,
2000
0000
0000
0000
0000
0000
0000
0000
0000
0000
0000
0000
0000
0000
0000
0000
3001
0000
0000
0000
0100
0000
0000
0000
0002
0000
0000
0000
0000
0000
0000
0000
0000
0000
0000
0000
0000
0000
0000
0003
0002
0000
0000
0000
0000
0000
0000
0000
0000
0000
0000
0000
0000
0000
0000
0000
1003
0000
0000
0000
0000
0000
0000
0000
,
0010
0010
1000
0100
1000
0100
1000
0001
,
0100
0010
0100
0010
0100
0000
0001
1000
0000
0001
1000
0000
0100
0000
0020
0000
,
0000
0031
1000
0010
0100
0010
0010
1000
,
0001
0001
1000
0002
0000
0023
0000
0130
,
1000
0000
0000
0000
0001
1000
0000
0000
0000
0001
0000
1000
0000
0000
0000
0001
,
1000
0100
1000
0010
1000
0001
1000
0100
0010
0001
0010
0100
1000
0001
0100
0001
,
1000
0100
1000
0010
1000
0001
1000
0100
0010
0001
0010
0100
1000
0001
0100
0001
,
1000
0010
0100
0010
1000
0100
1000
0001
0010
0100
0010
0001
1000
0010
0100
0001
,
1000
0010
0100
0010
1000
0100
1000
0001
0010
0100
0010
0001
1000
0010
0100
0001
,
1000
0100
0010
0001
0100
0010
0100
0001
1000
0010
1000
0001
0010
0100
1000
0001
,
1000
0100
0010
0001
0100
0010
0100
0001
1000
0010
1000
0001
0010
0100
1000
0001
,
1000
0010
0100
0001
0010
0100
0010
0001
1000
0001
0100
0010
0100
0010
1000
0001
,
1000
0010
0100
0001
0010
0100
0010
0001
1000
0001
0100
0010
0100
0010
1000
0001
,
1000
0100
0010
0001
0100
0010
1000
0001
0010
0100
1000
0001
0100
0010
0100
0001
,
1000
0100
0010
0001
0100
0010
1000
0001
0010
0100
1000
0001
0100
0010
0100
0001
,
1000
0010
1000
0100
1000
0001
0010
0100
1000
0001
1000
0010
0100
0001
1000
0001
,
1000
0010
1000
0100
1000
0001
0010
0100
1000
0001
1000
0010
0100
0001
1000
0001
,
1000
0100
1000
0100
1000
0010
0100
0010
1000
0001
0010
0100
1000
0001
0100
0001
,
1000
0100
1000
0100
1000
0010
0100
0010
1000
0001
0010
0100
1000
0001
0100
0001
,
1000
0001
0010
0100
1000
0010
0100
0010
1000
0001
0100
0001
1000
0100
0010
0001
,
1000
0001
0010
0100
1000
0010
0100
0010
1000
0001
0100
0001
1000
0100
0010
0001
,
1000
0001
0100
0010
1000
0100
1000
0001
0010
0100
1000
0001
1000
0001
0100
0010
,
1000
0001
0100
0010
1000
0100
1000
0001
0010
0100
1000
0001
1000
0001
0100
0010
,
1000
0001
1000
0100
0010
0100
1000
0010
0100
0001
1000
0100
0010
0100
1000
0001
,
1000
0001
1000
0100
0010
0100
1000
0010
0100
0001
1000
0100
0010
0100
1000
0001
,
1000
0100
1000
0010
0100
0001
1000
0100
0010
0001
0100
0001
1000
0010
1000
0001
,
1000
0100
1000
0010
0100
0001
1000
0100
0010
0001
0100
0001
1000
0010
1000
0001
,
1000
0010
1000
0100
0010
0001
1000
0001
0010
0100
1000
0010
0100
0010
1000
0001
,
1000
0010
1000
0100
0010
0001
1000
0001
0010
0100
1000
0010
0100
0010
1000
0001
,
1000
0100
0010
0001
1000
0100
1000
0010
0100
0001
1000
0100
1000
0010
0100
0001
,
1000
0100
0010
0001
1000
0100
1000
0010
0100
0001
1000
0100
1000
0010
0100
0001
,
1000
0100
0010
0001
0100
0010
1000
0100
1000
0001
0100
0001
0100
0001
0010
0100
,
1000
0100
0010
0001
0100
0010
1000
0100
1000
0001
0100
0001
0100
0001
0010
0100
,
1000
0001
0100
0010
1000
0100
1000
0100
0010
0001
0100
0010
0100
0001
1000
0100
,
1000
0001
0100
0010
1000
0100
1000
0100
0010
0001
0100
0010
0100
0001
1000
0100
,
1000
0001
0010
0001
0100
0010
1000
0001
1000
0100
1000
0010
1000
0001
1000
0010
,
1000
0001
0010
0001
0100
0010
1000
0001
1000
0100
1000
0010
1000
0001
1000
0010
,
1000
0001
0010
0100
1000
0010
1000
0001
1000
0001
0010
0001
0100
0010
0100
0001
,
1000
0001
0010
0100
1000
0010
1000
0001
1000
0001
0010
0001
0100
0010
0100
0001
,
1000
0100
0010
0001
0100
0010
1000
0100
1000
0001
0100
0001
0010
0100
1000
0001
,
1000
0100
0010
0001
0100
0010
1000
0100
1000
0001
0100
0001
0010
0100
1000
0001
,
2000
0000
0000
0000
,
0000
3000
0000
0000
0000
0000
0000
1002
,
0000
0000
0000
0000
,
0000
0000
0000
0000
,
1003
0000
0020
0230
,
0302
0000
2003
3200
0320
0000
0230
0000
,
2300
0000
3002
0023
0032
0023
0230
2300
,
3002
0000
0023
0000
0230
0000
2300
3002
,
2003
0000
0000
0000
,
3002
0000
0000
0000
,
1003
0001
0010
0001
1000
0100
0010
0001
1000
0100
0010
0100
1000
0001
1000
0001
,
0010
0100
1000
0100
1000
0001
0010
0100
1000
0100
0010
0001
0010
0001
1000
0100
,
1000
0100
0010
0001
1000
0100
1000
0001
1000
0001
0010
0100
1000
0001
1000
0001
,
1000
0100
0010
0001
0010
0001
1000
0100
0010
0000
0010
0000
MM11
0000
0000
0000
,
0001
1000
0010
0100
0010
1000
0001
0100
0001
1000
0001
0100
0001
1000
0010
1000
,
0001
0100
0010
1000
0001
1000
0001
0100
0010
1000
0001
1000
0010
0100
0001
1000
,
0001
1000
0010
1000
0001
0100
0010
1000
0010
0100
0010
1000
0001
0100
0010
0100
,
0001
1000
0001
1000
0001
0000
0000
0000
M1M1
0000
0000
0000
1M1M
0000
0000
0000
,
1000
0100
1000
0001
0010
0001
0010
0100
1000
0100
0010
0001
1000
0001
1000
0100
,
0010
0001
0010
0100
1000
0001
1000
0001
0010
0100
0010
0100
1000
0100
1000
0001
,
1000
0100
0010
0001
1000
0100
0010
0001
0010
0100
1000
0001
1000
0001
0010
0100
,
1000
0001
0010
0001
1000
0100
0010
0100
1000
0000
1000
0000
1MM1
0000
0000
0000
,
0001
1000
0010
1000
0001
0100
0001
1000
0010
0100
0010
1000
0001
0100
0010
1000
,
0001
1000
0010
0100
0001
1000
0001
1000
0010
0100
0001
0100
0010
0100
0001
1000
,
0001
1MM1
1MM1
1MM1
,
1000
0001
1000
0000
0001
0000
0000
0000
M11M
0000
0000
0000
1MM1
0000
0000
0000
,
1000
0100
0010
0100
1000
0001
0010
0100
1000
0001
0010
0001
1000
0100
0010
0001
,
1000
0001
0010
0100
0010
0001
1000
0001
1000
0100
0010
0001
1000
0001
1000
0100
,
1000
0001
0100
0010
0100
0010
1000
0001
0100
0010
1000
0001
1000
0010
1000
0010
,
0100
0001
1000
0010
1000
0001
1000
0010
0100
0000
0100
0000
M1M1
0000
0000
0000
,
0001
1000
0010
1000
0010
0100
0010
1000
0001
0100
0001
1000
0010
1000
0001
1000
,
0010
0100
0010
1000
0001
0100
0010
0100
0001
1000
0001
0100
0010
1000
0010
0100
,
0001
1000
0100
0010
0100
1000
0100
0010
0001
0010
0100
1000
0001
1000
0100
0010
,
0001
1000
0001
1000
0001
0000
0000
0000
MM11
0000
0000
0000
11MM
0000
0000
0000
,
1000
0100
1000
0001
0010
0001
1000
0100
0010
0001
1000
0100
1000
0001
0010
0001
,
1000
0100
0010
0001
0010
0100
1000
0001
0010
0001
1000
0100
0010
0001
1000
0001
,
1000
0010
0100
0010
1000
0001
0100
0001
1000
0010
0100
0010
1000
0001
0100
0001
,
0100
0010
1000
0001
1000
0001
0100
0010
1000
0000
1000
0000
1MM1
0000
0000
0000
,
0001
0100
0001
0100
0001
1000
0010
1000
0001
0100
0001
1000
0010
1000
0010
1000
,
0001
0100
0010
1000
0010
0100
0001
0100
0010
0100
0001
1000
0010
0100
0001
1000
,
0001
1MM1
1MM1
1MM1
,
1000
0100
1000
0000
0001
0000
0010
0001
0010
0000
0000
0000
0001
0000
0000
0000
,
2002
0000
0000
0000
,
0000
0000
3003
0000
0000
0000
0000
0M00
;
