#TITLE:Infection;
#SUBTITLE:;
#ARTIST:Inspector K;
#TITLETRANSLIT:;
#SUBTITLETRANSLIT:;
#ARTISTTRANSLIT:;
#CREDIT:;
#BANNER:infection.png;
#BACKGROUND:infection-bg.png;
#LYRICSPATH:;
#CDTITLE:ITG.png;
#MUSIC:Infection.mp3;
#OFFSET:-0.154;
#SAMPLESTART:25.370;
#SAMPLELENGTH:11.180;
#SELECTABLE:YES;
#BPMS:0.000=170.000;
#STOPS:;
#BGCHANGES:;
// cache tags:
#FIRSTBEAT:0.000;
#LASTBEAT:356.000;
#SONGFILENAME:Songs/new cc/Infection/Infection.sm;
#HASMUSIC:1;
#HASBANNER:1;
#MUSICLENGTH:127.849;
// end cache tags

//---------------dance-single - M. Puls----------------
#NOTES:
     dance-single:
     M. Puls:
     Hard:
     8:
     0.000,0.000,0.000,0.000,0.000,0.000,0.000,0.000,0.000,0.000:
0000
0000
0000
0000
;

//---------------dance-single - M. Puls & K. Ward----------------
#NOTES:
     dance-single:
     M. Puls & K. Ward:
     Challenge:
     11:
     0.970,1.000,0.172,0.641,0.927,764.000,22.000,82.000,260.000,0.000:
0000
0000
0000
0000
,
0000
0000
0000
0000
,
0000
0000
0000
0000
,
0000
0000
0000
0000
,
2000
0000
0000
0000
0000
0000
0100
0000
3000
0000
M100
0000
0000
0000
0100
1000
,
0100
0000
0000
0000
0000
0000
0100
0000
0100
0000
1000
0000
1000
0000
0001
0010
,
0002
0000
0000
0000
0000
0000
0010
0000
0003
0000
001M
0000
0000
0000
0010
0001
,
0010
0000
0000
0000
0000
0000
0001
0000
0000
1000
0000
0000
0000
0000
0000
0100
0000
0000
1000
0000
0000
0000
0000
0000
0100
0000
0000
0000
0000
0000
1000
0000
0000
0000
0000
0000
1000
0000
0000
0000
0000
0000
00M0
0000
M000
0000
0000
0000
,
0010
1000
0010
1000
0001
1000
0010
1000
0010
1000
0010
1000
0001
1000
0010
1000
,
0010
1000
0010
1000
0001
1000
0010
1000
0010
0000
1000
0000
1100
0000
MMMM
0000
,
0100
0001
0100
0001
1000
0001
0100
0001
0100
0001
0100
0001
1000
0001
0100
0001
,
0100
0001
0100
0001
1000
0001
0100
0001
0100
0000
0001
0000
0011
0000
MM00
000M
,
0010
1000
0010
0000
0M00
0000
01M0
0001
0100
M000
00M0
0000
1000
0001
1000
0000
,
0010
0000
0010
0000
0100
0000
0001
0000
0001
0000
0100
0010
0100
000M
0M00
M0M0
,
0100
0001
0100
00M0
0M00
0000
0010
1000
0010
000M
0M00
0000
0001
1000
0001
0000
,
0100
0000
0100
0000
0010
0000
1000
0000
1000
0000
0010
0100
0010
0000
1000
0000
,
0001
0000
1000
0000
0010
1000
0001
0100
0001
0000
0100
0010
0100
0000
0001
0000
,
1000
0000
0000
0000
0000
0000
1000
0000
0000
0000
0000
0000
0001
0000
0000
0100
0000
0000
0010
0000
0000
1000
0000
0000
0100
0000
0000
0000
0000
0000
1MM0
0000
000M
0000
0000
0000
0110
0000
0000
0000
M000
0000
0000
0000
0000
0MM0
0000
0000
,
1000
0000
0100
0000
1000
0000
0020
0M30
1000
00MM
0200
0300
0010
0000
MMM1
0000
,
0010
0000
0010
0100
0010
0000
MMM1
0000
0020
0000
0030
0000
0010
0100
0010
0002
,
0103
0000
0000
0010
000M
0000
1000
0000
0000
0100
0000
0000
1MMM
0000
0000
1000
0000
0000
0010
0000
0000
1MMM
0000
0000
,
0100
0000
0010
0000
0100
0000
1000
0000
0100
0010
0100
0010
0200
0000
1300
0000
,
1M00
0000
0000
0000
0000
0000
0100
0000
0000
0000
0000
0000
1000
0000
0000
0000
0000
0000
0020
0000
0000
0030
0000
0000
1M0M
0000
00M0
0000
0000
0000
0200
0000
0000
0300
0000
0000
0010
0000
0000
0000
0000
0000
MM01
0000
00M0
0000
0000
0000
,
1000
0000
0010
0000
0010
0000
1MMM
0000
2000
0000
3010
0000
0010
0100
0010
2000
,
3010
M100
0001
0100
MM1M
0100
0010
1MMM
,
0010
0000
0100
0000
0010
0000
1000
0000
0010
0100
0010
0100
0020
0000
0130
0000
,
00M1
0000
0000
0000
0000
0000
1000
0000
0000
0000
0000
0000
0001
0000
0000
0000
0000
0000
0200
0000
0000
0300
00M0
0000
M001
0000
0M00
0000
0000
0000
0020
0000
0000
0030
0000
0000
0100
0000
0000
0000
0000
0000
1MMM
0000
0000
0000
0000
0000
,
0100
0000
0100
0010
0100
0000
1MMM
0000
0020
0000
0130
0000
0010
0100
0010
2000
,
3100
1M00
0001
0100
MMM1
0100
0010
1MMM
,
0010
0000
0100
0000
0010
0000
1000
0000
0010
0100
0010
0100
0020
0000
1030
0000
,
00M2
0000
0000
0000
0023
0M00
0000
0000
M23M
0000
00M0
0300
2000
0000
0M00
0000
3200
0000
M0M0
0000
0320
0000
0M00
0000
0031
0000
1000
00M0
0002
0000
0000
0000
,
0013
M000
0100
0000
0010
0000
0001
0000
2000
0000
0001
0000
3010
0000
1000
0001
,
2000
0M00
0000
0000
3200
00M0
M000
0000
0320
000M
0M00
0000
0032
0000
00M0
0000
0023
0000
0M00
0000
023M
0000
0000
0000
13M0
0000
0M01
0000
2000
0000
0000
0000
,
3100
1M00
0010
0100
0002
1000
0103
0001
,
0100
0010
1000
0001
0010
0100
0010
0001
1000
0010
1000
0000
0MM0
0000
0MM0
0000
,
1100
0000
0001
0000
0001
0010
0001
0000
0001
0010
0001
0000
0010
0000
0010
0000
,
0010
0000
0001
0000
1000
0000
1000
0100
1000
0000
1000
0100
1000
0000
0010
M000
,
2000
0000
0000
0M00
0200
0000
03M0
0000
0M20
0000
0030
0MM0
0200
0000
3300
0000
,
M010
0100
0010
0100
0001
0100
0010
1000
0001
0000
1000
0010
1000
0000
0010
0000
,
1100
0000
0000
0000
0001
MM00
0000
0000
0001
0000
0010
0000
0001
0000
0000
0000
0001
0000
0010
0000
0001
0000
0000
0000
0010
0000
0000
0000
0010
0000
0000
0000
,
0001
0000
0001
0000
1000
0000
1000
0100
1000
0000
1000
0100
1000
0000
0001
M000
,
2000
0000
0000
0000
0000
0000
0M00
0000
0200
0000
0000
0000
0300
0000
0MM0
0000
0020
0000
0000
0000
0030
0000
0MM0
0000
0200
0000
0000
0000
3300
0000
0000
MM00
,
0010
0100
0010
1000
0010
0100
0010
1000
0001
1000
0001
0100
0001
0000
1000
0000
,
0011
0000
1000
0000
1000
0100
1000
0000
1000
0100
1000
0000
0100
0000
0100
0000
,
1000
0000
1000
0000
0001
0000
0001
0010
0001
0000
0001
0010
0001
0000
1000
000M
,
0002
0000
0000
0000
0000
0000
00M0
0000
0020
0000
0000
0000
0030
0000
0M00
00M0
0200
0000
0000
0000
0300
00M0
0000
0000
0M20
0000
0000
0000
0033
0000
0000
00M0
,
010M
0010
0100
0001
1000
0010
0100
0001
1000
0000
0001
0100
0001
0000
1000
0000
,
0011
0000
1000
0000
1000
0100
1000
0000
1000
0100
1000
0000
0100
0000
1000
0000
,
1000
0000
0001
0000
0100
0000
0001
0010
0001
0000
0001
0010
0001
1000
0001
00M0
,
0002
0000
00M0
0000
0020
0000
0M30
00M0
0200
0000
03M0
0000
0M20
0000
0033
0000
,
10MM
0100
1000
0000
10M0
0000
0100
10M0
0001
M000
0100
0010
1000
0000
0010
0000
,
1100
0000
0010
0000
1000
0000
0001
0000
1000
0000
0001
1000
0001
0000
0100
0010
,
0100
0010
0100
0010
1000
0000
1000
0000
0010
0000
0100
0000
0001
1000
0010
0000
,
1000
0000
1000
0000
0001
0000
0100
0000
0100
0000
0010
0000
1000
0001
0100
0010
,
1000
0000
0010
0000
0010
0000
1000
0000
M1M1
0000
0M00
0000
101M
0000
0M00
00M0
,
1000
0000
0100
0000
1000
0000
0010
0000
0100
0000
0010
0000
1000
0010
1000
0010
,
1000
0000
0010
0000
0100
0000
010M
0000
0001
M000
0002
0000
2003
0000
3000
0000
,
0001
0100
0010
0000
1000
0010
1000
0000
0010
0100
0001
1000
0010
0000
0010
0000
,
1000
1000
0001
0100
0010
1000
0020
0030
,
10M0
0000
0000
0000
0010
0000
0100
0000
0010
0100
0010
0100
0020
0000
1030
0000
,
MMMM
0000
1000
0000
0001
1000
0001
1000
0001
0000
1000
0000
1000
0000
MMMM
0000
,
1000
0000
0010
0000
0100
0000
0001
0000
1000
0000
1000
0000
0001
1000
0001
1000
,
0001
0000
0100
0000
0001
0000
0010
0000
0001
0001
0000
0000
1000
1000
0000
0000
,
0010
0000
0000
0000
0100
0000
0001
0000
0100
0010
0100
0010
0200
0000
0301
0000
,
MMMM
0000
0001
0000
1000
0001
1000
0001
1000
0000
0010
0000
1000
0000
1000
0000
,
MM11
0000
0000
0000
1000
0000
0010
0000
1000
0000
0010
0000
1000
0001
1000
0001
,
1000
0000
0000
0010
0000
0000
1000
0000
0000
0100
0000
0000
1100
0000
0000
0110
0000
0000
0011
0000
0000
0000
0MMM
0000
,
1000
0000
0000
0000
0100
0000
0000
0000
0001
0000
0000
0000
0200
0000
0300
0000
10M0
0M00
0000
0000
0010
0000
0000
0000
0001
0000
0000
0000
MM1M
0000
0000
0000
,
1000
0000
0010
0100
0010
0000
1MMM
0000
0200
0000
0300
0000
0010
0100
0010
0002
,
0013
0MM1
1000
0100
1MMM
0010
1000
1MMM
,
0001
0000
0010
0000
0100
0000
1000
0000
0010
0100
0010
0100
0020
0000
1030
0000
,
01M0
0000
1000
0000
0001
0000
2000
3000
01MM
M000
0020
0030
0100
0000
1MMM
0000
,
0100
0000
0010
0100
0010
0000
0MM1
0000
0200
0000
0300
0000
0100
0010
0100
0002
,
0013
0000
00M1
0000
010M
0000
0010
0000
1MMM
0000
0010
0000
0100
0000
M0M1
0M00
,
0010
0000
0100
0000
0010
0000
0001
0000
0010
0100
0010
0100
0020
0000
0031
0000
,
00M1
0000
0000
0000
0010
0000
0000
0000
0001
0000
0000
0000
0200
0000
0300
0000
M0M1
0M00
0000
0000
0020
0000
0030
0000
0100
0000
0000
0000
1MMM
0000
0000
0000
,
0100
0000
0100
0010
0100
0000
1MMM
0000
0100
0010
0100
0010
0200
0000
0010
0000
,
0310
M000
0100
0000
1000
0000
0100
0000
1MMM
0000
M010
0000
0100
0000
MMM1
0000
,
0100
0000
0000
0000
0010
0000
0000
0000
0100
0000
0000
0000
0010
0000
0000
0000
0100
0000
0010
0000
0100
0000
0010
0000
0200
0000
0000
0000
0301
0000
0000
0M00
,
2000
0000
0M00
0000
3200
0000
00M0
M000
0320
0000
000M
0M00
0032
0000
00M0
0000
0023
0000
0M00
000M
0230
0000
0000
00M0
1300
0000
0001
0M00
2000
0000
0000
0000
,
3100
0000
0100
0000
0010
0000
0001
0000
2000
0000
0001
0000
3010
0000
M000
0001
,
1000
0000
0M00
0000
0200
0000
M0M0
0000
0320
0000
0M0M
0000
0032
0000
00M0
0000
0023
0M00
0000
000M
0230
M000
0000
00M0
1300
0000
0001
0M00
2000
0000
0000
0000
,
3100
M000
0100
0000
0010
0000
0001
0000
2000
0000
0001
0000
0010
0000
0100
0000
,
3010
0100
0001
1000
0100
0010
0100
1000
0001
0100
0010
1000
0001
0100
0001
0000
,
0011
0000
0000
0000
0000
0000
0000
0000
00MM
0000
0000
0000
0000
0000
0000
0000
0000
0000
1010
0000
0000
0000
0000
0000
0000
0000
0000
0000
0000
0000
0010
0000
0000
0000
0000
0000
0000
0000
0000
0000
0000
0000
1000
0000
0000
0001
0000
0000
,
1001
0000
0000
0000
0000
0000
M000
0000
000M
0000
0000
0000
0000
0000
0000
0000
0000
0000
0001
0000
0000
0000
0000
0000
0010
0000
0000
0000
0000
0000
0001
0000
0000
0000
0000
0000
0010
0000
0000
0000
0000
0000
0100
0000
0000
1000
0000
0000
,
1100
0000
0M00
0000
0000
0000
0011
0000
0000
0000
0101
0000
0000
0000
0001
1000
,
0001
0000
010M
0010
0000
1000
0010
0000
1000
0000
0001
0000
0100
0000
M11M
0000
,
0011
0000
M00M
M0M0
MM00
M0M0
M00M
0000
;

//---------------dance-single - ----------------
#NOTES:
     dance-single:
     :
     Edit:
     15:
     1.000,1.000,0.735,1.000,0.727,716.000,94.000,257.000,27.000,54.000:
1010
0100
0010
1100
0011
0100
0010
1000
0001
0010
0100
0001
1000
0010
0100
0001
,
0110
0000
0000
0000
0000
0000
0000
0000
1010
0100
0010
0000
0001
0001
0001
0010
,
0101
1000
0100
1000
0100
0011
0100
0001
1000
0010
0100
0001
0010
1100
0001
0010
,
0100
0000
0000
0000
0000
0000
0000
0000
1111
0110
0011
0000
0000
0000
0000
0000
,
0001
0010
0100
0001
1000
0010
0100
0001
0010
1000
0010
0100
0001
1000
0010
0100
,
0001
0000
0000
0000
0010
0100
0001
1000
0010
0100
0001
1001
0010
0100
1000
0010
,
0100
0000
0000
0001
0000
0000
1000
0000
0100
0000
0010
0000
0001
0000
0001
0000
0010
0000
0100
0000
1000
0000
0100
0000
0010
0000
0001
0000
0010
0000
0100
0000
1000
0000
0100
0000
0010
0000
0000
0000
0000
0000
0000
0000
0000
0000
0000
0000
,
0110
1100
0011
0110
0011
1100
0110
0011
,
1010
0101
1010
0110
0011
1100
0011
0110
,
1001
0110
1100
0011
1110
0200
2300
3200
,
0320
0032
0023
0230
0320
0032
0203
2300
,
3200
0320
0032
0023
0230
2300
3200
0320
,
0032
0010
0103
1000
0100
0010
0001
1000
0010
0100
0001
1000
0010
0100
0001
0010
,
1000
0010
0100
0001
1000
0010
0100
0001
1000
0010
0100
0001
1000
0010
0100
0001
,
0100
0000
0000
0010
0100
0000
0010
0100
0000
1000
0100
0000
0010
0100
0000
0001
,
0010
0000
0010
0100
0000
1000
0100
0000
0010
0100
0000
0000
0010
0001
0000
0010
,
0100
0000
1000
0100
0010
0001
0010
0100
2222
0000
0000
0000
0000
0000
0000
0000
,
0000
0000
0000
0000
0000
0000
0000
0000
0000
0000
0000
3333
0000
0000
0000
0000
,
2000
0000
0000
0000
0000
0000
3200
0000
0000
0000
0000
0000
0320
0000
0000
0000
0000
0000
0032
0000
0000
0000
0000
0000
0023
0000
0000
0000
0000
0000
0230
0000
0000
0000
0000
0000
0320
0000
0000
0000
0000
0000
0230
0000
00M0
00M0
00M0
00M0
,
23M0
00M0
0MM0
00M0
00M0
00M0
32M0
00M0
00M0
M000
0000
0000
0320
0000
0000
0000
0M00
0000
0032
0000
0000
0000
00M0
00M0
02M3
00M0
00MM
00MM
000M
000M
000M
0000
0000
0000
0000
0000
0000
0000
0000
0000
0000
0000
0000
0000
0000
0000
0000
0000
,
2000
3020
0332
2003
3020
0230
0302
0203
,
0320
0000
2030
0000
3200
0000
0320
0000
1130
1100
2200
0000
0000
0000
0000
0000
,
0020
0032
3323
0230
2300
3020
0230
0302
,
0023
0230
2300
3200
0320
0000
0000
0000
,
2000
3200
0332
0023
0230
0302
0023
0230
,
2300
3200
0320
0032
2223
0000
0001
0000
,
3302
0233
2300
3020
0230
0302
2003
3020
,
0230
0000
0000
0000
0302
0000
0000
0000
0203
0000
0000
0000
2300
0000
0000
0000
3200
0000
0000
0000
0000
0000
0000
0000
0000
1000
0000
0010
0000
1000
0000
0000
,
0320
0230
2300
3002
0023
0032
0203
0320
,
0230
0000
0000
0000
2300
0000
0000
0000
3200
0000
0000
0000
0320
0000
0000
0000
0032
0000
0000
0000
0000
0010
0000
1000
0000
0100
0000
0000
0000
0000
0000
0000
,
0203
2300
3200
0320
0230
0302
0203
2300
,
3200
0000
0320
0000
0230
0000
2300
0000
3200
0000
0000
0000
1000
0010
1000
0000
,
0002
0023
2330
3200
2300
3020
0230
0302
,
0203
2300
3200
0320
0230
0000
0000
0300
,
2222
0000
0000
0000
,
3333
0000
0000
0000
1000
0000
0100
1000
0100
0000
0010
0000
0001
0010
0100
0000
,
1000
0000
0100
0010
0001
0000
0010
0000
0100
1000
0100
0000
0010
0001
0010
0100
,
1000
0000
0010
0001
0010
0100
0000
1000
0100
0010
0001
0000
0010
0100
1000
0100
,
0010
0100
1000
0010
0100
0001
1000
0010
0100
0001
0010
1000
0010
0100
0001
0010
,
0100
0000
1000
0000
0100
0010
0001
0000
0010
0000
0100
1000
0100
0000
0010
0000
,
0001
0010
0100
0000
1000
0100
1000
0100
0010
0001
0010
0100
1000
0010
0100
0001
,
1000
0010
0100
0100
1000
1000
0100
0010
0001
0010
0100
1000
0100
0010
0100
0001
,
1000
0010
0100
0010
0001
0000
0100
1000
0000
0100
0010
0000
0001
0010
0000
0100
,
1000
0000
0100
0010
0000
0000
0001
0100
0000
1000
0000
0010
0001
0010
0100
1000
,
0010
0100
0001
0010
1000
0010
0100
0001
0010
1000
0010
0000
0001
0010
0100
1000
,
0000
0100
0010
0001
0000
0010
0100
1000
0100
0010
0000
0001
0010
0100
1000
0010
,
0100
0001
0000
0010
0100
1000
0000
0010
0001
0010
0000
0100
1000
0100
0010
0100
,
0001
1000
0000
0000
0101
0000
0100
0000
1010
0000
0100
0000
0101
0000
0010
0000
,
0011
0010
0101
0010
1010
0010
1100
0010
,
0101
1100
0011
0110
1001
0110
0011
1100
,
1111
0111
1110
0011
0010
1100
0110
0001
,
0220
0000
0000
0000
,
0000
0000
0330
1000
0200
0000
0000
0000
,
0320
0000
0000
0000
,
0000
0000
0000
1000
0230
0000
0000
0000
,
0322
0000
0000
0000
,
0000
0000
1033
0100
,
2020
0000
0000
0000
,
0000
0000
0000
0000
3130
0010
0000
0001
,
1000
0100
1000
0010
0100
0001
0010
1000
,
0010
0100
1000
0100
0010
0001
0010
1000
,
0010
0100
0001
1000
0010
0100
0010
0001
,
0010
0000
1000
0100
0010
0000
0001
0010
,
0100
1000
0000
0100
0010
0001
0010
0100
,
1000
0000
0000
0100
0010
0001
0010
0100
,
1000
0100
0010
0100
0010
0001
0010
1000
,
0000
0100
0000
0010
0100
0000
1000
0000
,
2000
3200
0320
0230
0320
0032
0023
0230
,
2300
3200
0320
0032
0203
0000
0000
0000
,
2000
3020
0332
0123
0230
0320
2130
3201
,
0320
0000
0132
0000
0023
0000
0230
0000
2310
0000
0000
0000
0100
0010
0001
0000
,
3200
0320
0230
2300
3200
2300
3020
0032
,
0023
0032
0023
0230
2320
0000
0000
0000
,
0200
0302
0203
0302
3233
0320
0230
0320
,
0230
2300
3200
0320
0032
0000
0100
0000
,
2000
3200
2303
3020
0230
0302
0023
0230
,
0302
2003
3020
0230
0302
0000
0100
0000
,
0020
0230
0323
0230
2300
3200
0320
0230
,
0302
0023
0230
0320
2230
0000
0010
0000
,
0020
0032
3323
0032
0203
2300
3020
0230
,
0302
0000
0000
0023
0000
0000
0230
0000
0000
2300
0000
0000
3002
0000
0000
0000
0000
0000
1000
0100
0010
0100
0000
0000
,
2000
3200
0323
0230
0321
0032
0203
2300
,
3020
0230
0302
0023
0230
0000
0010
0000
,
0000
2322
0000
0000
,
3133
0000
1111
1111
0110
0110
1001
1001
,
0110
0110
0011
0011
1100
1100
0110
0110
,
0011
0011
1100
1100
0110
0011
0011
0000
,
1000
0000
0000
0000
0000
0000
0100
0000
0000
0000
0000
0000
0010
0000
0000
0000
0001
0000
0000
0000
0010
0000
0000
0000
0100
0000
0000
1000
0000
0000
0100
0000
0000
0010
0000
0000
0001
0000
0010
0000
0100
0000
1000
0000
0100
0000
0010
0000
,
2222
0000
0000
0000
,
3333
0000
0000
0000
;
