#TITLE:Tori no Uta;
#SUBTITLE:(Luftinfektion Mix);
#ARTIST:DJ Sharpnel;
#TITLETRANSLIT:;
#SUBTITLETRANSLIT:;
#ARTISTTRANSLIT:;
#CREDIT:T. Moore;
#BANNER:tori no bn.png;
#BACKGROUND:tori no bg.png;
#LYRICSPATH:;
#CDTITLE:;
#MUSIC:Tori no Uta Luftinfektion.ogg;
#OFFSET:0.455;
#SAMPLESTART:71.946;
#SAMPLELENGTH:12.869;
#SELECTABLE:YES;
#DISPLAYBPM:149.000;
#BPMS:0.000=149.187;
#STOPS:;
#BGCHANGES:;
// cache tags:
#FIRSTBEAT:4.000;
#LASTBEAT:520.000;
#SONGFILENAME:Songs/SHARPNELSTREAMZ v2/Tori no Uta Luftinfektion Mix/Tori no Uta.sm;
#HASMUSIC:1;
#HASBANNER:1;
#MUSICLENGTH:210.594;
// end cache tags

//---------------dance-single - 12+ (TYLR)----------------
#NOTES:
     dance-single:
     12+ (TYLR):
     Challenge:
     12:
     1.000,1.000,0.014,0.152,1.000,1482.000,3.000,32.000,60.000,0.000:

0000
0000
0000
0000
,
1001
0000
0000
0000
,
0000
0000
0000
0000
,
0000
0000
0000
0000
,
0000
0000
0000
2000
0000
3010
0100
0001
,
1000
0000
0000
0000
1000
0000
0001
2000
0000
0000
0000
0000
0000
0000
0000
0000
,
3100
0000
0010
0001
0100
0001
0100
0010
,
1000
0000
0000
0100
0000
0000
0020
0000
0000
0000
0000
0000
0030
0000
0001
0000
,
2000
0000
0000
0000
3020
0000
0000
0000
0230
0000
0000
0000
0302
0000
0000
0003
,
1001
0000
0000
0000
1000
0000
0001
2000
0000
0000
0000
0000
0000
0000
0000
0000
,
3100
0000
0010
0001
0100
0001
1000
0100
,
0010
0000
0000
0010
0000
0000
0001
0000
0000
0000
0000
0000
0000
0000
0000
0000
,
0000
0000
0000
0002
0000
0103
0010
1000
,
0001
0000
0000
0000
0001
0000
1000
0002
0000
0000
0000
0000
0000
0000
0000
0000
,
0013
0000
0100
0010
0001
1000
0001
0100
,
002M
0000
M000
0000
0M00
M000
0000
0M00
000M
0000
0M00
M000
0000
0M00
000M
0000
,
M230
0000
000M
0000
00M0
000M
0000
M000
00M0
0000
M300
00M0
M002
0000
0M00
0000
,
M023
0000
0M00
0000
M000
000M
0000
0M00
000M
0000
M000
0M00
0000
M000
000M
0000
,
M230
0000
000M
0000
00M0
000M
0000
M000
00M0
M000
000M
00M0
0000
000M
00M0
0000
,
M000
0000
000M
00M0
000M
0000
M000
00M0
M000
0000
000M
00M0
000M
0000
M000
000M
,
M000
0000
00M0
000M
M000
0000
000M
00M0
0300
0000
0000
0000
0000
0000
0000
0000
,
1001
0000
1000
0100
0000
0010
0001
0010
0100
0000
1000
0001
0000
0010
0001
1000
,
0010
0000
0100
0001
0000
1000
0001
0100
0010
0000
1000
0010
0100
0000
0001
1000
,
0100
0000
0010
0001
0000
1000
0001
0010
0100
0000
1000
0001
0000
0010
0001
1000
,
0010
0000
0100
0010
0000
1000
0001
0100
0010
0000
0100
0001
0000
0010
0100
1000
,
0002
0003
1000
0100
0000
0010
0001
0010
0100
0000
1000
0001
0000
0010
0001
1000
,
0010
0000
0100
0001
0000
1000
0001
0100
0010
0000
1000
0010
0100
0000
0001
0010
,
0100
0000
1000
0100
0000
0010
0001
1000
0100
0000
1000
0001
0000
0010
0001
1000
,
0010
0000
0000
0000
0100
0000
0001
0000
0000
0000
0100
0000
0010
0000
1000
0000
0001
0000
0000
0000
1000
0000
0010
0000
0000
0000
1000
0000
0200
0300
0020
0030
,
0002
0003
1000
0001
0000
0010
0100
1000
0001
0000
1000
0001
0000
0100
0010
1000
,
0001
0000
1000
0010
0000
0100
0001
1000
0100
0000
1000
0001
0100
0000
0010
1000
,
0100
0000
0010
0001
0000
0010
0100
1000
0001
0000
0010
0001
0000
1000
0001
0100
,
0010
0000
0000
0000
1000
0000
0010
0000
0000
0000
0100
0000
0001
0000
1000
0000
0010
0000
0000
0000
0200
0300
0010
0000
0000
0000
1000
0000
0200
0300
0010
0000
,
0002
0003
1000
0100
0000
0010
0001
0010
0100
0000
1000
0001
0000
0010
0001
1000
,
0010
0000
0100
0001
0000
1000
0001
0100
0010
0000
1000
0010
0100
0000
0001
0010
,
0100
0000
1000
0100
0000
0010
0001
1000
0100
0000
1000
0001
0000
0010
0001
1000
,
0010
0000
0000
0000
0100
0000
0001
0000
0000
0000
0100
0000
0010
0000
1000
0000
0001
0000
0000
0000
2000
3000
0010
0000
0000
0000
1000
0000
0200
0300
0020
0030
,
0002
0003
1000
0000
0001
0000
0000
1000
0000
0000
0001
0000
0000
1000
0000
0000
,
0001
0000
0000
1000
0000
0000
0001
0000
0000
1000
0000
0000
0001
0000
0000
1000
,
0000
0000
0001
0000
0000
1000
0000
0000
0001
0000
0000
1000
0000
0000
0001
0000
,
0000
1000
0000
0000
0001
0000
0000
1000
0000
0000
0001
0000
0000
1000
0000
0000
,
0002
0103
0001
0100
0001
0100
0001
0100
0010
1000
0010
1000
0010
1000
0010
1000
,
0001
1000
0001
1000
0001
1000
0001
1000
0001
0010
0001
0010
0001
0010
0001
0010
,
0100
1000
0100
1000
0001
1000
0001
1000
0001
0100
0010
1000
0001
1000
0100
0010
,
0002
0003
0000
0000
0000
0000
0000
0000
0000
0000
1000
0000
0000
0000
1000
0001
,
0100
0001
1000
0100
1000
0001
0010
0001
0100
0001
1000
0100
1000
0001
0010
0001
,
0100
0010
1000
0001
1000
0010
0100
0001
1000
0001
0100
0001
1000
0001
0100
0001
,
0010
0100
1000
0010
1000
0001
0100
0001
0010
0100
1000
0010
1000
0001
0010
0001
,
0100
0010
1000
0100
1000
0001
0010
0001
0100
0010
1000
0100
1000
0010
0100
0001
,
1000
0100
1000
0001
0100
0001
1000
0010
1000
0001
0100
0001
1000
0100
0010
0001
,
0100
0001
1000
0010
1000
0001
0010
0100
1000
0100
0010
0100
1000
0100
0010
0001
,
0100
0010
1000
0100
1000
0001
0010
0001
0100
0010
1000
0100
1000
0001
0100
0001
,
0010
0100
1000
0010
1000
0001
0100
0001
0010
0100
1000
0010
1000
0100
0010
0001
,
0100
0001
1000
0100
1000
0001
0010
0001
0100
0001
1000
0100
1000
0001
0010
0001
,
0100
0010
1000
0001
1000
0010
0100
0001
1000
0001
0100
0001
1000
0001
0100
0001
,
0010
0100
1000
0010
1000
0001
0100
0001
0010
0100
1000
0010
1000
0001
0010
0001
,
0100
0010
1000
0100
1000
0001
0010
0001
0100
0010
1000
0100
1000
0010
0100
0001
,
1000
0100
1000
0001
0100
0001
1000
0010
1000
0001
0100
0001
1000
0100
0010
0001
,
0100
0001
1000
0010
1000
0001
0010
0100
1000
0100
0010
0100
1000
0100
0010
0001
,
0100
0010
1000
0100
1000
0001
0010
0001
0100
0010
1000
0100
1000
0001
0100
0001
,
0010
0100
1000
0010
1000
0001
0100
0001
0010
0100
1000
0010
1000
0100
0010
0001
,
0100
0001
1000
0100
1000
0001
0010
0001
0100
0001
1000
0100
1000
0001
0010
0001
,
0100
0010
1000
0001
1000
0010
0100
0001
1000
0001
0100
0001
1000
0001
0100
0001
,
0010
0100
1000
0010
1000
0001
0100
0001
0010
0100
1000
0010
1000
0001
0010
0001
,
0100
0010
1000
0100
1000
0001
0010
0001
0100
0010
1000
0100
1000
0010
0100
0001
,
1000
0100
1000
0001
0100
0001
1000
0010
1000
0001
0100
0001
1000
0100
0010
0001
,
0100
0001
1000
0010
1000
0001
0010
0100
1000
0100
0010
0100
1000
0100
0010
0001
,
0100
0010
1000
0100
1000
0001
0010
0001
0100
0010
1000
0100
1000
0001
0100
0001
,
0010
0100
1000
0010
1000
0001
0100
0001
0010
0100
1000
0010
1000
0100
0010
0001
,
0100
0001
1000
0100
1000
0001
0010
0001
0100
0001
1000
0100
1000
0001
0010
0001
,
0100
0010
1000
0001
1000
0010
0100
0001
1000
0001
0100
0001
1000
0001
0100
0001
,
0010
0100
1000
0010
1000
0001
0100
0001
0010
0100
1000
0010
1000
0001
0010
0001
,
0100
0010
1000
0100
1000
0001
0010
0001
0100
0010
1000
0100
1000
0010
0100
0001
,
1000
0100
1000
0001
0100
0001
1000
0010
1000
0001
0100
0001
1000
0100
0010
0001
,
0100
0001
1000
0010
1000
0001
0010
0100
1000
0100
0010
0100
1000
0100
0010
0001
,
0100
0010
1000
0100
1000
0001
0010
0001
0100
0010
1000
0100
1000
0001
0100
0001
,
0010
0000
0000
0002
0000
2003
3200
0320
,
0031
0000
1000
0010
0100
0000
0001
1000
0001
0000
0100
0010
1000
0000
0100
1000
,
0001
0000
0100
0010
1000
0000
0100
0010
0001
0000
0010
0100
1000
0000
0001
0100
,
0010
0000
1000
0010
0100
0000
0001
1000
0001
0000
0100
0010
1000
0000
0001
1000
,
0100
0000
1000
0001
0010
0000
0100
1000
0001
0000
1000
0100
1000
0000
0001
0100
,
0010
0000
1000
0010
0100
0000
0001
1000
0001
0000
0100
0010
1000
0000
0001
1000
,
0100
0000
1000
0001
0010
0000
0100
0010
0001
0000
0010
0100
0010
0000
0001
1000
,
0001
0000
1000
0010
1000
0000
0001
0100
0010
0000
0100
0001
1000
0000
0001
1000
,
0100
0000
1000
0100
0010
0000
0001
1000
0010
0000
0100
0001
0010
0000
0001
1000
,
0010
0000
0100
0001
1000
0000
0001
0100
0010
0000
1000
0001
1000
0000
0010
1000
,
0100
0000
1000
0001
0100
0000
0001
1000
0100
0000
0010
0001
1000
0000
0100
0010
,
0001
0000
1000
0100
1000
0000
0001
1000
0010
0000
0100
0001
1000
0000
0010
1000
,
0001
0000
1000
0001
1000
0000
0001
0010
0100
0000
1000
0001
0010
0000
0001
0100
,
0010
0000
1000
0001
0010
0000
0001
1000
0100
0000
1000
0001
0100
0000
0001
1000
,
0100
0000
1000
0010
1000
0000
0001
0100
0010
0000
0100
0001
1000
0000
0100
0010
,
0001
1000
0100
0010
0000
0100
1000
0000
0001
0100
0000
0010
0000
1000
0010
0000
,
0100
0001
0000
1000
0000
0001
0010
0000
0100
0000
1000
0001
0100
0000
0010
0000
,
1000
0001
1000
0100
0000
0010
0001
1000
0000
0010
0100
0000
0001
1000
0000
0100
,
0010
0001
1000
0000
0010
1000
0000
0001
0010
0000
0100
0000
1000
0001
1000
0000
,
0001
0100
0010
1000
0001
1000
0001
0010
0100
1000
0001
1000
0100
0010
0001
1000
,
0010
1000
0001
0010
0001
1000
0100
1000
0001
1000
0010
0100
0001
1000
0100
1000
,
0001
0100
0010
1000
0001
1000
0001
0010
0100
1000
0001
1000
0100
0010
0001
1000
,
0010
0100
0001
1000
0001
0100
0010
1000
0100
0010
0001
1000
0001
0010
0100
1000
,
0001
0100
0010
1000
0001
1000
0001
0010
0100
1000
0001
1000
0100
0010
0001
1000
,
0010
1000
0001
0010
0001
1000
0100
1000
0001
1000
0010
0100
0001
1000
0100
1000
,
0001
0100
0010
1000
0001
1000
0001
0010
0100
1000
0001
1000
0100
0010
0001
1000
,
0010
0100
0001
1000
0001
0100
0010
1000
0100
0010
0001
1000
0001
0010
0100
1000
,
0001
0100
0010
1000
0001
1000
0001
0010
0100
1000
0001
1000
0100
0010
0001
1000
,
0010
1000
0001
0010
0001
1000
0100
1000
0001
1000
0010
0100
0001
1000
0100
1000
,
0001
0100
0010
1000
0001
1000
0001
0010
0100
1000
0001
1000
0100
0010
0001
1000
,
0010
0100
0001
1000
0001
0100
0010
1000
0100
0010
0001
1000
0001
0010
0100
1000
,
0001
0100
0010
1000
0001
1000
0001
0010
0100
1000
0001
1000
0100
0010
0001
1000
,
0010
1000
0001
0010
0001
1000
0100
1000
0001
1000
0010
0100
0001
1000
0100
1000
,
0001
0100
0010
1000
0001
1000
0001
0010
0100
1000
0001
1000
0100
0010
0001
1000
,
0010
0100
0001
1000
0001
0100
0010
1000
0100
0010
0001
1000
0001
0010
0100
1000
,
0010
0000
1000
0000
0100
0010
0001
0000
1000
0001
0010
0000
0100
1000
0001
0000
,
0010
0000
0001
0000
1000
0010
0100
0000
0010
1000
0001
0000
0010
0001
1000
0000
,
0010
0000
0100
0000
0010
1000
0001
0000
0010
0100
1000
0000
0100
0010
0001
0000
,
1000
0000
0100
0000
1000
0001
0100
0000
0010
1000
0001
0000
1000
0010
0100
0000
,
0001
0000
1000
0000
0001
0100
0010
0000
1000
0001
0010
0000
0001
1000
0100
0000
,
1000
0000
0010
0000
0100
0001
1000
0000
0001
0100
0010
0000
1000
0001
0100
0000
,
0010
0000
0100
0000
0001
1000
0100
0000
0010
0001
1000
0000
0001
0010
0100
0000
,
1000
0000
0100
0000
0010
0001
1000
0000
0010
0100
0001
0000
1000
0001
0100
0000
,
0010
0000
1000
0000
0001
0010
0100
0000
1000
0100
0010
0000
0001
1000
0010
0000
,
0100
0000
0001
0000
1000
0001
0010
0000
0100
1000
0001
0000
0010
0100
1000
0000
,
0001
0000
1000
0000
0001
0100
0010
0000
1000
0001
0100
0000
0010
0100
0001
0000
,
1000
0000
0001
0000
0010
0100
1000
0000
0100
0010
0001
0000
1000
0001
0100
0000
,
0010
0000
0100
0000
0001
1000
0100
0000
0010
0001
1000
0000
0001
0010
0100
0000
,
1000
0000
0001
0000
0100
0001
1000
0000
0010
1000
0001
0000
0010
0100
1000
0000
,
0001
0000
1000
0000
0001
0010
0100
1000
0001
0100
0001
0100
0010
1000
0010
1000
,
0001
0010
0100
1000
0001
1000
0100
0010
0001
1000
0010
0100
0001
0100
0010
1000
,
0001
0000
0001
0010
0000
0100
0000
1000
,
0000
0000
0000
0000
,
0000
0000
0000
0000
,
M000
0000
0000
0000
;

//---------------dance-single - 11 (TYLR)----------------
#NOTES:
     dance-single:
     11 (TYLR):
     Hard:
     11:
     0.945,1.000,0.014,0.152,1.000,1358.000,3.000,32.000,60.000,0.000:
0000
0000
0000
0000
,
1001
0000
0000
0000
,
0000
0000
0000
0000
,
0000
0000
0000
0000
,
0000
0000
0000
2000
0000
3010
0100
0001
,
1000
0000
0000
0000
1000
0000
0001
2000
0000
0000
0000
0000
0000
0000
0000
0000
,
3100
0000
0010
0001
0100
0001
0100
0010
,
1000
0000
0000
0100
0000
0000
0020
0000
0000
0000
0000
0000
0030
0000
0001
0000
,
2000
0000
0000
0000
3020
0000
0000
0000
0230
0000
0000
0000
0302
0000
0000
0003
,
1001
0000
0000
0000
1000
0000
0001
2000
0000
0000
0000
0000
0000
0000
0000
0000
,
3100
0000
0010
0001
0100
0001
1000
0100
,
0010
0000
0000
0010
0000
0000
0001
0000
0000
0000
0000
0000
0000
0000
0000
0000
,
0000
0000
0000
0002
0000
0103
0010
1000
,
0001
0000
0000
0000
0001
0000
1000
0002
0000
0000
0000
0000
0000
0000
0000
0000
,
0013
0000
0100
0010
0001
1000
0001
0100
,
002M
0000
M000
0000
0M00
M000
0000
0M00
000M
0000
0M00
M000
0000
0M00
000M
0000
,
M230
0000
000M
0000
00M0
000M
0000
M000
00M0
0000
M300
00M0
M002
0000
0M00
0000
,
M023
0000
0M00
0000
M000
000M
0000
0M00
000M
0000
M000
0M00
0000
M000
000M
0000
,
M230
0000
000M
0000
00M0
000M
0000
M000
00M0
M000
000M
00M0
0000
000M
00M0
0000
,
M000
0000
000M
00M0
000M
0000
M000
00M0
M000
0000
000M
00M0
000M
0000
M000
000M
,
M000
0000
00M0
000M
M000
0000
000M
00M0
0300
0000
0000
0000
0000
0000
0000
0000
,
1001
0000
1000
0100
0000
0010
0001
0010
0100
0000
1000
0001
0000
0010
0001
1000
,
0010
0000
0100
0001
0000
1000
0001
0100
0010
0000
1000
0010
0100
0000
0001
1000
,
0100
0000
0010
0001
0000
1000
0001
0010
0100
0000
1000
0001
0000
0010
0001
1000
,
0010
0000
0100
0010
0000
1000
0001
0100
0010
0000
0100
0001
0000
0010
0100
1000
,
0002
0003
1000
0100
0000
0010
0001
0010
0100
0000
1000
0001
0000
0010
0001
1000
,
0010
0000
0100
0001
0000
1000
0001
0100
0010
0000
1000
0010
0100
0000
0001
0010
,
0100
0000
1000
0100
0000
0010
0001
1000
0100
0000
1000
0001
0000
0010
0001
1000
,
0010
0000
0000
0000
0100
0000
0001
0000
0000
0000
0100
0000
0010
0000
1000
0000
0001
0000
0000
0000
1000
0000
0010
0000
0000
0000
1000
0000
0200
0300
0020
0030
,
0002
0003
1000
0001
0000
0010
0100
1000
0001
0000
1000
0001
0000
0100
0010
1000
,
0001
0000
1000
0010
0000
0100
0001
1000
0100
0000
1000
0001
0100
0000
0010
1000
,
0100
0000
0010
0001
0000
0010
0100
1000
0001
0000
0010
0001
0000
1000
0001
0100
,
0010
0000
0000
0000
1000
0000
0010
0000
0000
0000
0100
0000
0001
0000
1000
0000
0010
0000
0000
0000
0200
0300
0010
0000
0000
0000
1000
0000
0200
0300
0010
0000
,
0002
0003
1000
0100
0000
0010
0001
0010
0100
0000
1000
0001
0000
0010
0001
1000
,
0010
0000
0100
0001
0000
1000
0001
0100
0010
0000
1000
0010
0100
0000
0001
0010
,
0100
0000
1000
0100
0000
0010
0001
1000
0100
0000
1000
0001
0000
0010
0001
1000
,
0010
0000
0000
0000
0100
0000
0001
0000
0000
0000
0100
0000
0010
0000
1000
0000
0001
0000
0000
0000
2000
3000
0010
0000
0000
0000
1000
0000
0200
0300
0020
0030
,
0002
0003
1000
0000
0001
0000
0000
1000
0000
0000
0001
0000
0000
1000
0000
0000
,
0001
0000
0000
1000
0000
0000
0001
0000
0000
1000
0000
0000
0001
0000
0000
1000
,
0000
0000
0001
0000
0000
1000
0000
0000
0001
0000
0000
1000
0000
0000
0001
0000
,
0000
1000
0000
0000
0001
0000
0000
1000
0000
0000
0001
0000
0000
1000
0000
0000
,
0002
0103
0001
0100
0001
0100
0001
0100
0010
1000
0010
1000
0010
1000
0010
1000
,
0001
1000
0001
1000
0001
1000
0001
1000
0001
0010
0001
0010
0001
0010
0001
0010
,
0100
1000
0100
1000
0001
1000
0001
1000
0001
0100
0010
1000
0001
1000
0100
0010
,
0002
0003
0000
0000
0000
0000
0000
0000
0000
0000
1000
0000
0000
0000
1000
1000
,
0001
0000
1000
0100
0000
0010
0001
0010
0100
0000
1000
0001
0000
0010
0001
1000
,
0010
0000
0100
0001
0000
1000
0001
0100
0010
0000
1000
0010
0100
0000
0001
1000
,
0100
0000
0010
0001
0000
1000
0001
0010
0100
0000
1000
0001
0000
0010
0001
1000
,
0010
0000
0100
0010
0000
1000
0001
0100
0010
0000
0100
0001
0000
0010
0100
1000
,
0001
0000
1000
0100
0000
0010
0001
0010
0100
0000
1000
0001
0000
0010
0001
1000
,
0010
0000
0100
0001
0000
1000
0001
0100
0010
0000
1000
0010
0100
0000
0001
0010
,
0100
0000
1000
0100
0000
0010
0001
1000
0100
0000
1000
0001
0000
0010
0001
1000
,
0010
0000
0100
0001
0000
0100
0010
1000
0001
0000
1000
0010
0000
1000
0100
0010
,
0001
0000
1000
0001
0000
0010
0100
1000
0001
0000
1000
0001
0000
0100
0010
1000
,
0001
0000
1000
0010
0000
0100
0001
1000
0100
0000
1000
0001
0100
0000
0010
1000
,
0100
0000
0010
0001
0000
0010
0100
1000
0001
0000
0010
0001
0000
1000
0001
0100
,
0010
0000
1000
0010
0000
0100
0001
1000
0010
0000
0100
0010
0000
1000
0100
0010
,
0001
0000
1000
0100
0000
0010
0001
0010
0100
0000
1000
0001
0000
0010
0001
1000
,
0010
0000
0100
0001
0000
1000
0001
0100
0010
0000
1000
0010
0100
0000
0001
0010
,
0100
0000
1000
0100
0000
0010
0001
1000
0100
0000
1000
0001
0000
0010
0001
1000
,
0010
0000
0100
0001
0000
0100
0010
1000
0001
0000
1000
0010
0000
1000
0100
0010
,
0001
0000
1000
0100
0000
0010
0001
0010
0100
0000
1000
0001
0000
0010
0001
1000
,
0010
0000
0100
0001
0000
1000
0001
0100
0010
0000
1000
0010
0100
0000
0001
1000
,
0100
0000
0010
0001
0000
1000
0001
0010
0100
0000
1000
0001
0000
0010
0001
1000
,
0010
0000
0100
0010
0000
1000
0001
0100
0010
0000
0100
0001
0000
0010
0100
1000
,
0001
0000
1000
0100
0000
0010
0001
0010
0100
0000
1000
0001
0000
0010
0001
1000
,
0010
0000
0100
0001
0000
1000
0001
0100
0010
0000
1000
0010
0100
0000
0001
0010
,
0100
0000
1000
0100
0000
0010
0001
1000
0100
0000
1000
0001
0000
0010
0001
1000
,
0010
0000
0100
0001
0000
0100
0010
1000
0001
0000
1000
0010
0000
1000
0100
0010
,
0001
0000
1000
0001
0000
0010
0100
1000
0001
0000
1000
0001
0000
0100
0010
1000
,
0001
0000
1000
0010
0000
0100
0001
1000
0100
0000
1000
0001
0100
0000
0010
1000
,
0100
0000
0010
0001
0000
0010
0100
1000
0001
0000
0010
0001
0000
1000
0001
0100
,
0010
0000
1000
0010
0000
0100
0001
1000
0010
0000
0100
0010
0000
1000
0100
0010
,
0001
0000
1000
0100
0000
0010
0001
0010
0100
0000
1000
0001
0000
0010
0001
1000
,
0010
0000
0100
0001
0000
1000
0001
0100
0010
0000
1000
0010
0100
0000
0001
0010
,
0100
0000
1000
0100
0000
0010
0001
1000
0100
0000
1000
0001
0000
0010
0001
1000
,
0010
0000
0000
2000
0000
3002
0023
0230
,
1300
0000
0001
0100
0010
0000
1000
0001
1000
0000
0010
0100
0001
0000
0010
0001
,
1000
0000
0010
0100
0001
0000
0010
0100
1000
0000
0100
0010
0001
0000
1000
0010
,
0100
0000
0001
0100
0010
0000
1000
0001
1000
0000
0010
0100
0001
0000
1000
0001
,
0010
0000
0001
1000
0100
0000
0010
0001
1000
0000
0001
0010
0001
0000
1000
0010
,
0100
0000
0001
0100
0010
0000
1000
0001
1000
0000
0010
0100
0001
0000
1000
0001
,
0010
0000
0001
1000
0100
0000
0010
0100
1000
0000
0100
0010
0100
0000
1000
0001
,
1000
0000
0001
0100
0001
0000
1000
0010
0100
0000
0010
1000
0001
0000
1000
0001
,
0010
0000
0001
0010
0100
0000
1000
0001
0100
0000
0010
1000
0100
0000
1000
0001
,
0100
0000
0010
1000
0001
0000
1000
0010
0100
0000
0001
1000
0001
0000
0100
0001
,
0010
0000
0001
1000
0010
0000
1000
0001
0010
0000
0100
1000
0001
0000
0010
0100
,
1000
0000
0001
0010
0001
0000
1000
0001
0100
0000
0010
1000
0001
0000
0100
0001
,
1000
0000
0001
1000
0001
0000
1000
0100
0010
0000
0001
1000
0100
0000
1000
0010
,
0100
0000
0001
1000
0100
0000
1000
0001
0010
0000
0001
1000
0010
0000
1000
0001
,
0010
0000
0001
0100
0001
0000
1000
0010
0100
0000
0010
1000
0001
0000
0010
0100
,
1000
0001
0010
0100
0000
0010
0001
0000
1000
0010
0000
0100
0000
0001
0100
0000
,
0010
1000
0000
0001
0000
1000
0100
0000
0010
0000
0001
1000
0010
0000
0100
0000
,
0001
1000
0001
0010
0000
0100
1000
0001
0000
0100
0010
0000
1000
0001
0000
0010
,
0100
1000
0001
0000
0100
0001
0000
1000
0100
0000
0010
0000
0001
1000
0001
0000
,
1000
0010
0100
0001
1000
0001
1000
0100
0010
0001
1000
0001
0010
0100
1000
0001
,
0100
0001
1000
0100
1000
0001
0010
0001
1000
0001
0100
0010
1000
0001
0010
0001
,
1000
0010
0100
0001
1000
0001
1000
0100
0010
0001
1000
0001
0010
0100
1000
0001
,
0100
0010
1000
0001
1000
0010
0100
0001
0010
0100
1000
0001
1000
0100
0010
0001
,
1000
0010
0100
0001
1000
0001
1000
0100
0010
0001
1000
0001
0010
0100
1000
0001
,
0100
0001
1000
0100
1000
0001
0010
0001
1000
0001
0100
0010
1000
0001
0010
0001
,
1000
0010
0100
0001
1000
0001
1000
0100
0010
0001
1000
0001
0010
0100
1000
0001
,
0100
0010
1000
0001
1000
0010
0100
0001
0010
0100
1000
0001
1000
0100
0010
0001
,
1000
0010
0100
0001
1000
0001
1000
0100
0010
0001
1000
0001
0010
0100
1000
0001
,
0100
0001
1000
0100
1000
0001
0010
0001
1000
0001
0100
0010
1000
0001
0010
0001
,
1000
0010
0100
0001
1000
0001
1000
0100
0010
0001
1000
0001
0010
0100
1000
0001
,
0100
0010
1000
0001
1000
0010
0100
0001
0010
0100
1000
0001
1000
0100
0010
0001
,
1000
0010
0100
0001
1000
0001
1000
0100
0010
0001
1000
0001
0010
0100
1000
0001
,
0100
0001
1000
0100
1000
0001
0010
0001
1000
0001
0100
0010
1000
0001
0010
0001
,
1000
0010
0100
0001
1000
0001
1000
0100
0010
0001
1000
0001
0010
0100
1000
0001
,
0100
0010
1000
0001
1000
0010
0100
0001
0010
0100
1000
0001
1000
0100
0010
0001
,
0100
0000
0001
0000
0010
0100
1000
0000
0001
1000
0100
0000
0010
0001
1000
0000
,
0100
0000
1000
0000
0001
0100
0010
0000
0100
0001
1000
0000
0100
1000
0001
0000
,
0100
0000
0010
0000
0100
0001
1000
0000
0100
0010
0001
0000
0010
0100
1000
0000
,
0001
0000
0010
0000
0001
1000
0010
0000
0100
0001
1000
0000
0001
0100
0010
0000
,
1000
0000
0001
0000
1000
0010
0100
0000
0001
1000
0100
0000
1000
0001
0010
0000
,
0001
0000
0100
0000
0010
1000
0001
0000
1000
0010
0100
0000
0001
1000
0010
0000
,
0100
0000
0010
0000
1000
0001
0010
0000
0100
1000
0001
0000
1000
0100
0010
0000
,
0001
0000
0010
0000
0100
1000
0001
0000
0100
0010
1000
0000
0001
1000
0010
0000
,
0100
0000
0001
0000
1000
0100
0010
0000
0001
0010
0100
0000
1000
0001
0100
0000
,
0010
0000
1000
0000
0001
1000
0100
0000
0010
0001
1000
0000
0100
0010
0001
0000
,
1000
0000
0001
0000
1000
0010
0100
0000
0001
1000
0010
0000
0100
0010
1000
0000
,
0001
0000
1000
0000
0100
0010
0001
0000
0010
0100
1000
0000
0001
1000
0010
0000
,
0100
0000
0010
0000
1000
0001
0010
0000
0100
1000
0001
0000
1000
0100
0010
0000
,
0001
0000
1000
0000
0010
1000
0001
0000
0100
0001
1000
0000
0100
0010
0001
0000
,
1000
0000
0001
0000
1000
0100
0010
0001
1000
0010
1000
0010
0100
0001
0100
0001
,
1000
0100
0010
0001
1000
0001
0010
0100
1000
0001
0100
0010
1000
0010
0100
0001
,
1000
0000
1000
0100
0000
0010
0000
0001
,
0000
0000
0000
0000
,
0000
0000
0000
0000
,
000M
0000
0000
0000
;
