#TITLE:WE WRITE AT TWO FIVE FIVE;
#SUBTITLE:(bpm);
#ARTIST:STereochan;
#TITLETRANSLIT:;
#SUBTITLETRANSLIT:;
#ARTISTTRANSLIT:;
#CREDIT:Mad Matt;
#BANNER:../Tachyon Spectrum-bn.png;
#BACKGROUND:../Tachyon Spectrum-bg.png;
#LYRICSPATH:;
#CDTITLE:;
#MUSIC:WE WRITE AT TWO FIVE FIVE.ogg;
#OFFSET:-0.147;
#SAMPLESTART:0.900;
#SAMPLELENGTH:21.000;
#SELECTABLE:YES;
#DISPLAYBPM:255.160;
#BPMS:0.000=255.160;
#STOPS:;
#BGCHANGES:;
// cache tags:
#FIRSTBEAT:4.000;
#LASTBEAT:564.000;
#SONGFILENAME:Songs/Tachyon Spectrum/WE WRITE AT TWO FIVE FIVE (bpm) - [Mad Matt]/WE WRITE AT TWO FIVE FIVE.sm;
#HASMUSIC:1;
#HASBANNER:1;
#MUSICLENGTH:132.911;
// end cache tags

//---------------dance-single - Tachyon Gamma----------------
#NOTES:
     dance-single:
     Tachyon Gamma:
     Easy:
     18:
     1.000,1.000,0.090,0.181,1.000,1164.000,12.000,24.000,6.000,0.000:














0000
0000
0000
0000
,
1000
0100
0010
0001
1000
0001
1000
0100
0010
0001
1000
0001
1000
0100
0010
0001
,
1000
0001
0010
0100
1000
0001
1000
0001
0010
0100
1000
0001
1000
0001
0010
0100
,
1000
0001
0100
0010
1000
0001
1000
0001
0100
0010
1000
0001
1000
0001
0100
0010
,
1000
0010
0100
0001
1000
0001
1000
0010
0100
0001
1000
0001
1000
0010
0100
0001
,
1000
0100
1000
0001
0010
0001
1000
0100
0010
0001
1000
0100
1000
0001
0010
0001
,
1000
0100
0010
0001
0010
0100
1000
0001
0010
0001
1000
0100
1000
0001
0010
0100
,
1000
0001
0100
0001
1000
0010
1000
0001
0100
0010
1000
0010
0100
0001
1000
0010
,
0100
0001
1000
0010
1000
0001
0100
0001
1000
0010
0100
0001
0100
0010
1000
0001
,
1000
0100
0010
0001
0100
0010
1000
0001
,
1000
0100
1000
0100
1000
0010
1000
0001
,
1000
0010
0100
0001
0010
0100
1000
0001
,
1000
0010
1000
0010
1000
0001
1000
0100
,
0010
0001
0100
0010
1000
0100
0010
0001
,
0100
0010
0100
0010
0100
0001
0100
0010
,
1000
0100
0010
0001
0100
0010
1000
0100
,
0010
0001
0010
0001
0010
0100
0010
0001
,
1000
0100
0010
0001
1000
0100
1000
0001
0010
0001
1000
0100
0010
0001
1000
0001
,
1000
0100
0010
0100
1000
0001
0010
0100
0010
0001
1000
0100
0010
0001
1000
0001
,
1000
0010
0100
0001
1000
0010
1000
0001
0100
0001
1000
0010
0100
0001
1000
0001
,
1000
0010
0100
0010
1000
0001
0100
0010
0100
0001
1000
0010
0100
0001
1000
0001
,
1000
0100
0010
0100
1000
0001
0010
0100
0010
0001
1000
0100
0010
0100
1000
0001
,
1000
0010
0100
0010
1000
0001
0100
0010
0100
0001
1000
0010
0100
0010
1000
0001
,
1000
0010
0100
0010
1000
0010
0100
0010
,
1000
0100
0010
0001
0010
0100
1000
0001
1000
0001
0010
0100
1000
0001
0100
0001
,
4000
3040
0430
0304
,
4003
3400
0340
0034
,
1003
0010
0100
0001
1000
0010
0100
0001
1000
0001
0100
0010
1000
0010
0100
0001
,
1000
0100
0010
0001
1000
0100
0010
0001
0010
0100
1000
0001
0010
0100
0010
0001
,
4000
3400
0340
0034
,
0403
0000
0304
0000
,
1003
0100
0010
0001
0100
0010
1000
0001
,
0010
0100
0010
0100
1000
0100
0010
0001
,
0040
0430
4300
3004
,
0403
0340
4030
3004
,
1003
0100
0010
0001
1000
0100
1000
0001
0010
0100
1000
0001
0010
0001
1000
0010
,
0100
0001
1000
0010
0100
0001
0100
0010
1000
0001
0100
0010
1000
0010
0100
0001
,
4000
3040
0430
0304
,
0043
0000
0034
0000
,
1003
0100
0010
0001
0010
0100
1000
0001
,
0100
0010
0100
0010
0100
0001
0100
0010
,
2000
0000
0000
0000
0000
3001
0001
0001
,
0020
0000
0000
0000
0000
0130
0100
0100
,
2000
0000
0000
0000
0000
3001
0001
0001
,
0200
0000
0000
0000
0000
0310
0010
0010
,
2000
0000
0000
0000
0000
3010
0010
0010
,
0200
0000
0000
0000
0000
0301
0001
0001
,
2000
0000
0000
0000
0000
3100
0100
0100
,
0020
0000
0000
0000
0000
0130
0100
0100
,
1000
0010
1000
0010
1000
0010
1000
0010
,
1000
0010
1000
0010
1000
0010
1000
0010
,
1000
0001
1000
0001
1000
0001
1000
0001
,
0010
0001
0010
0001
0010
0001
0010
0001
,
0010
0100
0010
0100
0010
0100
0010
0100
,
1000
0100
1000
0100
1000
0100
1000
0100
,
1000
0010
1000
0010
1000
0010
1000
0010
,
0100
0001
0100
0001
0100
0001
0100
0001
,
1000
0001
1000
0001
1000
0001
1000
0001
,
1000
0010
1000
0010
1000
0010
1000
0010
,
1000
0100
1000
0100
1000
0100
1000
0100
,
0010
0100
0010
0100
0010
0100
0010
0100
,
0010
0001
0010
0001
0010
0001
0010
0001
,
1000
0001
1000
0001
1000
0001
1000
0001
,
1000
0010
1000
0010
1000
0010
1000
0010
,
0100
0010
0100
0010
0100
0010
0100
0010
,
0100
0001
0100
0001
0100
0001
0100
0001
,
1000
0010
1000
0010
1000
0010
1000
0010
,
0100
0001
0100
0001
0100
0001
0100
0001
,
1000
0100
1000
0100
1000
0100
1000
0100
,
0010
0001
0010
0001
0010
0001
0010
0001
,
1000
0001
1000
0001
1000
0001
1000
0001
,
0100
0001
0100
0001
0100
0001
0100
0001
,
0100
0010
0100
0010
0100
0010
0100
0010
,
2000
0000
0000
3001
,
0002
0000
0003
0100
,
0200
0000
0000
0000
0000
0310
0010
0010
,
2000
0000
0000
0000
0000
3001
0001
0001
,
2000
0000
0000
0000
0000
3100
0100
0100
,
0020
0000
0000
0000
0000
0031
0001
0001
,
2000
0000
0000
0000
0000
3010
0010
0010
,
0200
0000
0000
0000
0000
0301
0001
0001
,
2000
0000
0000
0000
0000
3100
0100
0100
,
0020
0000
0000
0000
0000
0031
0001
0001
,
2000
0000
0000
0000
0000
3010
0010
0010
,
0200
0000
0000
0000
0000
0301
0001
0001
,
2000
0000
0000
0000
0000
3001
0001
0001
,
0200
0000
0000
0000
0000
0310
0010
0010
,
2000
0000
0000
0000
0000
3001
0001
0001
,
0020
0000
0000
0000
0000
0130
0100
0100
,
1000
0001
0010
0100
1000
0001
0100
0001
,
1000
0100
1000
0100
0010
0001
0010
0001
,
1000
0010
0100
0001
1000
0100
0010
0001
,
1000
0010
1000
0010
0100
0001
0100
0001
,
1000
0100
0010
0001
0010
0100
1000
0001
,
0100
0010
0100
0010
1000
0001
1000
0001
,
0010
0100
1000
0001
0100
0001
1000
0100
,
0010
0001
0010
0001
1000
0100
1000
0100
,
0040
0000
0000
0000
0000
0031
0001
0001
,
4000
0000
0000
0000
0000
3010
0010
0010
,
0400
0000
0000
0000
0000
0301
0001
0001
,
4000
0000
0000
0000
0000
3100
0100
0100
,
0040
0000
0000
0000
0000
0031
0001
0001
,
0400
0000
0000
0000
0000
0310
0010
0010
,
4000
0000
0000
0000
0000
3010
0010
0010
,
0400
0000
0000
0000
0000
0301
0001
0001
,
1000
0100
0010
0001
1000
0100
1000
0001
0010
0001
1000
0100
0010
0001
1000
0001
,
1000
0010
0100
0001
1000
0010
1000
0001
0100
0001
1000
0010
0100
0001
1000
0001
,
1000
0100
0010
0001
1000
0100
0010
0001
0010
0100
1000
0001
0010
0100
1000
0001
,
1000
0010
0100
0001
1000
0010
0100
0001
0100
0010
1000
0001
0100
0010
1000
0001
,
1000
0100
0010
0001
1000
0100
1000
0001
0010
0001
1000
0100
0010
0001
1000
0001
,
1000
0010
0100
0001
1000
0010
0100
0001
0100
0010
1000
0001
0100
0010
1000
0001
,
1000
0010
1000
0010
0100
0001
0100
0001
,
1000
0100
0010
0001
0010
0100
1000
0100
0010
0001
0010
0100
1000
0100
0010
0001
,
1000
0001
0100
0010
1000
0001
1000
0001
0100
0010
1000
0001
1000
0001
0100
0010
,
1000
0001
1000
0001
0010
0100
1000
0001
1000
0001
0010
0100
1000
0001
1000
0001
,
0100
0010
1000
0010
0100
0001
1000
0010
1000
0001
0100
0001
1000
0010
0100
0001
,
1000
0001
1000
0100
0010
0001
1000
0001
0010
0100
1000
0001
1000
0100
0010
0001
,
1000
0001
1000
0010
0100
0001
0100
0010
1000
0001
0100
0010
1000
0010
0100
0001
,
1000
0001
0010
0100
1000
0100
0010
0001
1000
0001
1000
0100
0010
0001
0010
0100
,
1000
0010
1000
0010
1000
0001
0100
0001
,
1000
0010
0100
0001
0100
0010
1000
0001
1000
0010
0100
0001
0100
0010
1000
0001
,
1000
0001
0010
0001
0010
0001
0010
0001
,
1000
0001
1000
0001
1000
0001
1000
0001
,
1000
0100
0010
0001
1000
0001
1000
0100
0010
0001
1000
0001
1000
0100
0010
0001
,
1000
0010
0100
0001
0100
0010
1000
0001
1000
0001
0100
0010
1000
0010
0100
0001
,
1000
0001
0100
0001
0100
0001
0100
0001
,
0100
0010
0100
0010
0100
0010
0100
0010
,
0100
0001
1000
0100
0010
0001
1000
0010
,
1000
0001
1000
0001
0010
0100
0010
0100
,
1000
0001
0010
0100
1000
0001
0100
0001
,
1000
0100
1000
0010
1000
0001
0100
0001
,
1000
0100
0010
0001
0010
0100
1000
0001
,
0100
0010
0100
0010
1000
0001
1000
0001
,
0010
0100
1000
0001
0100
0001
1000
0010
,
0100
0001
0100
0001
1000
0100
1000
0100
,
0010
0001
1000
0010
1000
0001
0010
0100
,
1000
0001
1000
0001
0100
0010
0100
0010
,
4000
0M00
00M0
000M
,
0000
0000
00M0
0000
0000
0000
0000
0000
0M00
0000
0000
0000
,
0000
0000
0000
0000
0000
0000
0000
0000
0M00
0000
0000
0000
,
0000
0000
0000
0000
,
3000
0000
0000
0000
;

//---------------dance-single - Mad Matt----------------
#NOTES:
     dance-single:
     Mad Matt:
     Challenge:
     18:
     1.000,1.000,0.090,0.181,1.000,1164.000,12.000,24.000,6.000,0.000:

0000
0000
0000
0000
,
1000
0100
0010
0001
0100
0010
1000
0001
1000
0100
0010
0001
0010
0001
0100
0001
,
1000
0010
0100
0001
0010
0100
1000
0001
1000
0010
0100
0001
0100
0001
0010
0100
,
1000
0010
0100
0001
0010
0100
1000
0001
1000
0010
0100
0001
0100
0001
0010
0001
,
1000
0100
0010
0001
0100
0010
1000
0001
1000
0100
0010
0001
0010
0001
0100
0010
,
1000
0100
1000
0010
0100
0001
1000
0001
0010
0100
0010
0100
1000
0010
0100
0001
,
0100
0010
1000
0100
0010
0001
1000
0001
0100
0010
0100
0010
1000
0100
0010
0001
,
1000
0010
0100
0010
1000
0001
0010
0100
0010
0001
1000
0010
0100
0010
1000
0100
,
0010
0100
1000
0001
0100
0010
0100
0001
1000
0100
0010
0100
1000
0001
0100
0010
,
1000
0100
0010
0001
0100
0010
1000
0001
,
1000
0100
1000
0100
1000
0010
1000
0001
,
1000
0010
0100
0001
0010
0100
1000
0001
,
1000
0010
1000
0010
1000
0001
1000
0100
,
0010
0001
0100
0010
1000
0100
0010
0001
,
0100
0010
0100
0010
0100
0001
0100
0010
,
1000
0100
0010
0001
0100
0010
1000
0100
,
0010
0001
0010
0001
0010
0100
0010
0001
,
1000
0100
0010
0001
0100
0010
1000
0001
1000
0100
0010
0001
0010
0001
0100
0001
,
0010
0100
1000
0010
0100
0001
1000
0001
0010
0100
1000
0100
1000
0010
1000
0001
,
1000
0010
0100
0001
0010
0100
1000
0001
1000
0010
0100
0001
0100
0001
1000
0001
,
0100
0010
1000
0100
0010
0001
1000
0001
0100
0010
1000
0010
1000
0001
1000
0001
,
1000
0100
0010
0100
1000
0010
1000
0001
1000
0100
0010
0100
1000
0010
1000
0001
,
0100
0010
0100
0001
0010
0001
1000
0001
0100
0010
0100
0001
0010
0001
1000
0100
,
1000
0010
0100
0010
1000
0010
0100
0010
,
1000
0001
0100
0010
0100
0001
1000
0001
0010
0100
0010
0001
1000
0001
0100
0010
,
4000
3040
0430
0304
,
4003
3400
0340
0034
,
1003
0100
0010
0001
0100
0010
1000
0001
1000
0100
0010
0001
0010
0001
0100
0001
,
1000
0010
0100
0001
0010
0100
1000
0001
1000
0010
0100
0001
0100
0001
0010
0100
,
4000
3400
0340
0034
,
0403
0000
0304
0000
,
1003
0100
0010
0001
0100
0010
1000
0001
,
0010
0100
0010
0100
1000
0100
0010
0001
,
0040
0430
4300
3004
,
0403
0340
4030
3004
,
1003
0010
0100
0001
0010
0100
1000
0001
1000
0010
0100
0001
0100
0001
0010
0001
,
1000
0100
0010
0001
0100
0010
1000
0001
1000
0100
0010
0001
0010
0001
0100
0010
,
4000
3040
0430
0304
,
0043
0000
0034
0000
,
1003
0100
0010
0001
0010
0100
1000
0001
,
0100
0010
0100
0010
0100
0001
0100
0010
,
2000
0000
0000
0000
0000
3001
0001
0001
,
0020
0000
0000
0000
0000
0130
0100
0100
,
2000
0000
0000
0000
0000
3001
0001
0001
,
0200
0000
0000
0000
0000
0310
0010
0010
,
2000
0000
0000
0000
0000
3010
0010
0010
,
0200
0000
0000
0000
0000
0301
0001
0001
,
2000
0000
0000
0000
0000
3100
0100
0100
,
0020
0000
0000
0000
0000
0130
0100
0100
,
1000
0010
1000
0010
1000
0010
1000
0010
,
1000
0010
1000
0010
1000
0010
1000
0010
,
1000
0001
1000
0001
1000
0001
1000
0001
,
0010
0001
0010
0001
0010
0001
0010
0001
,
0010
0100
0010
0100
0010
0100
0010
0100
,
1000
0100
1000
0100
1000
0100
1000
0100
,
1000
0010
1000
0010
1000
0010
1000
0010
,
0100
0001
0100
0001
0100
0001
0100
0001
,
1000
0001
1000
0001
1000
0001
1000
0001
,
1000
0010
1000
0010
1000
0010
1000
0010
,
1000
0100
1000
0100
1000
0100
1000
0100
,
0010
0100
0010
0100
0010
0100
0010
0100
,
0010
0001
0010
0001
0010
0001
0010
0001
,
1000
0001
1000
0001
1000
0001
1000
0001
,
1000
0010
1000
0010
1000
0010
1000
0010
,
0100
0010
0100
0010
0100
0010
0100
0010
,
0100
0001
0100
0001
0100
0001
0100
0001
,
1000
0010
1000
0010
1000
0010
1000
0010
,
0100
0001
0100
0001
0100
0001
0100
0001
,
1000
0100
1000
0100
1000
0100
1000
0100
,
0010
0001
0010
0001
0010
0001
0010
0001
,
1000
0001
1000
0001
1000
0001
1000
0001
,
0100
0001
0100
0001
0100
0001
0100
0001
,
0100
0010
0100
0010
0100
0010
0100
0010
,
2000
0000
0000
3001
,
0002
0000
0003
0100
,
0200
0000
0000
0000
0000
0310
0010
0010
,
2000
0000
0000
0000
0000
3001
0001
0001
,
2000
0000
0000
0000
0000
3100
0100
0100
,
0020
0000
0000
0000
0000
0031
0001
0001
,
2000
0000
0000
0000
0000
3010
0010
0010
,
0200
0000
0000
0000
0000
0301
0001
0001
,
2000
0000
0000
0000
0000
3100
0100
0100
,
0020
0000
0000
0000
0000
0031
0001
0001
,
2000
0000
0000
0000
0000
3010
0010
0010
,
0200
0000
0000
0000
0000
0301
0001
0001
,
2000
0000
0000
0000
0000
3001
0001
0001
,
0200
0000
0000
0000
0000
0310
0010
0010
,
2000
0000
0000
0000
0000
3001
0001
0001
,
0020
0000
0000
0000
0000
0130
0100
0100
,
1000
0001
0010
0100
1000
0001
0100
0001
,
1000
0100
1000
0100
0010
0001
0010
0001
,
1000
0010
0100
0001
1000
0100
0010
0001
,
1000
0010
1000
0010
0100
0001
0100
0001
,
1000
0100
0010
0001
0010
0100
1000
0001
,
0100
0010
0100
0010
1000
0001
1000
0001
,
0010
0100
1000
0001
0100
0001
1000
0100
,
0010
0001
0010
0001
1000
0100
1000
0100
,
0040
0000
0000
0000
0000
0031
0001
0001
,
4000
0000
0000
0000
0000
3010
0010
0010
,
0400
0000
0000
0000
0000
0301
0001
0001
,
4000
0000
0000
0000
0000
3100
0100
0100
,
0040
0000
0000
0000
0000
0031
0001
0001
,
0400
0000
0000
0000
0000
0310
0010
0010
,
4000
0000
0000
0000
0000
3010
0010
0010
,
0400
0000
0000
0000
0000
0301
0001
0001
,
1000
0100
0010
0001
0100
0010
1000
0001
1000
0100
0010
0001
0010
0001
0100
0001
,
0010
0100
1000
0010
0100
0001
1000
0001
0010
0100
1000
0100
1000
0010
1000
0001
,
1000
0010
0100
0001
0010
0100
1000
0001
1000
0010
0100
0001
0100
0001
1000
0001
,
0100
0010
1000
0100
0010
0001
1000
0001
0100
0010
1000
0010
1000
0001
1000
0001
,
1000
0100
0010
0100
1000
0010
1000
0001
1000
0100
0010
0100
1000
0010
1000
0001
,
0100
0010
0100
0001
0010
0001
1000
0001
0100
0010
0100
0001
0010
0001
1000
0100
,
1000
0010
0100
0010
1000
0010
0100
0010
,
1000
0001
0100
0010
0100
0001
1000
0001
0010
0100
0010
0001
1000
0001
0100
0010
,
1000
0010
0100
0001
0010
0100
1000
0001
1000
0010
0100
0001
0100
0001
0010
0001
,
0100
0010
1000
0100
0010
0001
1000
0001
0100
0010
1000
0010
1000
0100
1000
0001
,
1000
0100
0010
0001
0100
0010
1000
0001
1000
0100
0010
0001
0010
0001
1000
0001
,
0010
0100
1000
0010
0100
0001
1000
0001
0010
0100
1000
0100
1000
0001
1000
0001
,
1000
0010
0100
0010
1000
0100
1000
0001
1000
0010
0100
0010
1000
0100
1000
0001
,
0010
0100
0010
0001
0100
0001
1000
0001
0010
0100
0010
0001
0100
0001
1000
0010
,
1000
0100
0010
0100
1000
0100
0010
0100
,
1000
0001
0010
0100
0010
0001
1000
0001
0100
0010
0100
0001
1000
0001
0010
0100
,
1000
0001
0010
0001
0010
0001
0010
0001
,
1000
0001
1000
0001
1000
0001
1000
0001
,
1000
0100
0010
0001
0100
0010
1000
0001
1000
0100
0010
0001
0010
0001
0100
0001
,
1000
0010
0100
0001
0010
0100
1000
0001
1000
0010
0100
0001
0100
0001
0010
0100
,
1000
0001
0100
0001
0100
0001
0100
0001
,
0100
0010
0100
0010
0100
0010
0100
0010
,
0100
0001
1000
0100
0010
0001
1000
0010
,
1000
0001
1000
0001
0010
0100
0010
0100
,
1000
0001
0010
0100
1000
0001
0100
0001
,
1000
0100
1000
0010
1000
0001
0100
0001
,
1000
0100
0010
0001
0010
0100
1000
0001
,
0100
0010
0100
0010
1000
0001
1000
0001
,
0010
0100
1000
0001
0100
0001
1000
0010
,
0100
0001
0100
0001
1000
0100
1000
0100
,
0010
0001
1000
0010
1000
0001
0010
0100
,
1000
0001
1000
0001
0100
0010
0100
0010
,
4000
0M00
00M0
000M
,
0000
0000
00M0
0000
0000
0000
0000
0000
0M00
0000
0000
0000
,
0000
0000
0000
0000
0000
0000
0000
0000
0M00
0000
0000
0000
,
0000
0000
0000
0000
,
3000
0000
0000
0000
;

//---------------dance-single - Mad Matt----------------
#NOTES:
     dance-single:
     Mad Matt:
     Medium:
     18:
     1.000,1.000,0.090,0.181,1.000,1164.000,12.000,24.000,6.000,0.000:


0000
0000
0000
0000
,
1000
0100
1000
0001
0100
0001
0100
0010
1000
0001
1000
0100
1000
0001
0100
0010
,
1000
0001
0100
0001
1000
0100
1000
0100
0010
0001
1000
0001
0100
0001
1000
0100
,
0010
0100
1000
0001
0100
0001
0100
0010
1000
0001
1000
0100
1000
0001
0100
0010
,
1000
0001
0100
0001
1000
0100
1000
0100
0010
0001
1000
0001
0100
0001
1000
0100
,
0010
0100
1000
0001
1000
0010
1000
0001
0100
0010
0100
0001
1000
0010
1000
0001
,
1000
0100
0010
0001
1000
0001
0100
0001
1000
0010
0100
0010
1000
0001
1000
0100
,
0010
0100
1000
0001
0010
0100
0010
0001
1000
0001
0100
0010
0100
0001
1000
0100
,
1000
0001
1000
0010
0100
0010
1000
0001
1000
0100
0010
0100
1000
0001
0100
0001
,
1000
0100
0010
0001
0100
0010
1000
0001
,
1000
0100
1000
0100
1000
0010
1000
0001
,
1000
0010
0100
0001
0010
0100
1000
0001
,
1000
0010
1000
0010
1000
0001
1000
0100
,
0010
0001
0100
0010
1000
0100
0010
0001
,
0100
0010
0100
0010
0100
0001
0100
0010
,
1000
0100
0010
0001
0100
0010
1000
0100
,
0010
0001
0010
0001
0010
0100
0010
0001
,
1000
0100
1000
0001
0100
0001
0100
0010
1000
0001
1000
0100
1000
0001
0100
0010
,
1000
0001
1000
0100
0010
0100
1000
0001
1000
0010
0100
0010
1000
0001
1000
0100
,
1000
0001
0100
0001
1000
0100
1000
0100
0010
0001
1000
0001
0100
0001
1000
0100
,
0010
0001
1000
0001
0100
0010
0100
0001
1000
0001
0010
0100
0010
0001
1000
0100
,
0010
0100
1000
0001
0100
0001
0100
0010
1000
0001
1000
0100
1000
0001
0100
0010
,
1000
0001
0010
0100
0010
0001
1000
0001
0100
0010
0100
0001
1000
0100
1000
0001
,
0100
0010
0100
0010
1000
0010
0100
0010
,
1000
0001
0010
0100
0010
0001
1000
0001
0100
0010
0100
0001
1000
0100
1000
0001
,
4000
3040
0430
0304
,
4003
3400
0340
0034
,
1003
0100
1000
0001
0100
0001
0100
0010
1000
0001
1000
0100
1000
0001
0100
0010
,
1000
0001
0100
0001
1000
0100
1000
0100
0010
0001
1000
0001
0100
0001
1000
0100
,
4000
3400
0340
0034
,
0403
0000
0304
0000
,
1003
0100
0010
0001
0100
0010
1000
0001
,
0010
0100
0010
0100
1000
0100
0010
0001
,
0040
0430
4300
3004
,
0403
0340
4030
3004
,
1003
0010
1000
0001
0010
0001
0010
0100
1000
0001
1000
0010
1000
0001
0010
0100
,
1000
0001
0010
0001
1000
0010
1000
0010
0100
0001
1000
0001
0010
0001
1000
0010
,
4000
3040
0430
0304
,
0043
0000
0034
0000
,
1003
0100
0010
0001
0010
0100
1000
0001
,
0100
0010
0100
0010
0100
0001
0100
0010
,
2000
0000
0000
0000
0000
3001
0100
0001
,
0020
0000
0000
0000
0000
0130
0010
0100
,
2000
0000
0000
0000
0000
3001
0010
0001
,
0200
0000
0000
0000
0000
0310
0100
0010
,
2000
0000
0000
0000
0000
3010
1000
0010
,
0200
0000
0000
0000
0000
0301
0010
0001
,
2000
0000
0000
0000
0000
3100
1000
0100
,
0020
0000
0000
0000
0000
0130
0010
0100
,
1000
0010
1000
0010
1000
0010
1000
0010
,
1000
0010
1000
0010
1000
0010
1000
0010
,
1000
0001
1000
0001
1000
0001
1000
0001
,
0010
0001
0010
0001
0010
0001
0010
0001
,
0010
0100
0010
0100
0010
0100
0010
0100
,
1000
0100
1000
0100
1000
0100
1000
0100
,
1000
0010
1000
0010
1000
0010
1000
0010
,
0100
0001
0100
0001
0100
0001
0100
0001
,
1000
0001
1000
0001
1000
0001
1000
0001
,
1000
0010
1000
0010
1000
0010
1000
0010
,
1000
0100
1000
0100
1000
0100
1000
0100
,
0010
0100
0010
0100
0010
0100
0010
0100
,
0010
0001
0010
0001
0010
0001
0010
0001
,
1000
0001
1000
0001
1000
0001
1000
0001
,
1000
0010
1000
0010
1000
0010
1000
0010
,
0100
0010
0100
0010
0100
0010
0100
0010
,
0100
0001
0100
0001
0100
0001
0100
0001
,
1000
0010
1000
0010
1000
0010
1000
0010
,
0100
0001
0100
0001
0100
0001
0100
0001
,
1000
0100
1000
0100
1000
0100
1000
0100
,
0010
0001
0010
0001
0010
0001
0010
0001
,
1000
0001
1000
0001
1000
0001
1000
0001
,
0100
0001
0100
0001
0100
0001
0100
0001
,
0100
0010
0100
0010
0100
0010
0100
0010
,
2000
0000
0000
3001
,
0002
0000
0003
0100
,
0200
0000
0000
0000
0000
0310
0100
0010
,
2000
0000
0000
0000
0000
3001
0100
0001
,
2000
0000
0000
0000
0000
3100
1000
0100
,
0020
0000
0000
0000
0000
0031
0100
0001
,
2000
0000
0000
0000
0000
3010
1000
0010
,
0200
0000
0000
0000
0000
0301
0010
0001
,
2000
0000
0000
0000
0000
3100
1000
0100
,
0020
0000
0000
0000
0000
0031
0100
0001
,
2000
0000
0000
0000
0000
3010
1000
0010
,
0200
0000
0000
0000
0000
0301
0010
0001
,
2000
0000
0000
0000
0000
3001
0010
0001
,
0200
0000
0000
0000
0000
0310
0100
0010
,
2000
0000
0000
0000
0000
3001
0100
0001
,
0020
0000
0000
0000
0000
0130
0010
0100
,
1000
0001
0010
0100
1000
0001
0100
0001
,
1000
0100
1000
0100
0010
0001
0010
0001
,
1000
0010
0100
0001
1000
0100
0010
0001
,
1000
0010
1000
0010
0100
0001
0100
0001
,
1000
0100
0010
0001
0010
0100
1000
0001
,
0100
0010
0100
0010
1000
0001
1000
0001
,
0010
0100
1000
0001
0100
0001
1000
0100
,
0010
0001
0010
0001
1000
0100
1000
0100
,
0040
0000
0000
0000
0000
0031
0100
0001
,
4000
0000
0000
0000
0000
3010
1000
0010
,
0400
0000
0000
0000
0000
0301
0010
0001
,
4000
0000
0000
0000
0000
3100
1000
0100
,
0040
0000
0000
0000
0000
0031
1000
0001
,
0400
0000
0000
0000
0000
0310
0100
0010
,
4000
0000
0000
0000
0000
3010
1000
0010
,
0400
0000
0000
0000
0000
0301
0010
0001
,
1000
0100
1000
0001
0100
0001
0100
0010
1000
0001
1000
0100
1000
0001
0100
0010
,
1000
0001
1000
0100
0010
0100
1000
0001
1000
0010
0100
0010
1000
0001
1000
0100
,
1000
0001
0100
0001
1000
0100
1000
0100
0010
0001
1000
0001
0100
0001
1000
0100
,
0010
0001
1000
0001
0100
0010
0100
0001
1000
0001
0010
0100
0010
0001
1000
0100
,
0010
0100
1000
0001
0100
0001
0100
0010
1000
0001
1000
0100
1000
0001
0100
0010
,
1000
0001
0010
0100
0010
0001
1000
0001
0100
0010
0100
0001
1000
0100
1000
0001
,
0100
0010
0100
0010
1000
0010
0100
0010
,
1000
0001
0010
0100
0010
0001
1000
0001
0100
0010
0100
0001
1000
0001
0010
0100
,
1000
0001
0010
0001
1000
0010
1000
0010
0100
0001
1000
0001
0010
0001
1000
0010
,
0100
0001
1000
0001
0010
0100
0010
0001
1000
0001
0100
0010
0100
0001
1000
0001
,
0010
0001
1000
0010
1000
0001
0010
0001
0010
0100
1000
0001
1000
0010
1000
0001
,
0010
0100
1000
0001
1000
0010
0100
0010
1000
0001
1000
0100
0010
0100
1000
0001
,
0010
0100
0010
0001
1000
0010
1000
0010
0100
0001
1000
0001
0010
0001
1000
0010
,
0100
0001
1000
0100
0010
0100
1000
0001
1000
0010
0100
0010
1000
0001
0010
0001
,
1000
0010
0100
0010
0100
0001
0100
0010
,
1000
0001
1000
0100
0010
0100
1000
0001
1000
0010
0100
0010
1000
0001
0010
0001
,
1000
0001
0010
0001
0010
0001
0010
0001
,
1000
0001
1000
0001
1000
0001
1000
0001
,
1000
0010
1000
0001
0010
0001
0010
0100
1000
0001
1000
0010
1000
0001
0010
0100
,
1000
0001
0010
0001
1000
0010
1000
0010
0100
0001
1000
0001
0010
0001
1000
0010
,
1000
0001
0100
0001
0100
0001
0100
0001
,
0100
0010
0100
0010
0100
0010
0100
0010
,
0100
0001
1000
0100
0010
0001
1000
0010
,
1000
0001
1000
0001
0010
0100
0010
0100
,
1000
0001
0010
0100
1000
0001
0100
0001
,
1000
0100
1000
0010
1000
0001
0100
0001
,
1000
0100
0010
0001
0010
0100
1000
0001
,
0100
0010
0100
0010
1000
0001
1000
0001
,
0010
0100
1000
0001
0100
0001
1000
0010
,
0100
0001
0100
0001
1000
0100
1000
0100
,
0010
0001
1000
0010
1000
0001
0010
0100
,
1000
0001
1000
0001
0100
0010
0100
0010
,
4000
0M00
00M0
000M
,
0000
0000
00M0
0000
0000
0000
0000
0000
0M00
0000
0000
0000
,
0000
0000
0000
0000
0000
0000
0000
0000
0M00
0000
0000
0000
,
0000
0000
0000
0000
,
3000
0000
0000
0000
;

//---------------dance-single - Mad Matt----------------
#NOTES:
     dance-single:
     Mad Matt:
     Hard:
     18:
     1.000,1.000,0.090,0.181,1.000,1164.000,12.000,24.000,6.000,0.000:





0000
0000
0000
0000
,
1000
0100
0010
0001
0100
0001
1000
0001
1000
0100
0010
0001
0100
0001
1000
0001
,
1000
0010
0100
0001
1000
0100
1000
0001
1000
0010
0100
0001
1000
0100
1000
0001
,
0010
0100
1000
0010
1000
0001
1000
0001
0010
0100
1000
0010
1000
0001
1000
0001
,
0100
0010
1000
0100
1000
0001
1000
0001
0100
0010
1000
0100
1000
0001
1000
0001
,
0010
0100
1000
0001
1000
0010
1000
0001
0010
0100
1000
0001
1000
0010
1000
0001
,
1000
0010
0100
0001
1000
0001
0010
0001
1000
0010
0100
0001
1000
0001
0010
0001
,
1000
0100
0010
0100
1000
0001
0010
0001
0100
0001
1000
0010
0100
0010
1000
0001
,
0100
0001
0010
0001
1000
0100
1000
0010
1000
0001
0100
0001
0010
0001
1000
0010
,
1000
0100
0010
0001
0100
0010
1000
0001
,
1000
0100
1000
0100
1000
0010
1000
0001
,
1000
0010
0100
0001
0010
0100
1000
0001
,
1000
0010
1000
0010
1000
0001
1000
0100
,
0010
0001
0100
0010
1000
0100
0010
0001
,
0100
0010
0100
0010
0100
0001
0100
0010
,
1000
0100
0010
0001
0100
0010
1000
0100
,
0010
0001
0010
0001
0010
0100
0010
0001
,
1000
0100
0010
0001
0100
0001
1000
0001
1000
0100
0010
0001
0100
0001
1000
0001
,
0010
0100
1000
0010
1000
0001
1000
0001
0010
0100
1000
0010
1000
0001
0100
0001
,
1000
0010
0100
0001
0010
0001
1000
0001
1000
0010
0100
0001
0010
0001
1000
0001
,
0100
0010
1000
0100
1000
0001
1000
0001
0100
0010
1000
0100
1000
0001
0010
0001
,
1000
0100
0010
0100
1000
0010
1000
0001
1000
0100
0010
0100
1000
0010
1000
0001
,
0100
0010
0100
0001
0010
0001
1000
0001
0100
0010
0100
0001
0010
0001
1000
0100
,
1000
0010
0100
0010
1000
0010
0100
0010
,
1000
0001
0100
0010
0100
0001
1000
0001
0010
0100
0010
0001
1000
0001
0100
0010
,
4000
3040
0430
0304
,
4003
3400
0340
0034
,
1003
0100
0010
0001
0100
0001
1000
0001
1000
0100
0010
0001
0100
0001
1000
0001
,
1000
0010
0100
0001
1000
0100
1000
0001
1000
0010
0100
0001
1000
0100
1000
0001
,
4000
3400
0340
0034
,
0403
0000
0304
0000
,
1003
0100
0010
0001
0100
0010
1000
0001
,
0010
0100
0010
0100
1000
0100
0010
0001
,
0040
0430
4300
3004
,
0403
0340
4030
3004
,
0013
0100
1000
0010
1000
0001
1000
0001
0010
0100
1000
0010
1000
0001
1000
0001
,
0100
0010
1000
0100
1000
0001
1000
0001
0100
0010
1000
0100
1000
0001
1000
0001
,
4000
3040
0430
0304
,
0043
0000
0034
0000
,
1003
0100
0010
0001
0010
0100
1000
0001
,
0100
0010
0100
0010
0100
0001
0100
0010
,
2000
0000
0000
0000
0000
3001
0001
0001
,
0020
0000
0000
0000
0000
0130
0100
0100
,
2000
0000
0000
0000
0000
3001
0001
0001
,
0200
0000
0000
0000
0000
0310
0010
0010
,
2000
0000
0000
0000
0000
3010
0010
0010
,
0200
0000
0000
0000
0000
0301
0001
0001
,
2000
0000
0000
0000
0000
3100
0100
0100
,
0020
0000
0000
0000
0000
0130
0100
0100
,
1000
0010
1000
0010
1000
0010
1000
0010
,
1000
0010
1000
0010
1000
0010
1000
0010
,
1000
0001
1000
0001
1000
0001
1000
0001
,
0010
0001
0010
0001
0010
0001
0010
0001
,
0010
0100
0010
0100
0010
0100
0010
0100
,
1000
0100
1000
0100
1000
0100
1000
0100
,
1000
0010
1000
0010
1000
0010
1000
0010
,
0100
0001
0100
0001
0100
0001
0100
0001
,
1000
0001
1000
0001
1000
0001
1000
0001
,
1000
0010
1000
0010
1000
0010
1000
0010
,
1000
0100
1000
0100
1000
0100
1000
0100
,
0010
0100
0010
0100
0010
0100
0010
0100
,
0010
0001
0010
0001
0010
0001
0010
0001
,
1000
0001
1000
0001
1000
0001
1000
0001
,
1000
0010
1000
0010
1000
0010
1000
0010
,
0100
0010
0100
0010
0100
0010
0100
0010
,
0100
0001
0100
0001
0100
0001
0100
0001
,
1000
0010
1000
0010
1000
0010
1000
0010
,
0100
0001
0100
0001
0100
0001
0100
0001
,
1000
0100
1000
0100
1000
0100
1000
0100
,
0010
0001
0010
0001
0010
0001
0010
0001
,
1000
0001
1000
0001
1000
0001
1000
0001
,
0100
0001
0100
0001
0100
0001
0100
0001
,
0100
0010
0100
0010
0100
0010
0100
0010
,
2000
0000
0000
3001
,
0002
0000
0003
0100
,
0200
0000
0000
0000
0000
0310
0010
0010
,
2000
0000
0000
0000
0000
3001
0001
0001
,
2000
0000
0000
0000
0000
3100
0100
0100
,
0020
0000
0000
0000
0000
0031
0001
0001
,
2000
0000
0000
0000
0000
3010
0010
0010
,
0200
0000
0000
0000
0000
0301
0001
0001
,
2000
0000
0000
0000
0000
3100
0100
0100
,
0020
0000
0000
0000
0000
0031
0001
0001
,
2000
0000
0000
0000
0000
3010
0010
0010
,
0200
0000
0000
0000
0000
0301
0001
0001
,
2000
0000
0000
0000
0000
3001
0001
0001
,
0200
0000
0000
0000
0000
0310
0010
0010
,
2000
0000
0000
0000
0000
3001
0001
0001
,
0020
0000
0000
0000
0000
0130
0100
0100
,
1000
0001
0010
0100
1000
0001
0100
0001
,
1000
0100
1000
0100
0010
0001
0010
0001
,
1000
0010
0100
0001
1000
0100
0010
0001
,
1000
0010
1000
0010
0100
0001
0100
0001
,
1000
0100
0010
0001
0010
0100
1000
0001
,
0100
0010
0100
0010
1000
0001
1000
0001
,
0010
0100
1000
0001
0100
0001
1000
0100
,
0010
0001
0010
0001
1000
0100
1000
0100
,
0040
0000
0000
0000
0000
0031
0001
0001
,
4000
0000
0000
0000
0000
3010
0010
0010
,
0400
0000
0000
0000
0000
0301
0001
0001
,
4000
0000
0000
0000
0000
3100
0100
0100
,
0040
0000
0000
0000
0000
0031
0001
0001
,
0400
0000
0000
0000
0000
0310
0010
0010
,
4000
0000
0000
0000
0000
3010
0010
0010
,
0400
0000
0000
0000
0000
0301
0001
0001
,
1000
0100
0010
0001
0100
0001
1000
0001
1000
0100
0010
0001
0100
0001
1000
0001
,
0010
0100
1000
0010
1000
0001
1000
0001
0010
0100
1000
0010
1000
0001
0100
0001
,
1000
0010
0100
0001
0010
0001
1000
0001
1000
0010
0100
0001
0010
0001
1000
0001
,
0100
0010
1000
0100
1000
0001
1000
0001
0100
0010
1000
0100
1000
0001
0010
0001
,
1000
0100
0010
0100
1000
0010
1000
0001
1000
0100
0010
0100
1000
0010
1000
0001
,
0100
0010
0100
0001
0010
0001
1000
0001
0100
0010
0100
0001
0010
0001
1000
0100
,
1000
0010
0100
0010
1000
0010
0100
0010
,
1000
0001
0100
0010
0100
0001
1000
0001
0010
0100
0010
0001
1000
0001
0100
0010
,
1000
0010
0100
0001
0010
0001
1000
0001
1000
0010
0100
0001
0010
0001
1000
0001
,
0100
0010
1000
0100
1000
0001
1000
0001
0100
0010
1000
0100
1000
0001
0010
0001
,
1000
0100
0010
0001
0100
0001
1000
0001
1000
0100
0010
0001
0100
0001
1000
0001
,
0010
0100
1000
0010
1000
0001
1000
0001
0010
0100
1000
0010
1000
0001
0100
0001
,
1000
0010
0100
0010
1000
0100
1000
0001
1000
0010
0100
0010
1000
0100
1000
0001
,
0010
0100
0010
0001
0100
0001
1000
0001
0010
0100
0010
0001
0100
0001
1000
0010
,
1000
0100
0010
0100
1000
0100
0010
0100
,
1000
0001
0010
0100
0010
0001
1000
0001
0100
0010
0100
0001
1000
0001
0010
0100
,
1000
0001
0010
0001
0010
0001
0010
0001
,
1000
0001
1000
0001
1000
0001
1000
0001
,
1000
0010
0100
0001
0010
0001
1000
0001
1000
0010
0100
0001
0010
0001
1000
0001
,
1000
0100
0010
0001
1000
0010
1000
0001
1000
0100
0010
0001
1000
0010
1000
0001
,
1000
0001
0100
0001
0100
0001
0100
0001
,
0100
0010
0100
0010
0100
0010
0100
0010
,
0100
0001
1000
0100
0010
0001
1000
0010
,
1000
0001
1000
0001
0010
0100
0010
0100
,
1000
0001
0010
0100
1000
0001
0100
0001
,
1000
0100
1000
0010
1000
0001
0100
0001
,
1000
0100
0010
0001
0010
0100
1000
0001
,
0100
0010
0100
0010
1000
0001
1000
0001
,
0010
0100
1000
0001
0100
0001
1000
0010
,
0100
0001
0100
0001
1000
0100
1000
0100
,
0010
0001
1000
0010
1000
0001
0010
0100
,
1000
0001
1000
0001
0100
0010
0100
0010
,
4000
0M00
00M0
000M
,
0000
0000
00M0
0000
0000
0000
0000
0000
0M00
0000
0000
0000
,
0000
0000
0000
0000
0000
0000
0000
0000
0M00
0000
0000
0000
,
0000
0000
0000
0000
,
3000
0000
0000
0000
;
