#TITLE:Pure Ruby;
#SUBTITLE:;
#ARTIST:SHIKI;
#TITLETRANSLIT:;
#SUBTITLETRANSLIT:;
#ARTISTTRANSLIT:;
#CREDIT:ALICE_;
#BANNER:Pure Ruby.png;
#BACKGROUND:Pure Ruby.jpg;
#LYRICSPATH:;
#CDTITLE:cdtitle.png;
#MUSIC:Pure Ruby.mp3;
#OFFSET:-2.045;
#SAMPLESTART:80.220;
#SAMPLELENGTH:12.000;
#SELECTABLE:YES;
#BPMS:0.000=178.000;
#STOPS:;
#BGCHANGES:;
// cache tags:
#FIRSTBEAT:0.000;
#LASTBEAT:372.000;
#SONGFILENAME:Songs/alice 4th complete step/Pure Ruby/Pure Ruby.sm;
#HASMUSIC:1;
#HASBANNER:1;
#MUSICLENGTH:126.732;
// end cache tags

//---------------dance-single - ----------------
#NOTES:
     dance-single:
     :
     Challenge:
     18:
     1.000,1.000,1.000,1.000,1.000,970.000,467.000,202.000,0.000,121.000:
1100
0000
0101
0000
1110
0000
0011
1000
0101
1000
0011
0000
0110
0000
1001
0000
,
1100
0000
0101
0000
1110
0000
0011
1000
0101
1000
0011
0000
0110
0000
1001
0000
,
0011
0000
1010
0000
0111
0000
1100
0001
1010
0001
1100
0000
0110
0000
1001
0000
,
0011
0000
1010
0000
0111
0000
1100
0001
1010
0001
1100
0000
0110
0000
1001
0000
,
1010
0000
0110
0000
1011
0000
0101
1000
0011
1000
0111
0000
1101
0000
0011
0000
,
1010
0000
0110
0000
1011
0000
0101
1000
0011
1000
0111
0000
1101
0000
0011
0000
,
1001
0000
1100
0000
1011
0000
0110
1000
0011
1100
0011
0000
1010
0000
0111
0000
,
2202
3303
0000
0000
0000
0000
0000
0000
0000
0000
0000
0000
0000
0000
0000
0000
2022
3033
0000
0000
0000
0000
0000
0000
0000
0000
0000
0000
0000
0000
0000
0000
1001
0000
0000
0000
0110
0000
0000
0000
1001
0000
0000
0000
0000
0000
0000
0000
1100
0000
0000
0000
0011
0000
0000
0000
0100
0000
0000
0000
0011
0000
0000
0000
,
1001
0000
0100
0000
0011
0000
1100
0000
1001
0100
0010
0001
1010
0100
1000
0001
,
0101
0011
1000
1010
0100
0110
1001
1100
,
1010
0000
0100
0000
1001
0000
0100
0000
0011
1000
0100
0010
0101
1000
0100
0010
,
0110
1001
0000
0000
0000
0000
0000
0000
1100
0000
0000
0000
1011
0000
0000
0000
0000
0000
0000
0000
0101
0000
0000
0000
1010
0000
0000
0000
1001
0000
0000
0000
,
0101
0000
0010
0000
1000
0100
0010
0000
0101
0010
0001
1100
0011
0100
1100
0010
,
1001
0100
0010
1001
0010
0001
1100
0010
,
1001
0100
0010
1100
0001
0100
1010
1000
0101
0010
1100
0001
1001
0100
0001
0010
,
1010
0100
0011
0100
1000
0010
0101
0010
1001
0010
1100
0010
0101
1000
0011
1000
,
1101
0000
0010
0000
1100
0000
0011
0000
1001
0010
0100
1000
0101
0010
0001
1000
,
1010
1100
0001
0101
0010
0110
1001
0011
,
0101
0000
0010
0000
1001
0000
0010
0000
1100
0001
0010
0100
1010
0001
0010
0100
,
1100
0011
0000
0000
0000
0000
0000
0000
1010
0000
0000
0000
1101
0000
0000
0000
0000
0000
0000
0000
0010
0000
0000
0000
0101
0000
0000
0000
1001
0000
0000
0000
,
1010
0000
0100
0000
0001
0010
0100
0000
1010
0100
1000
0011
1100
0010
0011
0100
,
1001
0010
0100
1001
0100
1000
0011
0100
,
1001
0010
0100
0011
1000
0010
0101
0001
1010
0100
0010
1000
0101
0010
1000
0100
,
0101
0010
1100
0010
0001
0100
1010
0100
1001
0100
0010
0001
1010
0010
1100
0001
,
0220
0000
0000
0000
,
0000
0000
0000
0000
0000
0000
0000
0330
,
1001
1100
0010
1001
1100
0010
1001
1100
,
0010
1001
1100
0010
1001
0100
0011
0110
,
1001
0101
0010
1001
0101
0010
1001
0101
,
0010
1001
1010
0100
1001
0010
0101
0010
,
1100
0010
1101
0010
0101
1100
1011
0110
,
0101
0010
1101
1000
0011
0110
1101
0010
,
2001
0000
0100
0000
0011
0000
3100
0000
1012
0000
0100
0000
1010
0003
0100
0000
,
2001
3200
0320
0032
2003
3200
0320
0032
1103
0000
1010
0000
1100
0011
1100
0011
,
1002
0000
0010
0000
1100
0000
0010
0000
0100
1000
0010
0000
1100
0000
0010
0003
,
2100
0000
0000
0000
0000
0000
0001
0000
0000
0000
0000
0000
0110
0000
0000
0000
0000
0000
0001
0000
0000
3000
0000
0000
1010
0000
0000
0000
1100
0000
0000
0000
1010
0000
0000
0000
0101
0000
0000
0000
1010
0000
0000
0000
0011
0000
0000
0000
,
0120
0000
0001
0000
1100
0000
0001
0000
0100
1000
0001
0030
1002
0000
0110
0003
,
2001
0000
0010
0000
0101
0000
0010
3000
0201
0010
1000
0300
1021
0000
0100
0030
,
2001
0000
0100
0000
0011
3000
0102
0000
1000
0000
1013
0000
0121
0000
1000
0030
,
0201
0010
0001
0000
1010
0300
2001
0000
0100
0000
0011
3000
0102
0000
0010
0003
,
2100
0010
0001
0010
0101
0000
0010
3000
1001
0100
0010
0000
0012
0003
1200
0300
,
1002
0000
0010
0000
1100
0000
0010
0003
1120
0000
0001
0000
1100
0000
0031
0000
,
1201
0000
0010
0000
1001
0000
0010
0000
1000
0010
1000
0000
1001
0000
0310
0000
,
0102
0000
0000
1000
0000
0000
0010
0000
0000
0000
0000
0000
1100
0000
0000
0000
0000
0000
0113
0000
0000
0000
0000
0000
1001
0000
0000
0000
1010
0000
0000
0000
0011
0000
0000
0000
0101
0000
0000
0000
1100
0000
0000
0000
0110
0000
0000
0000
,
0102
0000
1000
0000
0110
0000
1000
0000
0100
1000
0010
0003
2100
0000
0010
3000
,
0211
0000
1000
0000
1001
0000
0310
0000
0102
1000
0100
0003
2011
0000
0100
3000
,
1002
0100
0010
0000
1010
0003
2100
0000
0010
0001
0010
3000
0201
0000
0010
0300
,
1020
0000
0100
0000
1001
0030
0102
0000
0010
1000
0100
0003
2010
0001
0100
3000
,
1002
0100
1000
0100
1010
0000
0100
0003
1001
0010
0100
0000
2001
3000
0021
0030
,
2100
0000
0001
0000
0110
0000
0001
3000
0201
1000
0010
0300
1001
0000
0110
0000
,
0012
0000
0103
0000
2001
0000
3021
0000
0230
0300
0012
0003
0210
0300
2100
3000
,
0102
0010
1000
0003
1200
0300
0021
0000
1130
0000
1001
0000
0110
0000
0101
0000
,
1012
0000
0203
0000
0311
1000
0001
1000
0110
1000
0120
0000
1030
0000
0102
0000
,
0100
0003
1020
0000
0100
0030
1200
0000
0011
0300
1021
0030
1000
0100
0010
0001
,
2001
0000
0100
0000
0011
0000
3100
0000
1200
0000
0010
0000
1001
0300
0102
0000
,
0000
0003
0210
0000
0000
0300
2002
0000
0000
3003
0011
0000
0110
0000
1100
0000
,
1001
0100
0010
0001
1000
0100
0010
0001
0101
1000
0010
0100
0011
0100
1001
0100
,
0020
0000
0030
0000
2100
0000
0001
0000
3220
0000
0000
0000
0000
0000
0330
0000
1001
0000
0100
0000
0010
0000
0001
0000
1000
0100
0010
0001
1000
0100
0010
0000
,
1001
0010
0100
1001
0010
0100
1001
0010
0100
1001
0010
0100
0011
1000
0101
0010
,
1001
0100
0010
1001
0100
0010
1001
0100
1010
0001
1100
0010
0101
1000
0011
0100
,
1001
0100
0010
1100
0010
0001
1100
0010
1001
0100
0011
0100
1010
0100
1001
0010
,
0101
1000
0010
0101
1000
0010
0101
0010
1001
0100
0010
1001
0100
0010
1001
0010
,
0102
0000
0000
1000
0000
0000
0103
0000
0010
0000
0001
0000
1000
0000
0100
0000
0010
0000
0001
0000
0100
0000
0010
0000
1100
0000
0000
0001
0000
0000
0010
0000
0000
0100
0000
0000
1001
0000
0000
0100
0000
0000
0001
0000
0000
0010
0000
0000
,
2100
0010
0001
3100
0010
0001
1000
0100
0011
0100
1000
0110
1001
0010
0001
0100
,
1010
0100
1001
0010
0101
1000
0110
0001
1010
0100
0001
0010
0101
1000
0011
0100
,
2010
0001
3010
0100
0011
0100
1000
0010
0101
1000
0110
0001
1010
0100
1001
0010
,
1100
0001
0010
1100
0001
0010
1100
0001
0010
1100
0001
0010
0101
1000
0011
0100
,
1001
0010
0100
1001
0010
0100
1001
0010
0101
1000
0011
0100
1001
0010
1001
0100
,
1010
0001
0100
1010
0001
0100
1010
0001
0110
1000
0101
1000
0011
0100
1001
0010
,
0101
1000
0010
0101
1000
0010
0101
0010
1001
0010
0001
1100
0010
0100
1001
0010
,
0201
1000
0010
0301
1000
0010
0100
0001
1100
0010
1000
0100
1001
0010
0100
1000
,
0012
1000
0100
0013
1000
0100
0010
0001
1100
0010
0001
0100
1001
0010
1000
0100
,
0011
1000
0101
0010
1000
0001
0100
0010
1100
0001
1010
0100
0001
1000
0010
0100
,
1001
0000
0010
0000
1100
0000
1000
0000
0101
0000
0010
0000
1001
0000
0001
0000
1100
0000
0011
0000
1100
0000
0011
0000
1000
0100
0010
0001
1000
0100
0010
0000
,
2002
0000
0000
0000
0000
0000
0000
0000
0000
0000
0000
0000
0000
0000
0000
0000
0200
0300
0000
0000
0000
0000
0000
0000
0023
0000
0000
0000
0000
0000
0000
0000
3000
0000
0000
0000
0000
0000
0000
0000
0230
0000
0000
0000
0000
0000
0000
0000
0322
0000
0000
0000
0000
0000
0000
0000
2003
0000
0000
0000
0000
0000
0000
0000
,
3032
0000
0000
0000
0000
0000
0000
0000
0203
0000
0000
0000
0000
0000
0000
0000
0322
0003
0000
0000
0000
0000
0000
0000
2000
0000
0000
0000
0000
0000
0000
0000
3032
0000
0000
0000
0000
0000
0000
0000
2003
0000
0000
0000
0000
0000
0000
0000
3220
0000
0000
0000
0000
0000
0000
0000
2332
0000
0000
0000
0000
0000
0000
0000
,
3223
0000
0000
0000
0000
0000
0000
0000
0000
0000
0000
0000
0000
0000
0000
0000
0002
0003
0000
0000
0000
0000
0000
0000
2300
0000
0000
0000
0000
0000
0000
0000
0000
0000
0000
0000
0030
0000
0000
0000
0002
0000
0000
0000
0000
0000
0000
0000
3200
0300
0000
0000
0000
0000
0000
0000
0020
0000
0000
0000
0000
0000
0000
0000
,
0233
0000
2300
0000
3022
0000
0230
0000
2303
0000
3020
0000
2230
0000
3322
0030
,
2203
0000
0000
0000
0302
0000
3020
0000
0003
0000
0202
0030
0300
0000
2023
0030
,
3200
0000
0302
0000
2203
0300
0020
3000
0230
0000
0302
0000
0223
0300
2032
3003
,
0102
0000
1000
0000
0110
1003
0200
0000
1000
0300
0021
0000
1130
0000
2010
0000
,
3100
0021
0130
1001
0110
1100
2002
3013
,
2001
0000
0100
0000
0011
0100
3010
0000
0100
0000
2001
0000
3011
0000
0120
0000
,
1130
0000
1001
0000
0011
0100
0010
0000
2200
3300
0022
0033
2200
0001
3310
0000
,
1002
0000
0010
0000
0100
0013
2000
0000
3010
0000
0201
0000
0001
0300
1020
0000
,
0100
0030
2102
0000
0010
3103
1001
0000
0022
0033
2200
3300
0022
1000
0133
0000
,
2002
0000
0023
0000
0130
3001
1020
0000
0130
0000
2001
0000
3011
0000
0210
0000
,
1301
0000
2020
0000
3031
0000
2200
0000
3310
0000
0220
0330
2002
3003
0220
0330
,
0202
0000
2300
0000
3223
0330
2002
0000
3023
0100
1031
0000
0200
0000
1310
0000
,
0012
0000
1103
0000
2010
0000
3101
0000
0020
1000
0100
1030
0102
1000
0010
0103
,
2000
0000
0000
0011
0000
0000
0110
0000
,
0000
0000
0011
0000
0000
0000
0000
0000
0110
0000
0000
0000
0011
0000
0000
3000
,
0220
0000
0000
0000
,
0330
0000
0000
0000
;

//---------------dance-single - ----------------
#NOTES:
     dance-single:
     :
     Hard:
     14:
     1.000,1.000,0.655,1.000,0.746,697.000,83.000,132.000,0.000,16.000:
1000
0000
1000
0000
0001
0000
1000
0001
0100
0010
1000
0000
0001
0000
0010
0000
,
1000
0000
1000
0000
0001
0000
1000
0001
0100
0010
1000
0000
0001
0000
0010
0000
,
0100
0000
0100
0000
0001
0000
1000
0010
0100
0001
1000
0000
0010
0000
0001
0000
,
0100
0000
0100
0000
0001
0000
1000
0001
0100
0010
1000
0000
0010
0000
0001
0000
,
1000
0000
1000
0000
0001
0000
0100
0010
1000
0001
0100
0000
0001
0000
0010
0000
,
1000
0000
1000
0000
0001
0000
0100
0010
1000
0001
0100
0000
0001
0000
0010
0000
,
1000
0000
1000
0000
0001
0000
0100
0001
0010
0001
1000
0000
0001
0000
0010
0000
,
2200
3300
0000
0000
0000
0000
0000
0000
0000
0000
0000
0000
0000
0000
0000
0000
0202
0303
0000
0000
0000
0000
0000
0000
0000
0000
0000
0000
0000
0000
0000
0000
2020
3030
0000
0000
0000
0000
0000
0000
0000
0000
0000
0000
0000
0000
0000
0000
0022
0033
0000
0000
0000
0000
0000
0000
0000
0000
0000
0000
0000
0000
0000
0000
,
2002
0000
0000
0000
0000
0000
0003
3000
0100
0010
0001
0010
1000
0100
0010
0001
,
2000
0000
0000
0000
3000
0000
0120
0000
0000
0030
1000
0000
0100
0000
0001
0000
,
2020
0000
0000
0000
0000
0000
0030
3000
0001
0010
0100
0010
1000
0001
0100
0010
,
1001
0000
0100
0010
0000
1000
0001
0100
,
0022
0000
0000
0000
0000
0000
0003
0030
0001
0010
0100
1000
0001
0100
0010
1000
,
0101
0000
0000
1100
0000
0000
0110
0000
,
1000
0100
1000
0001
0100
1000
0100
0010
0001
1000
0010
0100
0001
1000
0100
0000
,
0001
0010
0001
0100
0010
0001
0010
1000
0001
0010
0100
1000
0001
0100
0010
0000
,
2002
0000
0000
0000
0000
0000
3000
0003
0010
0100
1000
0100
0001
0010
0100
1000
,
0002
0000
0000
0000
0003
0000
0210
0000
0000
0300
0001
0000
0010
0000
1000
0000
,
0202
0000
0000
0000
0000
0000
0300
0003
1000
0100
0010
0100
0001
1000
0010
0100
,
1001
0000
0100
0010
0000
0001
1000
0010
,
2200
0000
0000
0000
0000
0000
3000
0300
0010
1000
0100
0010
0001
1000
0010
0100
,
1001
0000
0000
0011
0000
0000
0110
0000
,
0010
0001
1000
0100
0010
1000
0001
0010
0100
1000
0010
0100
0001
1000
0100
0000
,
1000
0100
1000
0010
0100
0001
0100
0010
1000
0100
0010
0001
1000
0010
0100
0000
,
0020
0000
0000
0000
,
0000
0000
0000
0030
,
1002
0000
0103
0020
0000
1030
0002
0000
,
0103
2000
0000
3100
0001
0010
1000
0100
,
1002
0000
0103
0020
0000
1030
0200
0000
,
1300
0002
0000
0103
1010
0100
1001
0010
,
0101
0000
1100
0010
0000
0000
1001
0100
,
0100
0000
0011
0100
0000
0000
1001
0000
,
0120
1030
0210
0301
,
1010
0000
0000
0000
0101
0000
0000
0000
1010
0000
1001
0000
0100
0010
1000
0001
,
0200
0000
0000
0000
,
0320
0000
0000
0000
0000
0000
1030
0100
1000
0010
0001
0100
,
0020
0000
0000
0230
,
2302
0000
3023
0032
,
2203
0000
0300
0020
0000
3000
0200
0330
,
2002
0000
0003
0020
0000
0000
0032
3003
,
0202
0000
0000
0000
0300
0000
0013
1000
,
0200
0000
2300
0000
,
3022
0000
0000
0000
0000
0000
0000
0030
,
0203
0000
0000
0000
0000
0000
0310
0001
1000
0100
0010
0001
,
2000
0000
0000
3200
,
2302
0000
0000
0000
3020
0000
0230
0303
,
2020
0000
0030
3200
0000
0300
2000
0000
,
3020
0000
0000
0230
0000
0000
0302
0000
,
0223
0000
0000
0000
0000
0330
0001
1000
,
0200
0000
0000
0000
2302
0000
0000
3003
,
0021
0000
1030
0002
0000
0103
0010
1000
,
0002
0000
0103
2000
0000
3001
0010
0001
,
2000
0000
3010
0010
0100
0200
0300
2000
,
3000
0000
0200
0000
0000
0000
2300
0000
0000
0000
3100
0000
1000
0100
0010
0001
,
0200
0000
0000
0000
0320
0000
0000
0230
,
0000
0320
0000
0032
0000
2003
3001
0100
,
2020
0000
0000
0030
,
3001
0000
0010
0000
0001
0000
0100
0000
0001
0000
1000
0000
0010
0100
0010
0100
,
0001
0010
1000
0001
0010
1000
0001
0010
1000
0001
0010
1000
0010
0100
0001
1000
,
0100
0010
0001
0100
0010
0001
1000
0100
0001
1000
0010
1000
0100
0010
0001
0010
,
1000
0100
0001
1000
0100
0001
1000
0100
0001
1000
0100
0010
1000
0001
0100
0010
,
1000
0001
0010
1000
0001
0010
1000
0100
0001
1000
0010
0001
1000
0010
0001
0100
,
2010
0000
3100
0010
0001
0010
1000
0100
0001
0010
0001
0100
0020
0000
0030
0000
,
1002
0000
0013
0100
1000
0100
0001
0010
2000
0000
3000
0000
0200
0000
0300
0000
,
2000
0200
0000
0000
0010
0000
3300
0000
0002
0020
0000
0000
0100
0000
0033
0000
,
2000
0002
0000
0000
0110
0000
3003
0000
1000
0000
0100
0000
0011
0000
0100
0000
,
0001
0010
1000
0001
0010
1000
0001
0010
1000
0001
0010
1000
0010
0100
0001
1000
,
0100
0010
0001
0100
0010
0001
1000
0100
0001
1000
0010
1000
0100
0010
0001
0010
,
1000
0100
0001
1000
0100
0001
1000
0100
0001
1000
0100
0010
1000
0001
0100
0010
,
1000
0001
0010
1000
0001
0010
1000
0100
0001
1000
0010
0001
1000
0010
0001
0100
,
2010
0000
3100
0010
0001
0010
1000
0100
0001
0010
0001
0100
0010
0100
1000
0100
,
0012
0000
0013
0100
1000
0100
0001
0010
1000
0100
0001
0100
1000
0010
0001
0010
,
1000
0100
1000
0010
0100
0001
0010
0001
1000
0100
1000
0010
0100
0001
0010
0001
,
1000
0100
1000
0001
0100
0010
1000
0001
0100
0010
0100
0001
1000
0010
1000
0001
,
0100
0010
1100
0010
0100
0010
1100
0010
,
1000
0000
0001
0000
0110
0000
0001
0000
1000
0100
0001
0000
0110
0000
0001
0000
,
1000
0010
1100
0010
1000
0010
1100
0010
,
1000
0000
0001
0000
0110
0000
0001
0000
1000
0010
0001
0000
0110
0000
0001
0000
,
0010
1000
0011
1000
0010
1000
0011
1000
,
0100
0000
0010
0000
1001
0000
0010
0000
0100
0001
0010
0000
1001
0000
0010
0000
,
0100
1000
0101
1000
0100
1000
0101
1000
,
0010
0000
0001
0000
1100
0000
0001
0000
0010
0100
0001
0000
1100
0000
0001
0000
,
0220
0000
0000
0000
0300
0000
2030
0000
0000
0000
3002
0000
0100
0003
0020
0000
,
0000
0230
0001
0320
0000
0031
1100
0001
,
0120
0000
0100
2030
0000
3002
0100
0023
,
0000
0230
0001
2300
0000
3001
0110
0001
,
2100
0000
0101
3020
0000
0032
0100
2003
,
0000
3020
0001
0230
0000
0310
1000
0001
,
0120
0000
1100
0032
0000
2003
0100
3020
,
0000
2030
0000
3200
0000
0000
0320
0000
,
1031
0000
0000
0110
0000
0000
1001
0000
,
0000
0110
0000
0000
1001
0000
0110
0000
,
1001
0000
0000
0000
;
