#TITLE:Walking Dead;
#SUBTITLE:;
#ARTIST:Z-Trip feat. Chester Bennington;
#TITLETRANSLIT:;
#SUBTITLETRANSLIT:;
#ARTISTTRANSLIT:;
#CREDIT:Arch0wl;
#BANNER:walkingdead-bn.png;
#BACKGROUND:walkingdead-bg.png;
#LYRICSPATH:;
#CDTITLE:!Arch0wlTitle.png;
#MUSIC:walkingdead.ogg;
#OFFSET:-0.050;
#SAMPLESTART:59.660;
#SAMPLELENGTH:23.316;
#SELECTABLE:YES;
#BPMS:0.000=81.000;
#STOPS:;
#BGCHANGES:0.000=walkingdead-bg.png=1.000=0=0=1,
99999=-nosongbg-=1.000=0=0=0 // don't automatically add -songbackground-
;
// cache tags:
#FIRSTBEAT:0.000;
#LASTBEAT:190.500;
#SONGFILENAME:Songs/Archmage and Dark0wl Hammer of Thor UltraHyperMegaPack/Walking Dead/walkingdead.sm;
#HASMUSIC:1;
#HASBANNER:1;
#MUSICLENGTH:105.000;
// end cache tags

//---------------dance-single - Arch0wl----------------
#NOTES:
     dance-single:
     Arch0wl:
     Medium:
     8:
     0.656,0.680,0.286,0.667,0.524,380.000,30.000,70.000,0.000,9.000:
2000
0000
0000
0000
,
3200
0000
0000
0000
,
0320
0000
0000
0000
,
0031
2000
3200
2300
3020
0230
0302
0023
,
0130
0000
0100
1000
0010
0000
0100
1000
0100
0001
0000
0001
0010
0100
2000
3000
,
0001
0000
0100
0001
0010
0000
0100
1000
0001
0100
0000
0100
0010
1000
0002
0003
,
1000
0000
0100
0010
0001
0000
0100
0010
1000
0100
0000
1000
0001
0100
0020
0030
,
1000
0002
0023
0032
0203
0320
2030
3200
,
0310
0000
0000
0010
0000
0010
0001
0000
0000
0000
0000
0000
0001
0000
0100
0000
,
0001
0000
0100
0010
0000
0000
1010
0000
0000
0101
0000
0000
0000
0000
1000
0100
,
0110
0000
0000
0010
0000
0010
0100
0000
0000
0000
0000
0000
1000
0000
0010
0000
,
0110
0011
0110
0011
0000
0000
0000
0000
,
0100
0000
0100
0001
0000
0000
1000
0100
0000
0100
0000
0000
1000
0000
0010
0000
,
1000
0000
0001
0000
0010
0000
1100
0000
0000
0011
0000
0000
0000
0000
0000
0000
,
0100
0000
0100
0010
0000
0000
0100
0010
0000
0000
0100
0000
0010
0000
1000
0000
,
0001
2000
3200
2300
3020
0230
0302
0023
,
0130
0000
0100
1000
0010
0000
0100
1000
0100
0001
0000
0001
0010
0100
2000
3000
,
0001
0000
0100
0001
0010
0000
0100
1000
0001
0100
0000
0100
0010
1000
0002
0003
,
0100
0000
0100
0010
0000
0000
0100
0010
0000
0000
1000
0000
0100
0000
1000
0000
,
0001
0000
0010
0000
0100
0000
1000
0000
0001
0000
0100
0010
0100
0010
0100
0010
,
1000
0000
0001
0000
0001
0000
0001
0020
0000
0000
0130
0000
0100
0000
0100
2000
,
0000
0000
3010
0000
0010
0000
0010
0200
0000
0000
0000
0000
0302
0000
0020
0000
,
0000
0200
0000
1333
0100
0010
0001
0022
,
0000
0000
1233
0000
0010
0000
0302
0000
0000
0000
0103
1000
0100
1000
0100
1000
,
0001
0000
0100
0000
0100
0000
0100
0020
0000
0000
0030
0000
0000
1000
0100
0000
,
1010
0000
0101
0000
0000
0000
0100
0001
1010
0000
0101
0000
0000
0000
2020
0000
,
0000
3030
0000
0000
0000
0000
0100
0000
0001
0000
0010
0000
0100
0000
2100
0000
,
0000
0000
3021
0000
0130
0000
1200
0000
0000
0000
0310
0100
0010
0100
0010
0100
,
0001
0000
0000
0010
0001
0000
0000
0010
0001
0010
0100
0010
0001
0010
0100
0010
,
0001
0000
1000
0100
0010
0000
0100
1000
0001
0100
0000
0100
0010
1000
0002
0003
,
1000
0000
0001
0010
0100
0000
0010
0100
1000
0100
0010
0100
1000
0100
0010
0100
,
1000
0002
0023
0032
0203
0320
2030
3200
,
0310
0000
0001
0100
0010
0000
1000
0100
1000
0001
0000
0100
0010
1000
0200
0300
,
1000
0000
0010
0100
0001
0000
1000
0100
0010
0100
0000
1000
0001
0100
0020
0030
,
1000
0000
0000
0000
0000
0000
0100
0000
0000
0010
0000
0000
0001
0000
0000
0000
0000
0000
1000
0000
0000
0000
0000
0000
0100
0000
0000
0000
0000
0000
0010
0000
0000
0000
0000
0000
0000
0000
0000
0000
0100
0000
0000
0000
0000
0020
0000
0000
,
0000
0000
0000
0000
,
0031
0000
1000
0000
1000
0000
1000
0200
0000
0000
0310
0000
0010
0000
0010
0002
,
0000
0000
0103
0000
0100
0000
0100
0020
0000
0000
0000
0000
2030
0000
0020
0000
,
0000
0200
0000
3331
0100
0010
1000
2200
,
0000
0000
3321
0000
0100
0000
2030
0000
0000
0000
3010
0001
0010
0001
0010
0001
,
1000
0000
0010
0000
0010
0000
0010
0200
0000
0000
0300
0000
0000
0000
0100
0000
,
0001
1000
0000
0100
1000
0001
0000
1010
,
0000
0000
0000
0010
0101
0110
1010
1110
,
0000
0000
1010
0000
0110
0000
1110
0000
0000
0000
1000
0100
1000
0100
1000
0100
,
0010
0000
0001
0100
1000
0000
0100
0010
0100
0010
0000
0010
1000
0100
0020
0030
,
0001
0000
0001
1000
0100
0000
1000
0010
1000
0010
0000
0010
0100
1000
0001
0000
,
0010
0000
0010
1000
0100
0000
1000
0001
0010
0001
0000
0001
0100
0010
1000
0000
,
2002
0000
0000
0000
0000
3003
0000
0000
;

//---------------dance-single - Arch0wl----------------
#NOTES:
     dance-single:
     Arch0wl:
     Hard:
     10:
     1.000,1.000,1.000,0.610,1.000,554.000,165.000,64.000,0.000,38.000:
2011
0000
0000
0000
,
3211
0000
0000
0000
,
1321
0000
0000
0000
,
1131
2010
3201
2310
3021
1230
1302
0123
,
0130
0000
0100
1000
0011
0000
0100
1000
0100
0001
0000
0001
0110
0100
2010
3000
,
0001
0000
0100
0001
1010
0000
0100
1000
0001
0100
0000
0100
1010
1000
0102
0003
,
1000
0000
0100
0010
1001
0000
0100
0010
1000
0100
0000
1000
0101
0100
1020
0030
,
1000
0102
1023
0132
1203
0321
2032
3223
,
0331
0000
0100
0010
0100
0010
0001
0000
0010
0000
0100
0000
0101
0000
1010
0000
,
1001
0000
0100
0010
1001
0000
0110
0000
0010
0101
0010
0000
1000
0000
1000
0100
,
0110
0000
0001
0010
0100
0010
0100
0000
1000
0000
0001
0000
1010
0000
0101
0000
,
0210
0000
0000
0000
0312
0000
0000
0000
0213
0000
0000
0000
0322
0030
0000
0000
0020
0030
0000
0000
0000
0000
0020
0030
0000
0000
0020
0030
0020
0030
0000
0000
,
0103
0000
0100
0001
0010
0000
0001
0010
0100
0010
0100
0000
1010
0000
0101
0000
,
0011
0000
1100
0000
1010
0000
0102
0000
1003
0012
0100
0003
1000
0000
0001
0000
,
0101
0000
0101
1010
0001
0000
0101
1010
0001
0000
0101
0000
0110
0000
1010
0000
,
0101
2010
3201
2310
3021
1230
1302
0123
,
0130
0000
0100
1000
0011
0000
0100
1000
0100
0001
0000
0001
0110
0100
2010
3000
,
0001
0000
0100
0001
1010
0000
0100
1000
0001
0100
0000
0100
1010
1000
0102
0003
,
0101
0000
0101
1010
0001
0000
0101
1010
0001
0000
0101
0000
0110
0000
1010
0000
,
0101
0000
2010
0000
3201
0000
2310
0000
3021
0000
1130
0011
1100
0011
1100
0011
,
1000
0010
0100
0001
0100
0010
1000
0001
0010
0001
1000
0010
1000
0100
0010
0001
,
0100
0001
0010
0100
0010
0001
0100
0010
1000
0010
0100
0001
1000
0100
0010
1000
,
0010
1000
0010
0001
0010
0001
0100
0010
1000
0100
0010
0001
0100
0010
1000
0100
,
0001
0100
1000
0010
0001
0010
1000
0100
0001
0100
1100
0011
1100
0011
1100
0011
,
1000
0100
1000
0010
0001
0010
1000
0100
0010
0001
0010
0100
1000
0010
0010
0001
,
0010
0100
0010
0100
0001
1000
0100
0100
0010
0001
0010
0001
0100
0010
1000
0100
,
1000
0100
1000
0100
1000
0100
0010
0001
0010
1000
0010
0001
0010
0100
1000
0100
,
0001
0100
1000
0010
0001
0010
1000
0100
0001
0100
1001
0110
1001
0110
1001
0110
,
1000
1000
1000
0110
1001
1000
1000
0110
1001
0011
1100
0110
1001
0011
1100
0110
,
1001
0000
1000
0010
0101
0000
1000
0010
1000
0100
0000
0100
1001
1000
0021
0030
,
1100
0000
0000
0000
0001
0010
1100
0000
1010
0000
0000
0000
1100
0000
0110
0000
1001
0000
0011
0000
1100
0000
0110
0000
1001
0000
0011
0000
1100
0000
0110
0000
,
1001
0102
1023
0132
1203
0321
2031
3210
,
0310
0000
0010
0001
1100
0000
0010
0001
0010
1000
0000
1000
0110
0010
0102
0003
,
1000
0000
0010
1000
0101
0000
0010
0001
1000
0010
0000
0010
0101
0001
2010
3000
,
0001
0000
0000
0000
0000
0000
0010
0000
0000
0100
0000
0000
1001
0000
0000
0000
0000
0000
0010
0000
0000
0000
0000
0000
0100
0000
0000
0000
0000
0000
2000
0000
0000
0000
0000
0000
0000
0000
0000
0000
0020
0000
0000
0000
0000
0200
0000
0000
,
0000
0000
0000
0000
,
3331
0100
0010
1000
0010
0100
0001
1000
0100
1000
0001
0100
0001
0010
0100
1000
,
0010
1000
0100
0010
0100
1000
0010
0100
0001
0100
0010
1000
0001
0010
0100
0001
,
0100
0001
0100
1000
0100
1000
0010
0100
0001
0010
0100
1000
0010
0100
0001
0010
,
1000
0010
0001
0100
1000
0100
0001
0010
1000
0010
0011
1100
0011
1100
0011
1100
,
0001
0100
0010
0001
0010
1000
0001
0010
1000
0010
0001
0100
0010
1000
0001
0010
,
0100
0010
0001
0100
0010
0100
0001
0010
0100
0010
0001
0100
0010
0100
0001
0010
,
0100
0010
0001
0010
0100
0010
0001
0100
0010
0100
1000
0100
0010
0100
0001
0010
,
1000
0010
0001
0100
1000
0100
0001
0010
1000
0010
1001
0110
1001
0110
1001
0110
,
1000
0000
0100
1000
0011
0000
0100
1000
0100
0001
0000
0001
0110
0100
2010
3000
,
0001
0000
0100
0001
1010
0000
0100
1000
0001
0100
0000
0100
1010
1000
0102
0003
,
1000
0000
0100
0010
1001
0000
0100
0010
1000
0100
0000
1000
0101
0100
1020
0030
,
2002
0000
0000
0000
0000
3003
0000
0000
;
