#TITLE:gravitronic;
#SUBTITLE:;
#ARTIST:Is-m / muramasa;
#TITLETRANSLIT:;
#SUBTITLETRANSLIT:;
#ARTISTTRANSLIT:;
#CREDIT:;
#BANNER:gravi-banner.png;
#BACKGROUND:gravi-bg.png;
#LYRICSPATH:;
#CDTITLE:cdtitle.png;
#MUSIC:gravitronicedit.mp3;
#OFFSET:0.855;
#SAMPLESTART:67.145;
#SAMPLELENGTH:13.000;
#SELECTABLE:YES;
#BPMS:0.000=162.000,117.000=81.000,133.000=162.000,246.000=81.000,252.000=162.000;
#STOPS:68.000=1.111
,229.000=0.380
;
#BGCHANGES:;
// cache tags:
#FIRSTBEAT:2.500;
#LASTBEAT:259.000;
#SONGFILENAME:Songs/Community Keyboard Megapack - Volume 2/(aperson) Gravitronic/gravitronic.sm;
#HASMUSIC:1;
#HASBANNER:1;
#MUSICLENGTH:110.053;
// end cache tags

//---------------dance-single - ----------------
#NOTES:
     dance-single:
     :
     Hard:
     11:
     0.862,0.901,0.427,0.036,1.000,613.000,47.000,4.000,0.000,0.000:
0000
0000
0000
0000
,
0001
0000
0000
0010
0001
0000
1000
0000
0010
0000
0000
0100
0010
0000
0000
0000
,
1000
0000
0000
0001
0100
0000
0010
0000
1000
0000
0000
0010
0100
0000
0001
1000
,
0001
0000
0000
1000
0010
0000
0100
0000
0010
0000
0000
1000
0001
0000
0000
0000
,
1000
0000
0000
0001
0010
0000
0100
0000
1000
0000
0010
0000
0100
0001
1000
0000
,
0010
0000
0000
1000
0100
0000
0010
0000
0001
0000
0000
1000
0001
0000
0000
0000
,
0100
0000
0000
0010
1000
0000
0001
0000
0100
0000
0000
0010
1000
0000
0000
0000
,
0001
0000
0000
1000
0100
0000
1000
0000
0010
0000
0000
0100
0001
0000
0000
0000
,
1000
0000
1000
0000
0001
0000
0001
0000
0100
0010
0100
0010
0100
0010
0100
0010
,
0100
0001
0000
0001
1000
0000
0100
0000
0010
0000
0000
0001
1000
0000
0000
0000
,
1000
0010
0000
0010
0100
0000
0001
0000
1000
0000
0000
0001
0100
0010
0100
0000
,
0001
1000
0000
1000
0100
0000
0010
0000
0001
0000
0000
1000
0100
0000
0000
0000
,
1000
0010
0000
0010
0100
0000
0000
0001
0000
0100
0000
0010
1000
0000
0000
1000
,
0001
0010
0001
1000
0010
0100
0010
1000
,
0100
1000
0010
0100
0001
0010
0001
1000
,
1000
0100
1000
0010
0100
0001
0100
0010
,
1001
0000
1000
0000
1001
0000
0001
0000
0100
0010
0100
0001
0100
0010
0100
0001
,
1000
0000
0000
1000
0001
0000
0000
0000
0100
0000
0000
0000
0010
0000
0000
0000
,
1001
1000
0001
0100
,
0101
0001
1000
0010
,
1010
0000
0000
0000
1000
0000
0000
0000
0010
0000
0000
0000
0100
0000
0000
0001
,
0000
1000
0000
0010
0100
0000
0001
1000
0000
0100
0000
0010
0000
0001
0000
1000
,
0010
0000
0010
0100
0001
0000
1000
0010
0000
0100
0000
0001
0000
0010
0000
0100
,
1000
0000
1000
0001
0010
0000
0100
1000
0000
0001
0000
1000
0000
0010
0000
0100
,
0001
0000
0001
1000
0100
0000
0010
0100
0000
1000
0000
0001
0000
0100
0000
0010
,
0100
0001
0100
0010
1000
0000
1001
0000
0001
0000
0101
0000
0100
0000
0110
0000
,
0010
0000
0010
1000
0001
0000
1001
0000
1000
0000
1010
0000
0010
0000
0110
0000
,
0100
0000
0100
0001
1000
0000
1010
0000
0010
0000
0110
0000
0100
0000
0101
0000
,
0001
0000
0001
1000
0100
0000
0100
1000
0000
0010
0000
0100
0000
0010
0100
0001
,
0100
0010
1000
0010
0100
0000
0000
0000
0000
0110
0000
1001
0000
0010
0110
0000
,
0000
0000
0000
0011
0000
0000
0010
0000
0110
0000
0000
0000
0000
0000
0000
0000
0000
0000
1100
0000
0000
0000
0011
0000
0000
0000
0001
0000
1001
0000
0000
0000
,
1000
0000
0000
0110
0000
0100
0000
0010
1000
0000
0000
0000
0000
0000
0000
0000
0000
0000
1010
0000
0000
0000
0101
0000
0000
0000
0001
0000
1001
0000
0000
0000
,
0000
0000
0000
1100
0000
0000
1000
0000
1001
0000
0000
0000
0000
0000
0000
0000
0000
0000
0110
0000
0000
0000
1001
0000
0000
0000
0010
0000
1010
0000
0000
1000
,
0000
0100
0000
0010
0000
0001
0000
1000
0010
0000
0100
0000
0010
0000
0100
0000
0010
0000
1000
0000
0010
0000
0000
0000
0100
0000
0010
0000
0100
0000
0010
0000
,
0100
0001
0100
0000
0001
0010
0001
0010
0001
1000
0010
0000
1000
0100
1000
0100
,
1000
0001
0100
0010
1000
0001
1000
0001
1000
0001
0100
0000
0001
1000
0001
1000
,
0001
1000
0010
0000
0010
0100
0001
0100
0010
1000
0000
1000
0001
0010
0001
0100
,
0000
0100
0010
1000
1001
0000
1000
0000
0010
0000
0100
0000
0001
0000
1000
0000
,
0010
0100
0001
0010
0001
1000
0100
0010
,
0001
1000
0010
0010
0100
0100
0001
1000
,
0100
0000
1000
0000
0010
0000
0010
0000
0100
0000
0000
0010
0100
0000
0001
0000
,
1000
0100
0010
0001
0100
0010
0100
0010
0100
0010
0100
0010
0000
1000
0100
1000
,
0100
1000
0100
1000
0000
0001
0010
0001
0010
0001
0010
0001
0000
1000
0010
0100
,
0001
0100
0010
1000
0100
0010
0001
0010
0001
0010
0001
0010
0000
0100
1000
0100
,
1000
0100
1000
0100
0000
0010
0001
1000
0001
0010
0100
1000
0010
0100
0001
0100
,
0010
1000
0100
1000
0010
0100
0001
0100
0001
0100
0001
0100
0000
0010
1000
0010
,
1000
0010
1000
0010
0000
1000
0100
1000
0100
1000
0100
1000
0000
0001
0010
0100
,
0010
0001
1000
0001
0000
1000
0000
0100
0010
0100
0010
0001
0000
1000
0010
1000
,
0010
1000
0010
1000
0000
0000
1001
0000
1000
0010
1000
0000
0010
0000
0100
0000
,
0001
0010
0100
0010
0001
0000
0001
0000
1001
0000
1000
0010
0100
0000
0001
0000
,
0100
0010
1000
0000
0100
0010
1000
0010
0100
0000
0001
0000
0001
0010
0100
0000
,
0001
0010
0100
1000
0100
0000
0001
0000
0001
0000
1000
0000
0100
0010
1000
0000
,
0100
0010
1000
0010
0100
0001
0100
0010
0100
0000
0010
0000
1000
0100
1000
0000
,
0001
0010
0100
1000
0001
0000
0001
0000
1001
0000
1001
0000
1000
0000
1000
0000
,
1010
0000
1010
0000
1000
0001
1000
0001
1000
0000
0010
0000
0100
0001
0100
0001
,
0100
0000
0010
1000
0010
0000
0100
0001
0100
0001
0100
0000
0001
0010
0001
0010
,
0001
0010
0001
0000
1000
0100
1000
0100
0010
0001
0010
0001
1000
0010
0100
0001
,
0100
0010
1000
0001
0010
0000
0000
0000
1001
0000
0000
0000
1010
0000
1000
0000
,
0000
0000
1001
0001
0000
0000
0110
0100
,
0010
1000
0011
0010
0000
0000
0011
0001
,
0000
0000
0000
0000
1001
0000
1000
0000
0001
0000
0010
0000
1001
0000
1000
0010
,
0100
0000
0100
0010
1000
0000
1000
0001
0020
0000
0000
0000
0000
0000
0000
0000
,
0032
0203
0320
0030
,
1000
0100
0000
1000
0001
0000
0001
0100
0000
0100
0010
1000
0010
0100
0001
0100
,
0110
0000
0000
0000
;

//---------------dance-single - ----------------
#NOTES:
     dance-single:
     :
     Medium:
     9:
     0.653,0.814,0.109,0.073,0.395,483.000,12.000,8.000,0.000,0.000:
0000
0000
0000
0000
,
1000
0100
0100
0000
0000
1000
0001
0000
,
0001
0100
0100
0000
0000
0001
1000
0010
,
0010
0000
1000
0000
0000
0010
0100
0000
,
0100
0100
0001
0000
0000
0100
0010
0000
,
1000
0001
0100
0010
,
1000
0100
0010
0001
,
1000
0010
0100
0001
1000
0100
0010
0001
,
1000
1000
0001
0001
0100
0100
0100
0100
,
0110
0000
0100
0010
1000
1000
0001
0000
,
0110
0000
0001
1000
0010
0010
0100
0000
,
1001
0000
1000
0001
0100
0100
0010
0000
,
1100
0000
0001
0100
0010
0010
1000
0000
,
1000
1000
0100
0100
0010
0010
0001
0001
,
1000
0010
0100
0001
1000
0100
0010
0001
,
1000
0001
1000
0001
0100
0010
0100
0010
,
1000
0100
1000
0000
0001
0010
0001
0000
1000
0000
1000
0000
0001
0000
0001
0000
,
1001
0101
0100
0010
,
1001
1000
0001
0100
,
0101
0001
1000
0010
,
1010
0000
1000
0000
0010
0000
0100
0010
,
1000
0000
0001
0000
1000
0000
1000
0001
0000
0100
0000
0010
0000
1000
0000
0010
,
0100
0000
0001
0100
0001
0000
1000
0100
0000
0010
0000
0001
0000
1000
0000
0010
,
0100
0000
0001
0010
0001
0000
1000
0001
0000
0010
0000
0100
0000
0010
0000
0001
,
0100
0000
0001
0010
0001
0000
1000
0001
0000
0100
0000
0010
0000
1000
0000
0001
,
0100
0110
1000
0001
1000
0001
1000
0001
,
1000
0010
0100
0001
0100
0001
0100
0001
,
0010
0001
1000
0100
1000
0100
1000
0100
,
1000
0010
0100
0010
0100
0010
0100
0010
,
0100
0001
2000
0000
0000
0000
0000
0000
,
3001
0100
0020
0000
0000
0000
0000
0000
,
1030
0001
0010
0001
0200
0000
0000
0000
0000
0000
0000
0000
0000
0000
0000
0000
,
0301
1000
0020
0000
0000
0000
0000
0000
,
1030
1000
1000
1000
0001
0000
0010
0000
0001
0010
0001
0000
1000
0000
0100
0000
,
1000
0100
1000
0000
0010
0000
0100
0000
0010
0100
0010
0000
0100
0000
0001
0000
,
0100
0001
0100
0000
0001
0000
1000
0000
0001
1000
0001
0000
1000
0000
0010
0000
,
1000
0010
1000
0000
0100
0000
1000
0000
0100
1000
0100
0000
0010
0000
0001
0000
,
0010
0001
0010
0001
0010
0000
0010
0000
0001
0000
1000
0000
0000
0000
1000
0000
,
0010
0100
0000
0100
0001
0010
0000
0010
,
0100
1000
0001
1000
0100
0010
0000
0010
,
0001
0100
0000
0100
0010
1000
0001
0001
,
0100
0000
0100
0000
0010
0000
0100
0000
0010
0100
0010
0100
0000
0000
0001
0000
,
1000
0001
1000
0001
0000
0000
1000
0000
0010
1000
0010
1000
0000
0000
0001
0000
,
0100
0001
0100
0001
0000
0000
1000
0000
0001
1000
0001
1000
0000
0000
0001
0000
,
0100
0001
0100
0001
0000
0000
1000
0000
0010
1000
0010
1000
0000
0000
0001
0000
,
0001
0000
0100
0000
0110
0000
0010
0000
1000
0000
0001
1000
0010
0000
1000
0000
,
0010
0000
0100
0010
1000
0000
0001
0000
0100
0000
0010
1000
0100
0000
0100
0000
,
0010
0000
0010
0000
0001
1000
0001
1000
0001
0000
0001
0000
1000
0001
1000
0000
,
0001
0100
0001
0000
1000
0100
1000
0100
1000
0100
1000
0100
1000
0100
1000
0100
,
1000
0100
1000
0100
1000
0100
1000
0100
1000
0000
0001
0000
0100
0000
0010
0000
,
1000
0001
0010
0100
0010
0001
1000
0100
,
0001
0100
1000
0010
0001
0010
1000
0100
,
0010
1000
0010
0001
0100
0010
0001
1000
,
0100
0001
1000
1000
0100
0100
0001
0001
,
0100
0000
0100
0000
1000
0100
1000
0100
1000
0000
1000
0000
0001
0000
0001
0000
,
0100
0000
0100
0000
0010
0100
0010
0100
0010
0000
0010
0000
1000
0100
1000
0100
,
1000
0000
0001
0000
1000
0001
1000
0001
1000
0001
1000
0001
1000
0001
1000
0001
,
1000
0001
1000
0001
1000
0000
0000
0000
1000
0000
0010
0000
0100
0000
0001
0000
,
0000
0001
0010
0100
0000
0100
1000
0010
,
0000
0010
0100
0001
0000
0001
1000
0100
,
0000
0100
0010
0001
0000
0001
0010
0100
,
1000
0010
0100
0001
2000
0000
0000
0000
,
3020
0230
0302
0000
,
1003
0000
0000
1000
0100
0000
0000
0100
1000
0000
1000
0001
0000
0001
0100
0000
,
0110
0000
0000
0000
;

//---------------dance-single - ----------------
#NOTES:
     dance-single:
     :
     Easy:
     8:
     0.501,0.494,0.173,0.073,0.023,359.000,19.000,8.000,0.000,0.000:
0000
0000
0000
0000
,
1000
0001
0000
0001
,
0100
0010
0000
0010
,
1000
0100
0010
0001
,
0100
0010
1000
0001
,
0100
0010
0000
0010
,
1000
0001
0000
0001
,
0100
0010
0000
1000
,
0100
0010
0100
0010
0001
0010
0001
1000
,
0100
0000
1000
0000
1000
0000
0010
0100
,
0001
0000
0010
0000
0001
0000
0001
0100
,
0010
0000
1000
0000
0010
0000
0100
0001
,
0010
0000
0100
1000
0010
0100
0001
0000
,
1000
0001
1000
0001
1000
0010
0100
0000
,
0100
0010
0100
0010
0100
0001
0010
0000
,
0100
1000
0100
1000
0001
0010
0001
0010
,
0100
1000
1001
0110
,
1001
0000
1000
0100
1000
0100
0010
0000
,
0001
0000
0100
0010
0100
0010
1000
0000
,
0100
0000
0010
0001
0010
0001
0100
0000
,
0010
0000
0000
0000
1000
0000
0001
0000
1000
0000
0001
0000
0010
0000
0000
0100
,
0000
1000
0000
0001
0100
0000
0010
0000
0100
0000
0001
0000
0100
0000
0010
0000
,
0100
0000
0001
0010
0001
0100
0001
0010
,
0001
0000
1000
0100
1000
0010
1000
0100
,
1000
0000
0010
0100
0010
1000
0010
0100
,
0001
0010
0000
0011
0000
0110
0000
1100
,
0000
1001
0000
0101
0000
0110
0000
1000
,
0010
0100
0000
0011
0000
0110
0000
1100
,
0000
1001
0000
0011
0000
1100
0000
0011
,
0000
1100
2100
0000
0000
0000
0000
0000
,
3001
0100
0020
0000
0000
0000
0000
0000
,
1030
0010
0200
0000
0000
0000
0000
0000
,
0301
1000
0020
0000
0000
0000
0000
0000
,
1030
0100
1000
0001
0010
0000
0010
0001
,
0100
0000
0100
0010
1000
0000
1000
0100
,
0010
0000
0010
0001
0100
0000
0100
0001
,
0010
0000
0010
0100
1000
0001
1000
0100
,
0010
0001
0100
0000
0010
1000
0000
1000
,
0001
0010
0000
0010
0001
0100
0000
0100
,
0010
1000
0010
0100
0010
1000
0001
0010
,
0001
0100
0010
0000
1000
0000
0100
0010
,
0001
1000
0010
0100
0010
0100
0000
0001
,
0100
0010
0000
0010
1000
0100
0000
0100
,
0010
0001
0000
0001
1000
0100
0000
0100
,
1000
0010
0000
0010
0100
0001
0000
0001
,
1000
0100
0010
0100
1000
0001
0000
0001
,
0100
0010
0000
0010
1000
0100
0000
0100
,
0010
0001
0000
0001
0100
0010
1000
0100
,
0010
0001
0010
0100
1000
0010
0100
0010
,
1000
0001
0010
0001
0100
0000
0010
1000
,
0010
1000
0010
0100
0001
0000
0010
0001
,
0010
0001
0100
0010
1000
1000
0010
0100
,
0010
0100
0001
0100
0001
0100
0001
0010
,
0100
1000
0010
0100
0010
1000
0010
0001
,
0010
0100
0001
0010
0001
0100
0001
1000
,
0001
0010
0100
1000
0100
0010
0100
0001
,
0100
1000
0001
0001
0100
0100
0010
0010
,
1000
1000
1001
0000
1000
0000
0001
0000
,
0010
0001
0100
0010
,
0100
0001
0010
0100
,
1000
0010
0100
0001
,
0100
0010
2000
0000
,
3020
0230
0302
0000
,
1003
0000
0000
0000
0000
0010
0000
0100
0010
0000
1000
0000
0100
0000
0010
0000
,
0001
0000
0000
0000
;

//---------------dance-double - ----------------
#NOTES:
     dance-double:
     :
     Easy:
     3:
     0.278,0.324,0.127,0.136,0.000,185.000,14.000,15.000,0.000,0.000:
00000000
00000000
00000000
00000000
,
00000000
00000000
00000000
00000000
,
00000000
00000000
00000000
00000000
,
00000000
00000000
00000000
00000000
,
00000000
00000000
00000000
00000000
,
00000000
00000001
00000000
00000001
,
00000000
00001000
00000000
00000100
,
00000000
00000010
00000000
00000010
,
00000100
00000100
00000100
00000000
,
00011000
00000000
00001000
00010000
,
00100000
00000000
00100000
00010000
,
00001000
00000000
00001000
00100000
,
00010000
00000000
01100000
00000000
,
10000000
10000000
10000000
00000000
,
01000000
01000000
01000000
00000000
,
00010000
00000000
01000000
00000000
,
10000000
00010000
01000000
00010000
,
00120000
00100000
00100000
00130000
,
00000000
00201000
00001000
00301000
,
00000000
00012000
00010000
00013000
,
00000000
00020100
00000100
00030100
,
00000000
00000010
00000100
00001000
,
00000000
00001000
00000100
00000010
,
00000000
00000010
00001000
00000001
,
00001000
00000100
00000000
00001000
,
00000000
00001001
00000100
00001000
,
00000000
00011000
00010000
00100000
,
00000000
01100000
01000000
00010000
,
00000000
10000000
00010000
01000000
,
00000000
00200000
00000000
01000000
,
01300000
02000000
00000000
03100000
,
00000000
00020000
00000000
00001000
,
00031000
00002000
00000000
00013000
,
00000000
00000001
00000001
00001000
,
00001000
00000001
00000001
00000100
,
00000000
00000010
00000010
00000100
,
00000100
00000010
00001000
00000100
,
00000000
00000100
00000100
00010000
,
00010000
00001000
00010000
00100000
,
00000000
01000000
01000000
10000000
,
10000000
00010000
10000000
01000000
,
00000000
00100000
00100000
00100000
,
00100000
01000000
01000000
01100000
,
00000000
00100000
00100000
00100000
,
00100000
00001000
00001000
00011000
,
00000000
00010000
00010000
00010000
,
00010000
00000100
00000100
00000110
,
00000000
00000010
00000010
00000010
,
00000010
00000001
00000000
00001001
,
00000000
00001000
00000001
00000010
,
00000010
00000100
00001000
00000100
,
00000000
00010000
00000100
00010000
,
00010000
00001000
00100000
00010000
,
00000000
00100000
00100000
00010000
,
00010000
10000000
00010000
01000000
,
00000000
00010000
10000000
00010000
,
00000000
00001000
00100000
00001000
,
00020000
00031000
00001000
00001000
,
00001000
00001000
00010000
00010000
,
00010000
00000000
00100000
00100000
,
00100000
00100000
00010000
00010000
,
00010000
00000000
00020000
00000000
,
00030200
00002300
00003002
00000000
,
00001003
00000000
00000100
00000010
,
00002002
00000000
00000000
00003003
;

//---------------dance-double - ----------------
#NOTES:
     dance-double:
     :
     Medium:
     6:
     0.419,0.436,0.418,0.291,0.000,245.000,46.000,32.000,0.000,0.000:
00000000
00000000
00000000
00000000
,
00000000
00000000
00000000
00000000
,
00000000
00000000
00000000
00000000
,
00000000
00000000
00000000
00000000
,
00000000
00000000
00000000
00000000
,
00000001
00000001
00000010
00001000
,
00000100
00000100
00001000
00000010
,
00000001
00000000
00000011
00000000
,
00000110
00000101
00001001
00000000
,
00000001
00000100
00000010
00001000
,
00000100
00010000
00001000
00000000
,
00001000
00100000
00010000
01000000
,
00100000
10000000
01000000
00000000
,
10000000
00010000
01000000
00000000
01000000
00000000
01010000
00000000
,
00010000
00100000
00001000
00000000
00010000
00000000
00011000
00000000
,
00010000
00000100
00001000
00000000
00000010
00000000
00001010
00000000
,
00001000
00000001
00001000
00000000
00000010
00000000
00000110
00000000
,
00000120
00000100
00000100
00000100
,
00000130
00002000
00003100
00000002
,
00000103
00001020
00001000
00001000
,
00001030
00000200
00010300
00020000
,
00031000
00102000
00100000
00100000
,
00103000
00200000
00310000
00020000
,
10030000
20000000
31000000
00020000
,
01030000
00000000
10000000
01000000
10000000
00000000
00010000
01000000
,
00010000
00000000
00000000
00100000
00000000
00100000
00000000
00100000
,
00000000
00100000
00000000
00001000
00000000
00001000
00000000
00001000
,
00000000
00001000
00000000
00010000
00000000
00010000
00000000
00001000
,
00000000
00001000
00000100
00000000
00000100
00000000
00000010
00000000
,
00000010
00000000
00000220
00000000
00000000
00000030
00000302
00000000
,
00000203
00002300
00020000
00000000
00000000
00000000
00000000
00000000
,
00033000
00020200
00030000
00002300
,
00003200
00020300
00200000
00000000
00000000
00000000
00000000
00000000
,
00330000
00110000
11000000
00000000
10000000
00000000
00010000
00000000
,
00110000
01100000
01000000
00100000
,
00101000
00011000
00010000
00000100
,
00000110
00000011
00000001
00001001
,
00000000
00001100
00001000
00001001
,
00001010
00010010
00001000
00000100
,
00010100
00011000
00001000
00010000
,
00110000
01100000
00000000
10010000
,
00000000
00000000
10000000
00100000
10000000
00000000
00010000
01000000
,
00010000
00000000
10000000
01000000
10000000
00000000
00010000
00100000
,
00010000
00000000
00100000
00001000
00100000
00000000
00001000
00010000
,
00001000
00000000
00010000
00000100
00010000
00000000
00000100
00001000
,
00000100
00000000
00001000
00000000
00001000
00000000
00000100
00000010
,
00000100
00000000
00001000
00000000
00001000
00000000
00000001
00000100
,
00000001
00000000
00000010
00000100
00000010
00000000
00000100
00010000
,
00000100
00011000
00011000
00011000
,
00011000
00000000
00010000
00001000
00011000
00000000
00001000
00000000
,
00100000
00000000
00010000
01000000
00010000
00000000
10000000
00000000
,
00100000
00000000
10000000
01000000
10000000
00000000
00010000
00000000
,
00100000
00000000
00100000
00001000
00100000
00000000
00011000
00000000
,
00000000
00000000
00010000
00010000
00010000
00000000
00000100
00000000
,
00000100
00000000
00001000
00001000
00001000
00000000
00000001
00000000
,
00000001
00000000
00000010
00000010
00000010
00000000
00000100
00000000
,
00000100
00000110
00000110
00000011
,
00000011
00002001
00000100
00000100
,
00000100
00003100
00010200
00010300
,
00020000
00032000
00203000
00010000
,
00010000
00010000
01000000
01000000
,
01000000
01300000
02100000
00000000
,
23000000
32000000
03020000
00000000
,
00001000
00000000
00031000
00011000
,
00011000
00000000
00000000
00000000
;

//---------------dance-double - ----------------
#NOTES:
     dance-double:
     :
     Hard:
     9:
     0.523,0.523,0.318,0.273,0.059,338.000,35.000,30.000,0.000,0.000:
00000000
00000000
00000000
00000000
,
00000000
00000000
00000000
00000000
,
00000000
00000000
00000000
00000000
,
00000000
00000000
00000000
00000000
,
00000000
00000000
00000000
00000000
,
10010000
01000000
00100000
00101000
,
00010000
00100000
01000000
10010000
,
11000000
00100000
00010000
00110000
,
00101000
00000000
00001000
00000000
00000100
00000010
00000010
00000010
,
00001000
00000001
00000100
00000000
00000001
00001000
00000010
00000000
,
00001000
00000100
00000000
00000000
00000010
00001000
00000001
00000000
,
00000010
00000100
00001000
00000000
00000100
00010000
00001000
00000000
,
00010000
00100000
01000000
00010000
00100000
01000000
10000000
00000000
,
01000000
10000000
01000000
00100000
01000000
00010000
01000000
00100000
,
00010000
00100000
00010000
10000000
00010000
01000000
00010000
00100000
,
00001000
00010000
00001000
00000100
00001000
00010000
00001000
00000010
,
00000001
00000010
00000100
00000000
00000010
00000100
00001000
00000000
,
00001002
00001000
00001000
00001000
,
00002003
00000010
00000010
00000010
,
00003020
00000100
00000100
00000100
,
00000230
00000000
00000000
00000000
00001000
00000000
00000000
00000000
00001000
00000000
00000000
00000000
00001000
00000000
00000000
00000010
,
00000300
00000010
00000000
00000010
00000100
00000000
00000000
00000000
00001001
00000000
00000000
00000000
00000010
00000000
00000100
00000000
,
00001000
00000000
00000100
00000000
00011000
00000000
00000100
00001000
,
00010000
00000000
00001000
00000000
01100000
00000000
00100000
01000000
,
00010000
00000000
10100000
00000000
10000000
00000000
01000000
10000000
,
00010000
10000000
00000000
01010000
00000000
10100000
00000000
01100000
,
00000000
01010000
00000000
00110000
00000000
10100000
00000000
01010000
,
00000000
00101000
00000000
00011000
00000000
00010100
00000000
00011000
,
00000000
00001100
00000000
00000101
00000000
00000010
00000001
00000100
,
00001000
00000000
00022000
00000000
00000000
00030000
00203000
00000000
,
02000000
00300000
23000000
00000000
30020000
00000000
00000000
00200000
00000000
00000000
00000000
00000000
00000000
00000000
00000000
00000000
,
00000000
00330000
00202000
00000000
00000000
00300000
00023000
00000000
,
00230000
00000000
02000000
00300000
00002000
00000000
03000000
00020000
00000000
00000000
00000000
00000000
00000000
00000000
00003000
00000000
,
00030000
00000100
00000000
00000100
00000000
00000100
00000000
00000000
00001000
00000000
00000000
00000000
00000100
00000000
00000000
00000000
00000001
00000000
00000000
00000000
00000000
00000000
00000000
00000000
00000001
00000000
00000000
00000000
00000100
00000000
00000000
00000000
,
00001000
00000010
00000100
00001000
00010000
00000000
00000100
00010000
,
00001000
00000010
00000100
00010000
00001000
00000000
00001000
00010000
,
00100000
00010000
00100000
01000000
00100000
00000000
01000000
00010000
,
10000000
00000000
00000000
00100000
01000000
00010000
00000000
00100000
,
00001000
00010000
00000000
00010000
00001000
00000100
00000000
00000100
,
00001000
00000001
00000000
00000001
00000100
00001000
00000100
00000001
,
00000020
00000000
00000130
00000200
00001300
00001000
00000100
00000200
,
00010000
00000000
00001300
00000010
00000001
00000010
00001000
00000100
,
00010000
00001000
00010000
01000000
10000000
01000000
00010000
00000000
,
00011000
00000000
00001000
00000100
00000010
00000100
00001000
00010000
,
00001000
00100000
00010000
00100000
01000000
00100000
00010000
00000000
,
00011000
00000000
00100000
01000000
00010000
10000000
00100000
01000000
,
00010000
10000000
00100000
10000000
00010000
01000000
00100000
00000000
,
00011000
00000000
00000100
00000010
00001000
00000001
00000100
00000010
,
00001000
00000001
00000010
00000010
00000100
00000100
00001000
00000000
,
00011000
00000000
00000000
00000000
00010000
00001000
00010000
00001000
00010000
00000000
00000000
00000000
00001000
00000000
00100000
00000000
,
00001000
00100000
00010000
01000000
00010000
00000000
10000000
00100000
,
10000000
00010000
00100000
01000000
10000000
00000000
00100000
01000000
,
00100000
01000000
00010000
10000000
00100000
00000000
01000000
00010000
,
00100000
00000000
00001000
00010000
00000100
00000100
00001000
00000100
,
00000001
00000100
00001000
00001000
00000100
00000010
00000100
00000000
,
00001001
00000000
00000001
00000100
00000010
00000000
00000100
00001000
,
00010000
00000000
00001000
00100000
01000000
10000000
00010000
10000000
,
00100000
01000000
00100000
01000000
00200000
00000000
00000000
00000000
01000000
00000000
00000000
00000000
01000000
00000000
00000000
00000000
,
01000000
01000000
00010000
00010000
,
00310000
00020000
00001000
00001000
,
00001000
00001000
00000100
00000100
,
00000100
00000000
00030100
00000000
00002002
00000000
00000000
00003000
,
00000020
00000000
00000003
00000000
00000230
00000000
00002300
00000000
00000002
00003000
00000000
00000200
00000000
00000000
00000000
00000000
,
00000000
00000000
00000000
00000000
00000300
00001003
00001001
00001001
,
00001001
00000000
00000000
00000000
;

//---------------dance-single - ----------------
#NOTES:
     dance-single:
     :
     Challenge:
     11:
     1.000,1.000,1.000,0.045,1.000,715.000,152.000,5.000,0.000,0.000:
0000
0000
0000
0000
0000
1000
1000
1000
,
1001
0000
0000
1000
0100
0000
0010
0000
0011
0000
0000
0001
1000
0000
0000
0000
,
1010
0000
0000
1000
0010
0000
0100
0000
0011
0000
0000
0010
0100
0000
0000
0000
,
1001
0000
0000
0001
0100
0000
0010
0000
1100
0000
0000
1000
0001
0000
0000
0000
,
0011
0000
0000
0100
0010
0000
1000
0000
0110
0000
0000
0001
0100
0000
0010
0100
,
0010
0000
0000
1000
0010
0000
0100
0000
1001
0000
0100
0010
1000
0000
0000
1000
,
0001
0000
0001
0100
0010
0000
1000
0000
0110
0000
0001
1000
0010
0000
0010
1000
,
0001
0000
0001
1000
0010
0000
0100
0000
0101
0000
0100
0001
0010
0000
0100
0000
,
1100
0000
0000
0000
0000
0000
0100
0000
0000
0010
0000
0000
0100
0000
0000
0000
0000
0000
0101
0000
0000
0000
0000
0000
0100
0000
0000
0010
0000
0000
0001
0000
0000
1000
0000
0000
0001
0000
1000
0000
0010
0000
0100
0000
0001
0000
1000
0000
,
0110
0000
0001
1000
0010
0000
1000
0000
1100
0000
0010
0001
0010
0100
1000
0001
,
1000
0000
1000
0010
1000
0000
0100
0000
0011
0000
0010
0001
0010
0100
1000
0001
,
1000
0000
1000
0010
0100
0000
0001
0000
0011
0000
0010
0001
0010
0100
1000
0010
,
1000
0000
1000
0001
0100
0000
0010
0100
0010
0000
0001
0100
0010
0000
0000
0010
,
1000
0000
1001
0000
0001
0000
1001
0000
1000
0100
1001
0000
0001
0100
1001
0000
,
1000
0100
1001
0100
0001
0000
1001
0000
1000
0100
1001
0000
0001
0100
1001
0100
,
0001
1000
0001
0010
0001
0000
0010
0000
0001
0100
1000
0000
1000
0100
0001
0000
,
1000
0100
0001
0100
1000
0010
0001
0010
1000
0001
0100
0001
0010
1000
0010
0001
,
1000
0000
0000
1000
1100
0000
0000
0000
1001
0000
0000
0000
0011
0000
0000
0001
,
0010
0000
0000
0000
0110
0000
0000
0000
1100
0000
0000
0000
1001
0000
0000
1000
,
0010
0000
0000
0000
0110
0000
0000
0000
0011
0000
0000
0000
1001
0000
0000
0001
,
0100
0000
0000
0000
0110
0000
0000
0000
1001
0000
0000
0000
1100
0000
0000
0001
,
0000
0001
0000
0001
1001
0000
1000
0010
0000
0100
0000
1001
0000
0011
0000
0001
,
0100
0000
0100
0010
1000
0000
1000
0010
0000
0100
0000
1001
0000
1010
0000
1000
,
0100
0000
0010
0001
1000
0000
0010
0100
0000
0001
0000
1001
0000
0110
0000
0010
,
1000
0000
1000
0100
0010
0000
0001
1000
0000
0100
0000
1001
0000
0110
0000
0001
,
0100
0001
1000
0010
1000
0000
1001
0000
0010
0000
1001
0000
0100
0000
1001
0000
,
0000
0000
1010
1000
0001
0000
1001
0000
0100
0000
1001
0000
0010
0000
1001
0000
,
0100
0001
1000
0001
0100
0000
1001
0000
0010
0000
1001
0000
0100
0000
1001
0000
,
0000
0000
1100
1000
0001
0000
1000
0001
0000
0010
0000
0110
0000
1010
0000
0001
,
1000
0000
0001
0000
1000
0000
0001
0000
1010
0000
1000
0000
1000
0000
0000
0001
1000
0000
0110
0000
0000
0000
0101
0000
0000
0000
1001
0000
1010
0000
0000
0001
,
1000
0000
0000
1001
0000
0000
0011
0000
1001
0000
1000
0000
1000
0000
0000
0001
1000
0000
1100
0000
0000
0000
0011
0000
0000
0000
1001
0000
1010
0000
0000
0001
,
1000
0000
0000
0110
0000
0000
0110
0000
2002
0000
3003
0000
0000
0000
0000
0010
1000
0000
1001
0000
0000
0000
0101
0000
0000
0000
1010
0000
1100
0000
0000
1000
,
0001
0000
0000
0101
0000
0000
1010
0000
1001
0000
0001
0000
0001
0000
0000
1000
0001
0000
0101
0000
0000
0000
0110
0000
0000
0000
1100
0000
0011
0000
0000
0100
,
0000
1000
0000
0001
0000
0100
0000
0010
0100
0000
0001
0000
0100
0000
0010
0000
0100
0000
0001
0000
0010
0000
0100
0000
1000
0000
0100
0000
0010
0000
0001
0000
,
1000
0010
0100
0001
0010
0001
0100
0010
1000
0100
0010
0100
1000
0001
0100
0010
,
1000
0010
0100
0001
1000
0001
0100
0010
1000
0100
0010
0001
0010
1000
0010
0001
,
1000
0100
1000
0010
1000
0100
0001
0100
1000
0010
0001
0010
1000
0001
0010
1000
,
0010
0001
0100
0000
1001
0000
1000
0010
0100
0000
0101
0000
0000
0000
0010
0100
,
0001
0000
1001
0000
0000
0000
1000
0010
0100
0000
1010
0000
0000
0000
1000
0001
,
0010
0100
0010
0100
0010
0001
0000
0001
1000
0000
1010
0000
1000
0001
0010
0001
,
0010
0000
0101
0000
1001
0100
1000
0000
1001
0010
0000
0100
1001
0000
1010
0000
,
0101
0010
1000
0010
0110
1000
0010
1000
0100
0010
0001
0010
0000
0010
0001
0010
,
0001
0010
0100
1000
0000
0010
1000
0010
1000
0010
0100
0001
0000
0001
0010
0100
,
1000
0010
0100
0001
1000
0010
0100
0010
0100
0010
1000
0001
0000
0100
0001
0100
,
0001
1000
0010
0100
0000
0010
1000
0010
1000
0100
0001
0100
1000
0001
0100
0010
,
1000
0100
0010
0001
0110
0000
0000
1000
0001
0010
0001
0010
0000
0001
1000
0001
,
1000
0001
0100
0010
0000
1000
0010
1000
0010
1000
0100
0010
0000
0100
1000
0100
,
1000
0001
0100
0010
1000
0100
0010
0001
0100
0010
0001
0010
1000
0010
1000
0010
,
1000
0100
0001
0100
1000
0100
1001
0100
0011
0000
0001
1100
0000
1000
0110
0001
,
1000
0100
1000
0100
1000
0001
0010
0001
1100
0000
0000
0000
1100
0000
1000
0000
,
1001
0000
0001
0100
0010
0000
0010
0000
1010
0000
0000
0000
0100
1000
0001
0000
,
0001
0100
0010
1000
0000
1100
0000
1000
0001
0000
0011
0000
0001
1000
0100
0000
,
0100
1000
0010
0000
0010
0100
0010
0100
0001
0000
1001
0000
1000
0010
1000
0010
,
0100
0000
0101
0000
1001
0000
0010
0000
1001
0000
0100
0000
1001
0000
0010
0100
,
1001
0000
1000
0100
0011
0000
1100
0000
0011
0000
1100
0000
0011
0000
1100
0000
,
0011
0000
1000
0010
1100
0000
0101
0000
1100
0000
0101
0000
1010
0100
0001
0000
,
1001
0000
1001
0000
1010
0100
0010
0100
0001
0010
0001
0010
0100
1000
0100
1000
,
0001
0000
0000
0000
0010
0000
0000
0000
1000
0000
0000
0000
0010
0000
0000
0000
0002
0003
0000
0000
0000
0000
0000
0000
0000
0000
0000
0000
1000
0000
0000
0000
0011
0000
0000
0000
0000
0000
0000
0000
0001
0000
0000
0000
0000
0000
0000
0000
1001
0000
0000
0000
0000
0000
0000
0000
1000
0000
0000
0000
0010
0000
0000
0000
,
1000
0000
1100
0000
1001
0000
0001
0010
0001
0000
0101
0000
0110
0000
0100
0001
,
0100
0000
1001
0000
1100
0000
1000
0001
1000
0000
0110
0000
0101
0000
0010
0100
,
0010
0000
1001
0000
1100
0000
0100
0010
0100
0000
1001
0000
0110
0010
1000
0000
,
1000
0000
0100
0000
0010
0000
0001
0000
0100
0000
0010
0000
1000
0000
0100
0000
0010
0000
0010
0000
0010
0000
0010
0000
0010
0000
0000
1001
0000
0000
0001
0000
,
0010
0000
0100
0000
1000
0000
0010
0000
0100
0000
0000
1001
0000
0000
1000
0000
0010
0000
0100
0000
0010
0000
1000
0000
0001
0000
0000
1001
0000
0000
1000
0000
,
0001
0110
0000
0000
0001
0110
0000
1010
1000
0001
0110
1010
0100
0010
0100
0001
,
2002
0000
3003
0000
;

//---------------dance-single - Copied from----------------
#NOTES:
     dance-single:
     Copied from:
     Edit:
     13:
     1.000,1.000,1.000,0.073,1.000,773.000,227.000,8.000,143.000,0.000:
0000
0000
0000
0000
0000
1M10
11M0
1M10
,
1001
0000
0100
1000
0100
0000
0010
0000
0011
0001
0000
0001
1000
0000
0000
0000
,
1010
0000
0010
1000
0010
0000
0100
0000
1001
0010
0001
0010
0001
0010
0001
0010
,
1001
0001
0000
0001
0110
0000
0010
0000
1100
0010
0100
1000
0001
0000
0000
0000
,
0011
0000
0000
0100
0010
0100
1000
0000
0110
0000
0000
0001
0100
0001
0010
0100
,
0010
1000
0000
1000
0010
0000
0100
0000
1001
0010
0100
0010
1000
0000
0000
1000
,
0001
0000
0001
0100
0010
0000
1000
0001
0110
0000
0001
1000
0010
0100
0010
1000
,
0001
0100
0001
1000
0010
0000
0100
0000
0101
0000
0100
0001
0010
0000
0100
0000
,
1100
0000
0000
0000
0000
0000
0011
0000
0000
1000
0000
0000
0110
0000
0000
0000
0000
0000
0101
0000
0000
0000
0000
0000
0100
0000
0000
0010
0000
0000
0001
0000
0000
1000
0000
0000
0001
0000
1000
0000
0010
0000
0100
0000
0001
0000
1000
0000
,
0110
0000
0001
1000
0010
0000
1000
0000
1100
0000
0010
0001
1100
0010
0100
0001
,
1000
0000
1000
0010
1000
0000
0100
0000
0011
0000
0010
0001
1010
0100
1000
0001
,
1000
0000
1000
0010
0100
0000
0001
0000
0011
0000
0010
0001
1010
0100
1000
0010
,
1000
0000
1000
0001
0110
0000
1010
0000
0001
0100
0001
0000
0011
0000
1100
0010
,
1000
0000
1M01
0000
0001
0000
10M1
0000
1000
0100
10M1
0000
0001
0100
10M1
0000
,
1000
0100
10M1
0100
0011
0000
1001
0000
1000
0100
10M1
0000
0001
0100
10M1
0100
,
0011
1000
0001
0010
0001
0000
MM1M
0000
0001
0100
M011
0000
1000
0100
M011
0000
,
1001
0100
0001
0100
1001
0010
0001
0010
1100
0001
0100
0001
0110
1000
0010
0001
,
2MM2
3003
0000
0000
0000
0000
100M
0000
1100
0000
0000
0000
0000
0000
0000
0000
1001
0000
0000
0000
0000
0000
0000
0000
0011
0000
0000
0000
0000
0000
0001
0000
,
0010
0000
0000
0010
0110
0000
0000
0000
1100
0000
0000
0000
1001
0000
0000
1000
,
0010
0000
0000
0010
0110
0000
0000
0000
0011
0000
0000
0000
1001
0000
0000
0001
,
0100
0000
0000
0100
0110
0000
0000
0000
1001
0000
0000
0000
1100
0000
0000
0001
,
0000
0001
0000
0001
1001
0000
1000
0010
0000
0100
0000
1001
0000
0011
0000
0001
,
0100
0010
0100
0010
1000
0000
1000
0010
0000
0100
0000
1001
0000
1010
0000
1000
,
0100
0001
0010
0001
1000
0000
0010
0100
0000
0001
0000
1001
0000
0110
0000
0010
,
1000
0001
1000
0100
0010
0000
0001
1000
0000
0100
0000
1001
0000
0110
0000
0001
,
0100
0001
1000
0010
1000
0000
10M1
0100
0010
0000
1001
0000
0100
0000
1M01
0010
,
0100
0000
1010
1000
0001
0000
1001
0000
0100
0000
10M1
0100
0010
0000
1MM1
0000
,
0100
0001
1000
0001
0100
0000
1MM1
0000
0010
0000
1M01
0010
0100
0000
1001
0010
,
0100
0001
1100
1000
0001
0000
1000
0001
0000
0010
0000
M11M
0000
1M1M
0000
MMM1
,
1000
0000
0001
0000
1MM0
0000
0001
0000
1M1M
0000
1000
0000
1000
0000
0100
0001
1MM0
0000
0110
0000
0000
0000
0101
0000
0000
0000
1001
0000
1010
0000
0000
0001
,
1000
0000
M00M
1001
0000
0000
0011
0000
1001
0000
1000
0000
1000
0000
0010
0001
1MM0
0000
1100
0000
0000
0000
0011
0000
0000
0000
1001
0000
1010
0000
0000
0001
,
1000
0000
0MM0
0110
0000
0000
0110
0000
2002
0000
3003
0000
0000
0000
MMMM
0010
1000
0000
1001
0000
0000
0000
0101
0000
0000
0000
1010
0000
1100
0000
0000
1000
,
0001
0000
0M0M
0101
0000
0000
1010
0000
1001
0000
0001
0000
0001
0000
0010
1000
0MM1
0000
0101
0000
0000
0000
0110
0000
0000
0000
1100
0000
0011
0000
0000
0100
,
0010
1000
0100
0001
0010
0100
1000
0010
1100
0000
0001
0000
0100
0000
0010
0000
0100
0000
0001
0000
0010
0000
M00M
0000
1001
0000
0100
0000
0010
0000
0001
0000
,
1000
0010
0100
M0M0
1010
0001
0100
0010
1000
0100
0010
0100
1000
0001
0100
0010
,
1000
0010
0100
0001
1010
0001
0100
0010
1000
0100
0010
0001
0110
1000
0010
0001
,
1010
0100
1000
0010
1000
0100
0011
0100
1001
0010
0000
0010
1000
0001
0010
1000
,
0010
0001
0100
0000
1MM1
0000
1000
0010
0100
0000
0101
0100
0010
0000
0010
0100
,
0001
0000
1001
0100
0010
0100
1000
0010
0100
0000
1010
1000
0010
0100
1000
0001
,
0010
0100
0010
0100
0010
0001
0000
0001
1000
0000
1010
0100
1000
0001
0010
0001
,
0010
0000
0101
0000
10M1
0100
1000
0000
1M01
0010
0000
0100
10M1
0000
1M10
0000
,
M101
0010
1000
0010
011M
1000
0010
1000
0100
0010
1001
0110
0000
0010
0001
0010
,
0001
0010
0101
1010
0000
0010
1000
0010
1000
0010
1100
0011
0000
0001
0010
0100
,
1000
0010
1100
0011
1000
0010
0100
0010
0100
0010
1100
0011
0000
0100
0001
0100
,
0001
1000
0011
1100
0000
0010
1000
0010
1000
0100
1001
0110
1000
0001
0100
0010
,
1000
0100
1010
0101
0110
0000
0000
1000
0001
0010
0101
1010
0000
0001
1000
0001
,
1000
0001
1100
0011
0000
1000
0010
1000
0010
1000
0101
1010
0000
0100
1000
0100
,
1000
0011
1100
0010
1000
0100
0010
0001
0100
1010
0101
0010
1000
0010
1000
0010
,
1000
0110
1001
0100
1000
0100
1001
0100
0011
0000
0001
1100
0000
1001
0110
1001
,
0010
0100
1000
0100
1000
0001
0010
0001
11M0
0000
0001
0000
11MM
0000
1000
0010
,
1M01
0000
0001
0100
0010
0000
0010
0100
1010
0000
0100
0000
0100
1000
0011
0000
,
0001
1100
0010
1001
0000
11MM
0000
1MMM
0001
0000
0011
0000
MMM1
1000
011M
0000
,
M1MM
1000
0M11
0000
0010
0100
0010
0100
10M1
0M00
10M1
0000
1000
0010
1000
0010
,
0101
M0M0
0101
0000
1MM1
0000
0010
0100
10M1
0000
0100
0010
1M01
0000
0010
0100
,
10M1
0000
1000
0100
M011
0000
110M
0010
M101
0000
11MM
0000
M011
0100
101M
0100
,
M011
0000
1MMM
0010
110M
0000
M101
0010
110M
0000
M1M1
0000
101M
0100
M011
0000
,
1MM1
0000
1MM1
0000
101M
0100
0010
0100
1001
0010
0001
0010
0101
1000
0100
1000
,
0101
0000
0000
0000
0010
0000
0000
0000
1000
0000
0000
0000
0010
0000
0000
0000
2MM2
3003
0000
0000
0000
0000
0000
0000
0000
0000
0000
0000
1MMM
0000
0000
0000
0011
0000
0000
0000
0000
0000
0000
0000
0001
0000
0000
0000
0000
0000
0000
0000
1MM1
0000
0000
0000
0000
0000
0000
0000
1000
0000
0000
0000
0010
0000
0000
0000
,
1000
0001
1100
0000
1MM1
0000
0001
0010
0001
0000
0101
0000
M11M
0000
0100
0001
,
0100
0010
1001
0000
11MM
0000
1000
0001
1000
0000
0110
0000
M1M1
0000
0010
0100
,
0010
0100
1001
0000
11MM
0000
0100
0010
0100
0000
1001
0000
0110
0010
1000
0000
,
1000
0000
0100
0000
0010
0000
0001
0000
0100
0000
0010
0000
1000
0000
0100
0000
MM1M
0000
0010
0000
0010
0000
0010
0000
0010
0000
M00M
1001
0000
0000
0001
0000
,
0010
0000
0100
0000
1000
0000
0010
0000
0100
0000
0000
1001
0000
0000
1000
0000
0010
0000
0100
0000
0010
0000
1000
0000
0001
0000
0000
1001
0000
0000
1000
0000
,
0MM1
0110
0000
0000
1MM1
0110
0000
1010
0100
1001
0110
1010
0100
0001
1100
0010
,
2002
0000
0000
0000
0000
0000
0000
0000
3003
M00M
0000
0000
0000
0000
0000
0000
;
