#TITLE:VerTex Rave;
#SUBTITLE:;
#ARTIST:ZiGZaG vs. BadAxe;
#TITLETRANSLIT:;
#SUBTITLETRANSLIT:;
#ARTISTTRANSLIT:;
#CREDIT:;
#BANNER:../Jawn - ban.png;
#BACKGROUND:../Jawn - bg.png;
#LYRICSPATH:;
#CDTITLE:;
#MUSIC:VerTex RaVe.ogg;
#OFFSET:-0.024;
#SAMPLESTART:41.698;
#SAMPLELENGTH:12.000;
#SELECTABLE:YES;
#BPMS:0.000=280.000;
#STOPS:;
#BGCHANGES:;
// cache tags:
#FIRSTBEAT:32.000;
#LASTBEAT:643.500;
#SONGFILENAME:Songs/Jimmy Jawns/VerTex Rave - [Aoreo]/VerTex Rave.sm;
#HASMUSIC:1;
#HASBANNER:1;
#MUSICLENGTH:138.893;
// end cache tags

//---------------dance-single - J. Nero (17---)----------------
#NOTES:
     dance-single:
     J. Nero (17---):
     Challenge:
     17:
     1.000,1.000,0.187,1.000,0.518,997.000,26.000,188.000,0.000,0.000:
0000
0000
0000
0000
,
0000
0000
0000
0000
,
0000
0000
0000
0000
,
0000
0000
0000
0000
,
0000
0000
0000
0000
,
0000
0000
0000
0000
,
0000
0000
0000
0000
,
0000
0000
0000
0000
,
1000
0100
0010
0100
1000
0001
0100
0010
,
0100
0001
0010
0100
1000
0001
0100
0010
,
0100
0001
1000
0100
0010
0001
1000
0100
,
1000
0001
0100
0010
0100
0001
1000
0100
,
1000
0001
1000
0010
0100
0001
0100
0010
1000
0001
0100
0001
1000
0010
0100
0001
,
1000
0100
1000
0001
0010
0001
1000
0100
0010
0100
0010
0001
1000
0100
0010
0001
,
1000
0001
0100
0010
0100
0001
1000
0001
0100
0010
0100
0001
1000
0001
0100
0010
,
0100
0001
1000
0001
0100
0010
1000
0001
1000
0000
0001
0000
0100
0000
0010
0000
,
1000
0000
0200
0300
1100
0000
2000
3000
,
0001
0000
0200
0300
0110
0000
0020
0030
,
1000
0000
0200
0300
0110
0000
0020
0030
,
0001
0000
2000
3000
1010
0000
0010
0100
,
0001
0000
2000
3000
1100
0000
0200
0300
,
0010
0000
0002
0003
1001
0000
2000
3000
,
0100
0000
0020
0030
0011
0000
0002
0003
,
1000
0000
0020
0030
0110
0000
0200
0000
,
0301
0000
0020
0030
0110
0000
0200
0300
,
1000
0000
0200
0300
0110
0000
0020
0030
,
0001
0000
2000
3000
1010
0000
0020
0030
,
1000
0000
0200
0300
0110
0000
0010
0001
,
1000
0000
0020
0030
0110
0000
0200
0300
,
0001
0000
2000
3000
1100
0000
0200
0300
,
0010
0000
0000
0001
0000
0001
1000
0000
,
0010
0000
0000
0000
,
2001
3000
0000
0000
0002
0000
0003
0000
0011
0000
0000
0000
0020
0000
0030
0000
,
0100
0000
2000
3000
1001
0000
0002
0003
,
1000
0000
0200
0300
0110
0000
0020
0030
,
0001
0000
2000
3000
1010
0000
0010
0100
,
0001
0000
0020
0030
0110
0000
0200
0300
,
1000
0000
0002
0003
0101
0000
0200
0300
,
0010
0000
2000
3000
1100
0000
0200
0300
,
0010
0000
0002
1003
0000
0001
0020
0030
,
0100
0000
2000
3000
1100
0000
0200
0300
,
0010
0000
0002
0003
1001
0000
2000
3000
,
0100
0000
0010
0001
0000
0010
0100
0000
,
1000
0000
0010
0100
0000
0010
1000
0000
,
0001
0010
0100
1000
0000
0001
0010
0000
,
0001
0000
1000
0010
0000
1000
0001
0000
,
0010
0000
0100
1000
0000
0001
1000
0000
,
0010
0000
0100
0001
0000
0100
0010
0000
,
1000
0000
0001
0100
0000
0001
0010
0000
,
0100
0000
1000
0100
0000
1000
0010
0000
,
0100
0000
0010
1000
0000
0100
0010
0000
,
0001
0000
0010
0100
0000
0010
0100
0000
,
1000
0100
0010
0001
0000
1000
0001
0000
,
0100
0000
0010
0100
0000
0001
1000
0000
,
0001
0000
0010
0100
0000
0010
0001
0000
,
1000
0000
0010
0100
0000
0001
1000
0000
,
0001
1000
0010
1000
0100
1000
0010
1000
,
0001
1000
0001
0100
0001
0010
0001
1000
,
0010
1000
0100
0010
0001
1000
0001
0100
,
0010
1000
0010
0100
0001
1000
0010
0100
,
0001
0100
0001
1000
0010
0100
0001
1000
0001
0100
0010
1000
0001
1000
0001
0100
,
0001
1000
0100
0010
0001
1000
0100
1000
0001
1000
0100
0010
0001
1000
0100
1000
,
0001
0100
0001
1000
0010
0100
0010
1000
0001
0100
0001
0100
0010
1000
0001
0100
,
0001
1000
0100
0010
0100
0010
0001
1000
0100
1000
0100
0010
0001
1000
0001
1000
,
0020
0030
2000
3000
0002
0003
2000
3000
0000
0000
0000
0000
0000
0000
0000
0000
,
0000
0000
0000
0000
,
2000
3000
0002
0003
0200
0300
0020
0030
0000
0000
0000
0000
0000
0000
0000
0000
,
0000
0000
0000
0000
,
2000
3000
0200
0300
0020
0030
0002
0003
0000
0000
0000
0000
0000
0000
0000
0000
,
0000
0000
0000
0000
,
2000
3000
0002
0003
0020
0030
0200
0300
0000
0000
0000
0000
0000
0000
0000
0000
,
2000
3000
0002
0003
0200
0300
0002
0003
0000
0000
0000
0000
0000
0000
0000
0000
,
2000
3000
0200
0300
0020
0030
0002
0003
0100
0000
0010
0000
1000
0000
0010
0000
,
1000
0010
0100
0010
0100
0001
1000
0010
,
0200
0300
0002
0003
2000
3000
0020
0030
0100
0000
0001
0000
1000
0000
0010
0000
,
0100
0001
1000
0010
0100
0001
1000
0001
,
1000
0001
0100
0001
0100
0010
1000
0001
1000
0010
0100
0001
0100
0010
1000
0001
,
1000
0100
0010
0100
0010
0001
1000
0100
1000
0100
0010
0001
1000
0100
1000
0001
,
0100
0001
0100
0010
1000
0001
0100
0010
0100
0001
1000
0010
1000
0001
0100
0010
,
1000
0001
1000
0100
0010
0100
0010
0001
1000
0000
0001
0000
0010
0000
0100
0000
,
2000
3000
0020
0030
0200
0300
0002
0003
0000
0000
1000
0000
0001
0000
0000
0000
,
0010
0000
0100
1000
0000
0001
0100
0000
,
0020
0030
2000
3000
0200
0300
0020
0030
0000
0000
0001
0000
0100
0000
0000
0000
,
0010
0000
1000
0001
0000
0100
0010
0000
,
2000
3000
0020
0030
0200
0300
0002
0003
0000
0000
1000
0000
0100
0000
0000
0000
,
0010
0000
0001
0100
0000
0010
0100
0000
,
0002
0003
0020
0030
0200
0300
2000
3000
0000
0000
0001
0000
0100
0000
0000
0000
,
0020
0030
2000
3000
0200
0300
0020
0030
0000
0000
0001
0000
1000
0000
0000
0000
,
0002
0003
0200
0300
0020
0030
2000
3000
0000
0000
0100
0000
0010
0000
0000
0000
,
0001
0000
1000
0001
0000
0100
0010
0000
,
2000
3000
0002
0003
0020
0030
0200
0300
0000
0000
1000
0000
0001
0000
0000
0000
,
0100
0000
0010
1000
0000
0010
0100
0000
,
0002
0003
0200
0300
0002
0003
0200
0300
0000
0000
0010
0000
0100
0000
0000
0000
,
0001
0000
1000
0100
0000
1000
0010
0000
,
2000
3000
0200
0300
0020
0030
0002
0003
0000
0000
1000
0000
0010
0000
0000
0000
,
0200
0300
0002
0003
0020
0030
0200
0300
0000
0000
1000
0000
0001
0000
0000
0000
,
1000
0000
0001
0010
0000
0010
0100
0000
,
1000
0000
0010
0100
0010
0000
1000
0001
,
0010
0000
0001
1000
0000
0001
0010
0000
,
0100
0000
0100
0000
0000
0000
1000
0100
,
1000
0000
0001
0100
0001
0010
0100
0000
,
1000
0000
0010
0100
0010
0000
1000
0001
,
1000
0000
0001
0100
0000
0010
0100
0000
,
0010
0000
0100
0000
0001
1000
0000
0001
,
0100
0000
0010
0000
1000
0010
0100
0000
,
0001
0000
1000
0010
0100
0000
0001
0010
,
0100
0000
1000
0010
0000
1000
0010
0000
,
0100
0001
1000
0010
0100
0001
1000
0010
,
0100
0001
0010
0100
0010
0001
1000
0100
,
1000
0010
0100
0000
0001
0010
0100
0000
,
1000
0000
0010
0100
0000
0100
0001
0000
,
1000
0000
0001
0010
0000
0010
0100
0000
,
1100
0000
1000
0000
0001
0100
0001
0100
,
0010
1000
0001
0000
1000
0100
0010
0100
,
0010
0000
0001
0100
0000
0100
0010
1000
,
0001
0010
0001
1000
0010
0100
0010
1000
,
0001
0000
1000
0000
0001
0010
0000
0010
,
0100
1000
0001
0010
0100
1000
0001
1000
,
0010
0000
1000
0100
0000
0100
0010
0000
,
0001
0001
1000
1000
,
0202
0303
0001
0010
0100
0000
0001
0010
,
0100
0100
0000
1000
,
0001
0100
0010
1000
0010
0100
0001
1000
,
0001
0100
0010
1000
0010
0100
0001
1000
,
0001
0100
0001
0100
0010
1000
0001
0100
0001
1000
0010
0100
0010
1000
0001
0100
,
0001
1000
0100
1000
0100
0010
0001
1000
0100
0010
0100
0010
0001
1000
0001
0010
,
0100
1000
0001
1000
0010
0100
0010
1000
0001
0100
0001
1000
0010
1000
0001
0100
,
0001
1000
0100
1000
0100
0010
0001
1000
0001
0000
1000
0000
0100
0000
0010
0000
,
0002
0003
0200
0300
0020
0030
2000
3000
0000
0000
0001
0000
1000
0000
0000
0000
,
0100
0000
0010
0100
0000
1000
0010
0000
,
2000
3000
0200
0300
0020
0030
0002
0003
0000
0000
0100
0000
0001
0000
0000
0000
,
1000
0000
0001
0010
0000
0001
0100
0000
,
0002
0003
2000
3000
0200
0300
0020
0030
0000
0000
0001
0000
1000
0000
0000
0000
,
0010
0000
1000
0010
0000
0100
0001
0000
,
2000
3000
0200
0300
0020
0030
0002
0003
0000
0000
0100
0000
0010
0000
0000
0000
,
2000
3000
0002
0003
0020
0030
0200
0300
0000
0000
1000
0000
0001
0000
0000
0000
,
2000
3000
0200
0300
0020
0030
0002
0003
0000
0000
0010
0000
0001
0000
0000
0000
,
1000
0000
0010
0100
0000
0001
1000
0000
,
0002
0003
0200
0300
0020
0030
2000
3000
0000
0000
0100
0000
0010
0000
0000
0000
,
0001
0000
1000
0100
0000
1000
0010
0000
,
2000
3000
0200
0300
0020
0030
0002
0003
0000
0000
0100
0000
0010
0000
0000
0000
,
1000
0000
0001
0010
0000
0001
1000
0000
,
0002
0003
0020
0030
0200
0300
2000
3000
0000
0000
0001
0000
0100
0000
0000
0000
,
0020
0030
2000
3000
0200
0300
0020
0030
0000
0000
0001
0000
1000
0000
0000
0000
,
0002
0003
0200
0300
0020
0030
2000
3000
0000
0000
0000
0000
0000
0000
0000
0000
,
0000
0000
0000
0000
,
0002
0003
0020
0030
0200
0300
2000
3000
0000
0000
0000
0000
0000
0000
0000
0000
,
0000
0000
0000
0000
,
0002
0003
2000
3000
0020
0030
0200
0300
0000
0000
0000
0000
0000
0000
0000
0000
,
0000
0000
0000
0000
,
0002
0003
2000
3000
0200
0300
0020
0030
0000
0000
0000
0000
0000
0000
0000
0000
,
0002
0003
0020
0030
0200
0300
2000
3000
0000
0000
0000
0000
0000
0000
0000
0000
,
0002
0003
2000
3000
0020
0030
2000
3000
0001
0000
1000
0000
0001
0000
0100
0000
,
0001
0100
0010
1000
0001
0100
0010
0100
,
0020
0030
2000
3000
0002
0003
0020
0030
0100
0000
1000
0000
0100
0000
1000
0000
,
0100
1000
0001
0100
0010
0100
0001
1000
,
0001
0100
0001
1000
0010
1000
0001
0100
0001
0100
0010
1000
0001
1000
0001
0100
,
0001
1000
0100
1000
0100
0010
0001
1000
0100
0010
0100
0010
0001
1000
0001
1000
,
0010
0100
0010
1000
0001
0100
0001
1000
0010
0100
0010
1000
0001
0100
0001
1000
,
0001
1000
0010
0100
0001
1000
0001
0100
0010
0000
0100
0000
0010
0000
0100
0000
,
0002
0003
0020
0030
0200
0300
2000
0000
0000
0000
0000
0000
0000
0000
3000
0000
;
