#TITLE:Naman Barabwa;
#SUBTITLE:;
#ARTIST:Taeyang;
#TITLETRANSLIT:Look Only At Me;
#SUBTITLETRANSLIT:;
#ARTISTTRANSLIT:;
#CREDIT:depressionalism;
#BANNER:22671541.jpg;
#BACKGROUND:2vihxja.jpg;
#LYRICSPATH:;
#CDTITLE:HOT Issue;
#MUSIC:Tae Yang 03 - look at me.mp3;
#OFFSET:0.000;
#SAMPLESTART:55.000;
#SAMPLELENGTH:30.000;
#SELECTABLE:YES;
#BPMS:0.000=60.000;
#STOPS:;
#BGCHANGES:;
// cache tags:
#FIRSTBEAT:14.500;
#LASTBEAT:97.500;
#SONGFILENAME:Songs/toune 6/Tae Yang 03 - look at me/Tae Yang 03 - look at me.sm;
#HASMUSIC:1;
#HASBANNER:1;
#MUSICLENGTH:100.257;
// end cache tags

//---------------dance-single - ----------------
#NOTES:
     dance-single:
     :
     Easy:
     1:
     0.294,0.389,0.489,0.259,0.329,131.000,49.000,26.000,0.000,0.000:
0000
0000
0000
0000
,
0000
0000
0000
0000
,
0000
0000
0000
0000
,
0000
0000
0000
0000
0000
2000
0000
3000
,
0002
0000
0003
2000
0000
3000
0002
0000
,
0003
0000
2000
0000
3000
0002
0000
0003
,
2000
0000
3000
0002
0000
0003
0000
0000
,
1000
0000
0000
0001
0000
0000
0110
0000
0000
1001
0000
0000
0000
0100
0000
0000
,
0010
0000
0000
1001
0000
0000
0110
0000
0000
0000
0000
1000
0000
0000
0100
0000
,
0000
0010
0000
0000
0001
0000
0000
0010
0000
0000
0100
0000
0000
1000
0000
0000
,
0000
0000
0000
0000
0000
0000
0000
1100
0000
0000
0011
0000
0000
1001
0000
0000
,
0110
0000
0000
0000
1001
0000
1000
0100
0010
0001
0000
0000
0110
0000
0000
1001
,
0000
0001
0000
1000
0000
0110
1000
0000
0001
0000
1100
0000
0011
0000
1001
0000
,
0110
1000
0100
0010
0001
1001
0000
1001
0100
0010
0110
1000
0001
1001
0000
2000
,
0000
0000
0000
3000
0000
0002
0000
0000
0000
0003
0000
0200
0000
0000
0000
0300
,
0000
0020
0000
0000
0000
0030
0000
0000
0000
2002
0000
0000
0000
3003
0000
0220
,
0000
0000
0000
0330
0000
1000
0000
0001
0000
0000
0000
0000
0000
0000
0000
0000
,
0000
0000
0000
0000
1000
0100
0010
0001
1001
0000
0000
1000
0000
0000
0100
0010
,
1000
0001
1001
0000
0000
0000
0000
0000
0000
2002
0000
3003
0220
0000
0330
0000
,
0001
0010
0100
1000
1001
0000
0000
0001
0000
0000
0010
0100
0001
1000
1001
0000
,
0000
0000
0000
0000
0220
0000
0330
2002
0000
3003
0000
1000
0100
0110
0010
0000
,
0000
1001
0100
0010
0110
1001
1001
0000
0000
0000
1000
0100
0010
0001
0110
1001
,
0000
0000
0000
0000
1000
0100
0010
0001
1100
0110
0011
1001
0000
1000
0000
0001
,
0110
1001
0000
0110
0000
1000
0100
0010
0001
1001
0110
0000
0000
1000
0100
0010
,
0001
0110
1001
0220
0000
0000
0330
0000
0000
0000
0000
0000
0000
0000
0000
0000
;
