#TITLE:Friday;
#SUBTITLE:Sexuality Violation;
#ARTIST:Rebecca Black;
#TITLETRANSLIT:;
#SUBTITLETRANSLIT:;
#ARTISTTRANSLIT:;
#CREDIT:;
#BANNER:Friday-bn.png;
#BACKGROUND:Friday-bg.png;
#LYRICSPATH:;
#CDTITLE:GazeboCD.png;
#MUSIC:Friday.ogg;
#OFFSET:-0.239;
#SAMPLESTART:44.698;
#SAMPLELENGTH:26.488;
#SELECTABLE:YES;
#BPMS:0.000=224.000;
#STOPS:;
#BGCHANGES:;
// cache tags:
#FIRSTBEAT:32.000;
#LASTBEAT:728.000;
#SONGFILENAME:Songs/Sexuality Violation 2/Friday - [Gazebo]/Friday.sm;
#HASMUSIC:1;
#HASBANNER:1;
#MUSICLENGTH:196.586;
// end cache tags

//---------------dance-single - Gazebo----------------
#NOTES:
     dance-single:
     Gazebo:
     Challenge:
     16:
     1.000,1.000,0.382,0.193,1.000,1298.000,75.000,38.000,12.000,35.000:
0000
0000
0000
0000
,
0000
0000
0000
0000
,
0000
0000
0000
0000
,
0000
0000
0000
0000
,
0000
0000
0000
0000
,
0000
0000
0000
0000
,
0000
0000
0000
0000
,
0000
0000
0000
0000
,
1000
1000
0011
1000
,
0000
1000
0011
1000
,
0001
0001
1010
0001
,
0000
0001
1010
0001
,
1000
1000
0101
1000
,
0000
1000
0101
1000
,
0001
0001
1100
0001
,
0000
0001
1100
0000
,
1000
0001
1000
0000
1001
0000
0001
1000
,
0010
0000
0010
0100
0010
0000
0100
0000
,
0001
1000
0001
0000
0011
0000
0010
0100
,
1000
1000
1001
0000
,
0001
0100
0010
1000
0010
0000
0100
0001
,
1000
0000
1000
0100
0010
0000
0000
0000
,
0001
0010
0001
0010
0001
0000
1000
0000
,
0010
0100
0101
0001
,
1000
0000
0100
1000
0000
0100
1000
0000
,
0001
0010
0001
1000
0001
0000
0001
0000
,
0100
0000
0100
0010
0100
0000
0010
0000
,
1000
0100
0110
0000
,
0001
0000
0001
0000
1100
0000
1000
0001
,
0100
0100
1010
0000
,
1000
1000
0011
0002
,
2000
0000
0000
0000
0000
0000
0000
0000
0000
0000
0000
0000
0000
0000
0000
0000
0000
0000
0000
0000
0000
0000
0000
0000
0000
0000
0000
0000
0000
0000
0000
3003
1001
0000
0000
0000
0000
0000
0000
0000
0000
0000
0000
0000
0000
0000
0000
0000
0000
0000
0000
0000
0000
0000
0000
0000
0000
0000
0000
0000
0000
0000
0000
0000
,
1000
0001
1000
0100
0010
0100
1000
0001
0100
0001
1000
0010
0100
0010
1000
0001
,
0020
0000
0031
0000
,
0001
1000
0001
0100
0010
0100
0001
1000
0100
1000
0001
0010
0100
0010
0001
1000
,
0020
0000
1030
0000
,
1000
0000
1000
0010
1000
0000
0001
0000
,
0002
0000
0013
0000
,
0001
2000
0000
0020
,
0000
0200
0000
0002
,
0000
0000
0000
0000
,
0000
0000
0000
0000
0000
0000
0000
0000
0000
0000
0000
0000
0000
0000
0000
0000
0000
0000
0000
0000
0000
0000
0000
0000
0000
0000
0000
0000
0000
0000
0000
3333
1111
0000
0000
0000
0000
0000
0000
0000
0000
0000
0000
0000
0000
0000
0000
0000
0000
0000
0000
0000
0000
0000
0000
0000
0000
0000
0000
0000
0000
0000
0000
0000
,
0001
0100
0010
1000
0010
1000
0001
1000
0001
0010
0100
1000
0100
1000
0001
1000
,
0001
0100
0010
1000
0010
1000
0001
1000
0001
0010
0100
1000
0100
1000
0001
1000
,
0001
0100
0010
0100
0001
1000
0010
0100
0001
0100
0010
1000
0100
0010
0100
1000
,
0001
0010
0100
1000
0100
1000
0001
1000
0001
0100
0010
1000
0001
0100
0010
1000
,
0001
1000
0100
1000
0001
0010
0100
1000
0001
0010
0001
0010
0001
1000
0001
1000
,
0010
0100
0001
0100
0010
1000
0010
1000
0001
1000
0001
1000
0100
0010
0001
1000
,
0100
1000
0100
0010
0001
1000
0100
1000
0001
0100
0001
0100
0010
1000
0001
1000
,
0100
1000
0100
0010
0001
1000
0100
1000
0001
0100
0001
0100
0010
1000
0001
1000
,
0001
0010
0100
1000
0100
1000
0001
1000
0001
0100
0010
1000
0010
1000
0001
1000
,
0001
0010
0100
1000
0100
1000
0001
1000
0001
0100
0010
1000
0010
1000
0001
1000
,
0001
0010
0100
0010
0001
1000
0100
0010
0001
0010
0100
1000
0010
0100
0010
1000
,
0001
0100
0010
1000
0010
1000
0001
1000
0001
0010
0100
1000
0001
0010
0100
1000
,
0001
1000
0010
1000
0001
0100
0010
1000
0001
0100
0001
0100
0001
1000
0001
1000
,
0100
1000
0100
0010
0001
0010
0001
1000
0001
1000
0001
1000
0010
1000
0010
0100
,
0001
0010
0100
1000
0100
1000
0001
1000
0001
0100
0010
1000
0010
1000
0001
1000
,
0001
0010
0100
1000
0100
1000
0001
1000
0001
0100
0010
1000
0010
1000
0001
1000
,
0002
0100
0103
0002
,
0100
0103
1111
0000
,
2000
0100
3100
2000
,
0100
3100
1111
0000
,
M111
0000
1M11
0000
,
11M1
0000
111M
0000
,
0001
0100
0100
0100
,
0010
1000
0100
0010
,
0001
1000
0001
0000
1001
0000
1000
0000
,
0010
0100
0010
1000
0001
0000
0001
0000
,
1000
0100
0010
0000
0011
0000
0001
1000
,
0001
0000
0001
0100
0001
0000
0000
0000
,
1001
1000
1100
0100
,
0010
0000
0001
1000
0001
0000
0000
0000
,
0100
0100
1010
1000
,
0100
0010
0011
1000
,
0001
0100
1010
1000
,
0001
0001
0011
1000
,
0001
0001
0110
1000
,
0001
0000
1010
0010
,
1000
0001
0011
0010
,
0100
0100
1001
0000
,
0001
0001
1100
1000
,
0020
0000
0000
0000
0000
0000
0000
0000
0000
0000
0000
0000
0000
0000
0000
0000
0000
0000
0000
0000
0000
0000
0000
0000
0000
0000
0000
0000
0000
0000
0000
0030
1010
0000
0000
0000
0000
0000
0000
0000
0000
0000
0000
0000
0000
0000
0000
0000
0000
0000
0000
0000
0000
0000
0000
0000
0000
0000
0000
0000
0000
0000
0000
0000
,
0001
1000
0001
0100
0010
0100
0001
1000
0100
1000
0001
0010
0100
0010
0001
1000
,
0020
0000
1030
0000
,
1000
0001
1000
0100
0010
0100
1000
0001
0100
0001
1000
0010
0100
0010
1000
0001
,
0020
0000
0031
0000
,
0001
0000
0001
0010
0001
0000
1000
0000
,
2000
0000
3010
0000
,
1000
0002
0000
0020
,
0000
0200
0000
2000
,
0000
0000
0000
0000
,
0000
0000
0000
0000
0000
0000
0000
0000
0000
0000
0000
0000
0000
0000
0000
0000
0000
0000
0000
0000
0000
0000
0000
0000
0000
0000
0000
0000
0000
0000
0000
3333
1111
0000
0000
0000
0000
0000
0000
0000
0000
0000
0000
0000
0000
0000
0000
0000
0000
0000
0000
0000
0000
0000
0000
0000
0000
0000
0000
0000
0000
0000
0000
0000
,
1000
0100
0010
0001
0010
0001
1000
0001
1000
0010
0100
0001
0100
0001
1000
0001
,
1000
0100
0010
0001
0010
0001
1000
0001
1000
0010
0100
0001
0100
0001
1000
0001
,
1000
0100
0010
0100
1000
0001
0010
0100
1000
0100
0010
0001
0100
0010
0100
0001
,
1000
0010
0100
0001
0100
0001
1000
0001
1000
0100
0010
0001
1000
0100
0010
0001
,
1000
0001
0100
0001
1000
0010
0100
0001
1000
0010
1000
0010
1000
0001
1000
0001
,
0010
0100
1000
0100
0010
0001
0010
0001
1000
0001
1000
0001
0100
0010
1000
0001
,
0100
0001
0100
0010
1000
0001
0100
0001
1000
0100
1000
0100
0010
0001
1000
0001
,
0100
0001
0100
0010
1000
0001
0100
0001
1000
0100
1000
0100
0010
0001
1000
0001
,
1000
0010
0100
0001
0100
0001
1000
0001
1000
0100
0010
0001
0010
0001
1000
0001
,
1000
0010
0100
0001
0100
0001
1000
0001
1000
0100
0010
0001
0010
0001
1000
0001
,
1000
0010
0100
0010
1000
0001
0100
0010
1000
0010
0100
0001
0010
0100
0010
0001
,
1000
0100
0010
0001
0010
0001
1000
0001
1000
0010
0100
0001
1000
0010
0100
0001
,
1000
0001
0010
0001
1000
0100
0010
0001
1000
0100
1000
0100
1000
0001
1000
0001
,
0100
0001
0100
0010
1000
0010
1000
0001
1000
0001
1000
0001
0010
0001
0010
0100
,
1000
0010
0100
0001
0100
0001
1000
0001
1000
0100
0010
0001
0010
0001
1000
0001
,
1000
0010
0100
0001
0100
0001
1000
0001
1000
0100
0010
0001
0010
0001
1000
0001
,
2000
0100
3100
2000
,
0100
3100
1111
0000
,
0002
0100
0103
0002
,
0100
0103
1111
0000
,
111M
0000
11M1
0000
,
1M11
0000
M111
0000
,
1000
0010
0010
0010
,
0100
0001
0010
0100
,
2000
0000
0000
0000
0000
0000
0000
0000
0000
0000
0000
0000
0000
0000
0000
0000
0000
0000
0000
0000
0000
0000
0000
0000
0000
0000
0000
0000
0000
0000
0000
3000
0002
0000
0000
0000
0000
0000
0000
0000
0000
0000
0000
0000
0000
0000
0000
0000
0000
0000
0000
0000
0000
0000
0000
0000
0000
0000
0000
0000
0000
0000
0000
0000
,
2003
0000
0200
0010
,
0000
0001
0000
0010
,
0000
0001
0000
3300
,
0002
0000
2003
0000
,
3002
0000
0200
0010
,
0000
1000
0000
0010
,
0000
1000
0000
0303
,
1001
0001
0010
1100
,
0000
1000
0001
1000
,
0101
0001
0100
1010
,
0000
1000
0001
1000
,
1100
0100
0010
1001
,
0000
1000
0010
1000
,
1001
0001
0010
1100
,
0000
1000
0100
1000
,
0001
1000
0001
1000
0010
1000
0010
1000
,
0001
0100
0010
1000
0001
0100
0010
1000
,
0100
1000
0100
1000
0001
1000
0001
1000
,
0100
0010
0001
1000
0100
0010
0001
1000
,
0001
0001
1010
1000
,
0000
1000
0100
0010
,
0011
0001
1001
1000
,
0001
0100
0001
0100
0010
1000
0010
1000
,
0001
0000
0101
0000
,
0111
0000
1111
0000
,
1000
0000
0001
0000
0001
0010
0001
1000
,
0010
0000
0010
0000
0101
0000
0100
0010
,
1000
1000
1100
0100
,
0010
0001
0010
0000
0001
1000
0001
0000
,
0100
0000
0000
0000
0010
1000
0010
1000
0010
0000
0000
0000
1000
0001
1000
0001
,
1000
0000
0000
0000
0001
0010
0001
0010
0001
0000
0000
0000
1000
0100
1000
0100
,
1000
0000
0001
0100
0010
0000
0010
1000
,
0002
0000
1113
0000
,
0001
0000
0100
0001
0000
1000
0000
1000
,
0001
0000
0010
0000
0100
0000
0100
1000
,
0001
1000
0110
1001
,
0110
0000
1001
0000
0001
1000
0010
0000
,
0100
0000
0001
1000
0000
1000
0100
0000
,
1100
0000
1000
0001
0010
0000
0010
0000
,
0001
0000
0001
0100
0010
0000
1000
0000
,
0100
0010
0000
0100
0010
0000
1001
0000
,
0001
0100
0010
1000
0010
1000
0001
1000
0001
0010
0100
1000
0100
1000
0001
1000
,
0001
0100
0010
1000
0010
1000
0001
1000
0001
0010
0100
1000
0100
1000
0001
1000
,
0001
0100
0010
0100
0001
1000
0010
0100
0001
0100
0010
1000
0100
0010
0100
1000
,
0001
0010
0100
1000
0100
1000
0001
1000
0001
0100
0010
1000
0001
0100
0010
1000
,
0001
1000
0100
1000
0001
0010
0100
1000
0001
0010
0001
0010
0001
1000
0001
1000
,
0010
0100
0001
0100
0010
1000
0010
1000
0001
1000
0001
1000
0100
0010
0001
1000
,
0100
1000
0100
0010
0001
1000
0100
1000
0001
0100
0001
0100
0010
1000
0001
1000
,
0100
1000
0100
0010
0001
1000
0100
1000
0001
0100
0001
0100
0010
1000
0001
1000
,
0001
0010
0100
1000
0100
1000
0001
1000
0001
0100
0010
1000
0010
1000
0001
1000
,
0001
0010
0100
1000
0100
1000
0001
1000
0001
0100
0010
1000
0010
1000
0001
1000
,
0001
0010
0100
0010
0001
1000
0100
0010
0001
0010
0100
1000
0010
0100
0010
1000
,
0001
0100
0010
1000
0010
1000
0001
1000
0001
0010
0100
1000
0001
0010
0100
1000
,
0001
1000
0010
1000
0001
0100
0010
1000
0001
0100
0001
0100
0001
1000
0001
1000
,
0100
1000
0100
0010
0001
0010
0001
1000
0001
1000
0001
1000
0010
1000
0010
0100
,
0001
0010
0100
1000
0100
1000
0001
1000
0001
0100
0010
1000
0010
1000
0001
1000
,
0001
0010
0100
1000
0100
1000
0001
1000
0001
0100
0010
1000
0010
1000
0001
1000
,
0002
0100
0103
0002
,
0100
0103
1111
0000
,
2000
0100
3100
2000
,
0100
3100
1111
0000
,
M111
0000
1M11
0000
,
11M1
0000
111M
0000
,
0001
0100
0100
0100
,
0010
1000
0100
0010
,
1001
0000
0000
0000
;

//---------------dance-single - Gazebo----------------
#NOTES:
     dance-single:
     Gazebo:
     Hard:
     15:
     0.909,1.000,0.382,0.193,0.590,1106.000,75.000,38.000,12.000,35.000:
0000
0000
0000
0000
,
0000
0000
0000
0000
,
0000
0000
0000
0000
,
0000
0000
0000
0000
,
0000
0000
0000
0000
,
0000
0000
0000
0000
,
0000
0000
0000
0000
,
0000
0000
0000
0000
,
1000
1000
0011
1000
,
0000
1000
0011
1000
,
0001
0001
1010
0001
,
0000
0001
1010
0001
,
1000
1000
0101
1000
,
0000
1000
0101
1000
,
0001
0001
1100
0001
,
0000
0001
1100
0000
,
1000
0001
1000
0000
1001
0000
0001
1000
,
0010
0000
0010
0100
0010
0000
0100
0000
,
0001
1000
0001
0000
0011
0000
0010
0100
,
1000
1000
1001
0000
,
0001
0100
0010
1000
0010
0000
0100
0001
,
1000
0000
1000
0100
0010
0000
0000
0000
,
0001
0010
0001
0010
0001
0000
1000
0000
,
0010
0100
0101
0001
,
1000
0000
0100
1000
0000
0100
1000
0000
,
0001
0010
0001
1000
0001
0000
0001
0000
,
0100
0000
0100
0010
0100
0000
0010
0000
,
1000
0100
0110
0000
,
0001
0000
0001
0000
1100
0000
1000
0001
,
0100
0100
1010
0000
,
1000
1000
0011
0002
,
2000
0000
0000
0000
0000
0000
0000
0000
0000
0000
0000
0000
0000
0000
0000
0000
0000
0000
0000
0000
0000
0000
0000
0000
0000
0000
0000
0000
0000
0000
0000
3003
1001
0000
0000
0000
0000
0000
0000
0000
0000
0000
0000
0000
0000
0000
0000
0000
0000
0000
0000
0000
0000
0000
0000
0000
0000
0000
0000
0000
0000
0000
0000
0000
,
1000
0001
1000
0100
0010
0100
1000
0001
0100
0001
1000
0010
0100
0010
1000
0001
,
0020
0000
0031
0000
,
0001
1000
0001
0100
0010
0100
0001
1000
0100
1000
0001
0010
0100
0010
0001
1000
,
0020
0000
1030
0000
,
1000
0000
1000
0010
1000
0000
0001
0000
,
0002
0000
0013
0000
,
0001
2000
0000
0020
,
0000
0200
0000
0002
,
0000
0000
0000
0000
,
0000
0000
0000
0000
0000
0000
0000
0000
0000
0000
0000
0000
0000
0000
0000
0000
0000
0000
0000
0000
0000
0000
0000
0000
0000
0000
0000
0000
0000
0000
0000
3333
1111
0000
0000
0000
0000
0000
0000
0000
0000
0000
0000
0000
0000
0000
0000
0000
0000
0000
0000
0000
0000
0000
0000
0000
0000
0000
0000
0000
0000
0000
0000
0000
,
0001
0100
0010
1000
0010
1000
0001
1000
0001
0010
0100
1000
0100
1000
0001
1000
,
0001
0100
0010
1000
0010
1000
0001
1000
0001
0010
0100
1000
0100
1000
0001
1000
,
0001
0100
0010
0100
0001
1000
0010
0100
0001
0100
0010
1000
0100
0010
0100
1000
,
0001
0010
0100
1000
0100
1000
0001
1000
0001
0100
0010
1000
0001
0100
0010
1000
,
0001
0100
0001
1000
0001
0010
0100
0010
,
0001
1000
0100
1000
0010
1000
0001
0100
,
0001
0010
0100
1000
0001
0100
0010
1000
,
0001
0010
0100
1000
0001
0100
0010
1000
,
0001
0010
0100
1000
0100
1000
0001
1000
0001
0100
0010
1000
0010
1000
0001
1000
,
0001
0010
0100
1000
0100
1000
0001
1000
0001
0100
0010
1000
0010
1000
0001
1000
,
0001
0010
0100
0010
0001
1000
0100
0010
0001
0010
0100
1000
0010
0100
0010
1000
,
0001
0100
0010
1000
0010
1000
0001
1000
0001
0010
0100
1000
0001
0010
0100
1000
,
0001
0010
0001
1000
0001
0100
0010
0100
,
0001
1000
0010
1000
0100
1000
0010
1000
,
0001
0010
0100
1000
0001
0100
0010
1000
,
0001
0010
0100
1000
0001
0100
0010
1000
,
0002
0100
0103
0002
,
0100
0103
1111
0000
,
2000
0100
3100
2000
,
0100
3100
1111
0000
,
M111
0000
1M11
0000
,
11M1
0000
111M
0000
,
0001
0100
0100
0100
,
0010
1000
0100
0010
,
0001
1000
0001
0000
1001
0000
1000
0000
,
0010
0100
0010
1000
0001
0000
0001
0000
,
1000
0100
0010
0000
0011
0000
0001
1000
,
0001
0000
0001
0100
0001
0000
0000
0000
,
1001
1000
1100
0100
,
0010
0000
0001
1000
0001
0000
0000
0000
,
0100
0100
1010
1000
,
0100
0010
0011
1000
,
0001
0100
1010
1000
,
0001
0001
0011
1000
,
0001
0001
0110
1000
,
0001
0000
1010
0010
,
1000
0001
0011
0010
,
0100
0100
1001
0000
,
0001
0001
1100
1000
,
0020
0000
0000
0000
0000
0000
0000
0000
0000
0000
0000
0000
0000
0000
0000
0000
0000
0000
0000
0000
0000
0000
0000
0000
0000
0000
0000
0000
0000
0000
0000
0030
1010
0000
0000
0000
0000
0000
0000
0000
0000
0000
0000
0000
0000
0000
0000
0000
0000
0000
0000
0000
0000
0000
0000
0000
0000
0000
0000
0000
0000
0000
0000
0000
,
0001
1000
0001
0100
0010
0100
0001
1000
0100
1000
0001
0010
0100
0010
0001
1000
,
0020
0000
1030
0000
,
1000
0001
1000
0100
0010
0100
1000
0001
0100
0001
1000
0010
0100
0010
1000
0001
,
0020
0000
0031
0000
,
0001
0000
0001
0010
0001
0000
1000
0000
,
2000
0000
3010
0000
,
1000
0002
0000
0020
,
0000
0200
0000
2000
,
0000
0000
0000
0000
,
0000
0000
0000
0000
0000
0000
0000
0000
0000
0000
0000
0000
0000
0000
0000
0000
0000
0000
0000
0000
0000
0000
0000
0000
0000
0000
0000
0000
0000
0000
0000
3333
1111
0000
0000
0000
0000
0000
0000
0000
0000
0000
0000
0000
0000
0000
0000
0000
0000
0000
0000
0000
0000
0000
0000
0000
0000
0000
0000
0000
0000
0000
0000
0000
,
1000
0100
0010
0001
0010
0001
1000
0001
1000
0010
0100
0001
0100
0001
1000
0001
,
1000
0100
0010
0001
0010
0001
1000
0001
1000
0010
0100
0001
0100
0001
1000
0001
,
1000
0100
0010
0100
1000
0001
0010
0100
1000
0100
0010
0001
0100
0010
0100
0001
,
1000
0010
0100
0001
0100
0001
1000
0001
1000
0100
0010
0001
1000
0100
0010
0001
,
1000
0100
1000
0001
1000
0010
0100
0010
,
1000
0001
0100
0001
0010
0001
1000
0100
,
1000
0010
0100
0001
1000
0100
0010
0001
,
1000
0010
0100
0001
1000
0100
0010
0001
,
1000
0010
0100
0001
0100
0001
1000
0001
1000
0100
0010
0001
0010
0001
1000
0001
,
1000
0010
0100
0001
0100
0001
1000
0001
1000
0100
0010
0001
0010
0001
1000
0001
,
1000
0010
0100
0010
1000
0001
0100
0010
1000
0010
0100
0001
0010
0100
0010
0001
,
1000
0100
0010
0001
0010
0001
1000
0001
1000
0010
0100
0001
1000
0010
0100
0001
,
1000
0010
1000
0001
1000
0100
0010
0100
,
1000
0001
0010
0001
0100
0001
0010
0001
,
1000
0010
0100
0001
1000
0100
0010
0001
,
1000
0010
0100
0001
1000
0100
0010
0001
,
2000
0100
3100
2000
,
0100
3100
1111
0000
,
0002
0100
0103
0002
,
0100
0103
1111
0000
,
111M
0000
11M1
0000
,
1M11
0000
M111
0000
,
1000
0010
0010
0010
,
0100
0001
0010
0100
,
2000
0000
0000
0000
0000
0000
0000
0000
0000
0000
0000
0000
0000
0000
0000
0000
0000
0000
0000
0000
0000
0000
0000
0000
0000
0000
0000
0000
0000
0000
0000
3000
0002
0000
0000
0000
0000
0000
0000
0000
0000
0000
0000
0000
0000
0000
0000
0000
0000
0000
0000
0000
0000
0000
0000
0000
0000
0000
0000
0000
0000
0000
0000
0000
,
2003
0000
0200
0010
,
0000
0001
0000
0010
,
0000
0001
0000
3300
,
0002
0000
2003
0000
,
3002
0000
0200
0010
,
0000
1000
0000
0010
,
0000
1000
0000
0303
,
1001
0001
0010
1100
,
0000
1000
0001
1000
,
0101
0001
0100
1010
,
0000
1000
0001
1000
,
1100
0100
0010
1001
,
0000
1000
0010
1000
,
1001
0001
0010
1100
,
0000
1000
0100
1000
,
0001
1000
0001
1000
0010
1000
0010
1000
,
0001
0100
0010
1000
0001
0100
0010
1000
,
0100
1000
0100
1000
0001
1000
0001
1000
,
0100
0010
0001
1000
0100
0010
0001
1000
,
0001
0001
1010
1000
,
0000
1000
0100
0010
,
0011
0001
1001
1000
,
0001
0100
0001
0100
0010
1000
0010
1000
,
0001
0000
0101
0000
,
0111
0000
1111
0000
,
1000
0000
0001
0000
0001
0010
0001
1000
,
0010
0000
0010
0000
0101
0000
0100
0010
,
1000
1000
1100
0100
,
0010
0001
0010
0000
0001
1000
0001
0000
,
0100
0000
0000
0000
0010
1000
0010
1000
0010
0000
0000
0000
1000
0001
1000
0001
,
1000
0000
0000
0000
0001
0010
0001
0010
0001
0000
0000
0000
1000
0100
1000
0100
,
1000
0000
0001
0100
0010
0000
0010
1000
,
0002
0000
1113
0000
,
0001
0000
0100
0001
0000
1000
0000
1000
,
0001
0000
0010
0000
0100
0000
0100
1000
,
0001
1000
0110
1001
,
0110
0000
1001
0000
0001
1000
0010
0000
,
0100
0000
0001
1000
0000
1000
0100
0000
,
1100
0000
1000
0001
0010
0000
0010
0000
,
0001
0000
0001
0100
0010
0000
1000
0000
,
0100
0010
0000
0100
0010
0000
1001
0000
,
0001
0100
0010
1000
0010
1000
0001
1000
0001
0010
0100
1000
0100
1000
0001
1000
,
0001
0100
0010
1000
0010
1000
0001
1000
0001
0010
0100
1000
0100
1000
0001
1000
,
0001
0100
0010
0100
0001
1000
0010
0100
0001
0100
0010
1000
0100
0010
0100
1000
,
0001
0010
0100
1000
0100
1000
0001
1000
0001
0100
0010
1000
0001
0100
0010
1000
,
0001
0100
0001
1000
0001
0010
0100
0010
,
0001
1000
0100
1000
0010
1000
0001
0100
,
0001
0010
0100
1000
0001
0100
0010
1000
,
0001
0010
0100
1000
0001
0100
0010
1000
,
0001
0010
0100
1000
0100
1000
0001
1000
0001
0100
0010
1000
0010
1000
0001
1000
,
0001
0010
0100
1000
0100
1000
0001
1000
0001
0100
0010
1000
0010
1000
0001
1000
,
0001
0010
0100
0010
0001
1000
0100
0010
0001
0010
0100
1000
0010
0100
0010
1000
,
0001
0100
0010
1000
0010
1000
0001
1000
0001
0010
0100
1000
0001
0010
0100
1000
,
0001
0010
0001
1000
0001
0100
0010
0100
,
0001
1000
0010
1000
0100
1000
0010
1000
,
0001
0010
0100
1000
0001
0100
0010
1000
,
0001
0010
0100
1000
0001
0100
0010
1000
,
0002
0100
0103
0002
,
0100
0103
1111
0000
,
2000
0100
3100
2000
,
0100
3100
1111
0000
,
M111
0000
1M11
0000
,
11M1
0000
111M
0000
,
0001
0100
0100
0100
,
0010
1000
0100
0010
,
1001
0000
0000
0000
;

//---------------dance-single - Gazebo----------------
#NOTES:
     dance-single:
     Gazebo:
     Medium:
     12:
     0.871,1.000,0.371,0.193,1.000,1088.000,73.000,38.000,14.000,0.000:
0000
0000
0000
0000
,
0000
0000
0000
0000
,
0000
0000
0000
0000
,
0000
0000
0000
0000
,
0000
0000
0000
0000
,
0000
0000
0000
0000
,
0000
0000
0000
0000
,
0000
0000
0000
0000
,
1000
1000
0011
1000
,
0000
1000
0011
1000
,
0001
0001
1010
0001
,
0000
0001
1010
0001
,
1000
1000
0101
1000
,
0000
1000
0101
1000
,
0001
0001
1100
0001
,
0000
0001
1100
0000
,
1000
0001
1000
0000
1001
0000
0001
1000
,
0010
0000
0010
0100
0010
0000
0100
0000
,
0001
1000
0001
0000
0011
0000
0010
0100
,
1000
1000
1001
0000
,
0001
0100
0010
1000
0010
0000
0100
0001
,
1000
0000
1000
0100
0010
0000
0000
0000
,
0001
0010
0001
0010
0001
0000
1000
0000
,
0010
0100
0101
0001
,
1000
0000
0100
1000
0000
0100
1000
0000
,
0001
0010
0001
1000
0001
0000
0001
0000
,
0100
0000
0100
0010
0100
0000
0010
0000
,
1000
0100
0110
0000
,
0001
0000
0001
0000
1100
0000
1000
0001
,
0100
0100
1010
0000
,
1000
1000
0011
0002
,
2000
0000
0000
3003
1001
0000
0000
0000
,
1000
0100
1000
0001
0010
0001
1000
0010
1000
0001
0100
0001
,
0020
0000
0031
0000
,
0001
0100
0001
1000
0010
1000
0001
0010
0001
1000
0100
1000
,
0020
0000
1030
0000
,
1000
0000
1000
0010
1000
0000
0001
0000
,
0002
0000
0013
0000
,
0002
2003
0000
3020
,
0000
0230
0000
0302
,
0000
0000
0000
0000
,
0000
0003
1001
0000
,
0001
0100
0001
0100
0010
1000
0001
0010
0001
0010
0100
1000
,
0001
0100
0001
0100
0010
1000
0001
0010
0001
0010
0100
1000
,
0001
0100
0010
0100
0001
1000
0100
1000
0100
0010
0001
1000
,
0001
0100
0001
0100
0010
1000
0001
0010
0100
1000
0100
0010
,
0001
1000
0010
1000
0001
0100
0001
1000
0001
1000
0100
0010
,
0001
1000
0100
1000
0001
0010
0001
1000
0001
1000
0100
1000
,
0001
0100
0010
0100
0010
1000
0001
0010
0100
1000
0100
1000
,
0001
0100
0010
0100
0010
1000
0001
0010
0100
1000
0100
1000
,
0001
0100
0001
0100
0010
1000
0001
0010
0001
0010
0100
1000
,
0001
0100
0001
0100
0010
1000
0001
0010
0001
0010
0100
1000
,
0001
0100
0001
1000
0010
1000
0100
1000
0001
0010
0001
1000
,
0001
0100
0001
0100
0010
1000
0001
0010
0100
1000
0100
0010
,
0001
1000
0010
1000
0001
0100
0001
1000
0001
1000
0100
0010
,
0001
1000
0100
1000
0001
0010
0001
1000
0010
1000
0001
0100
,
0001
0010
0100
0010
0100
1000
0001
0100
0010
1000
0010
1000
,
0001
0010
0100
0010
0100
1000
0001
0100
0010
1000
0010
1000
,
0002
0100
0103
0002
,
0100
0103
1MM1
0000
,
2000
0100
3100
2000
,
0100
3100
1MM1
0000
,
0101
0000
1010
0000
,
1100
0000
0011
0000
,
0001
0100
0100
0100
,
0010
1000
0100
0010
,
0001
1000
0001
0000
1001
0000
1000
0000
,
0010
0100
0010
1000
0001
0000
0001
0000
,
1000
0100
0010
0000
0011
0000
0001
1000
,
0001
0000
0001
0100
0001
0000
0000
0000
,
1001
1000
1100
0100
,
0010
0000
0001
1000
0001
0000
0000
0000
,
0100
0100
1010
1000
,
0100
0010
0011
1000
,
0001
0100
1010
1000
,
0001
0001
0011
1000
,
0001
0001
0110
1000
,
0001
0000
1010
0010
,
1000
0001
0011
0010
,
0100
0100
1001
0000
,
0001
0001
1100
1000
,
0020
0000
0000
0030
1010
0000
0000
0000
,
0001
0100
0001
1000
0010
1000
0001
0010
0001
1000
0100
1000
,
0020
0000
1030
0000
,
1000
0100
1000
0001
0010
0001
1000
0010
1000
0001
0100
0001
,
0020
0000
0031
0000
,
0001
0000
0001
0010
0001
0000
1000
0000
,
2000
0000
3010
0000
,
2000
3002
0000
0023
,
0000
0230
0000
2300
,
0000
0000
0000
0000
,
0000
3000
1001
0000
,
1000
0100
1000
0100
0010
0001
1000
0010
1000
0010
0100
0001
,
1000
0100
1000
0100
0010
0001
1000
0010
1000
0010
0100
0001
,
1000
0100
0010
0100
1000
0001
0100
0001
0100
0010
1000
0001
,
1000
0100
1000
0100
0010
0001
1000
0010
0100
0001
0100
0010
,
1000
0001
0010
0001
1000
0100
1000
0001
1000
0001
0100
0010
,
1000
0001
0100
0001
1000
0010
1000
0001
1000
0001
0100
0001
,
1000
0100
0010
0100
0010
0001
1000
0010
0100
0001
0100
0001
,
1000
0100
0010
0100
0010
0001
1000
0010
0100
0001
0100
0001
,
1000
0100
1000
0100
0010
0001
1000
0010
1000
0010
0100
0001
,
1000
0100
1000
0100
0010
0001
1000
0010
1000
0010
0100
0001
,
1000
0100
1000
0001
0010
0001
0100
0001
1000
0010
1000
0001
,
1000
0100
1000
0100
0010
0001
1000
0010
0100
0001
0100
0010
,
1000
0001
0010
0001
1000
0100
1000
0001
1000
0001
0100
0010
,
1000
0001
0100
0001
1000
0010
1000
0001
0010
0001
1000
0100
,
1000
0010
0100
0010
0100
0001
1000
0100
0010
0001
0010
0001
,
1000
0010
0100
0010
0100
0001
1000
0100
0010
0001
0010
0001
,
2000
0100
3100
2000
,
0100
3100
1MM1
0000
,
0002
0100
0103
0002
,
0100
0103
1MM1
0000
,
0101
0000
1010
0000
,
1100
0000
0011
0000
,
1000
0010
0010
0010
,
0100
0001
0010
0100
,
2000
0000
0000
0000
0000
0000
0000
0000
0000
0000
0000
0000
0000
0000
0000
0000
0000
0000
0000
0000
0000
0000
0000
0000
0000
0000
0000
0000
0000
0000
0000
3000
0002
0000
0000
0000
0000
0000
0000
0000
0000
0000
0000
0000
0000
0000
0000
0000
0000
0000
0000
0000
0000
0000
0000
0000
0000
0000
0000
0000
0000
0000
0000
0000
,
0203
0000
0010
0001
,
0000
0010
0000
0001
,
0000
0010
0000
0300
,
0002
0000
2003
0000
,
3200
0000
0010
1000
,
0000
0010
0000
1000
,
0000
0010
0000
0300
,
1001
0001
0010
1100
,
0000
1000
0001
1000
,
0101
0001
0100
1010
,
0000
1000
0001
1000
,
1100
0100
0010
1001
,
0000
1000
0010
1000
,
1001
0001
0010
1100
,
0000
1000
0100
1000
,
0001
1000
0001
1000
0010
1000
0010
1000
,
0001
0100
0010
1000
0001
0100
0010
1000
,
0100
1000
0100
1000
0001
1000
0001
1000
,
0100
0010
0001
1000
0100
0010
0001
1000
,
0001
0001
1010
1000
,
0000
1000
0100
0010
,
0011
0001
1001
1000
,
0001
0100
0001
0100
0010
1000
0010
1000
,
0001
0000
0000
0000
0101
0000
0000
0001
,
0100
0001
0000
0000
1001
0000
0000
0000
,
1000
0000
0001
0000
0001
0010
0001
1000
,
0010
0000
0010
0000
0101
0000
0100
0010
,
1000
1000
1100
0100
,
0010
0001
0010
0000
0001
1000
0001
0000
,
0100
0000
0000
0010
1000
0010
1000
0000
0000
0001
1000
0001
,
1000
0000
0000
0001
0010
0001
0010
0000
0000
0100
1000
0100
,
1000
0000
0001
0100
0010
0000
0010
1000
,
0002
0000
1MM3
0000
,
0001
0000
0100
0001
0000
1000
0000
1000
,
0001
0000
0010
0000
0100
0000
0100
1000
,
0001
1000
0110
1001
,
0110
0000
1001
0000
0001
1000
0010
0000
,
0100
0000
0001
1000
0000
1000
0100
0000
,
1100
0000
1000
0001
0010
0000
0010
0000
,
0001
0000
0001
0100
0010
0000
1000
0000
,
0100
0010
0000
0100
0010
0000
1001
0000
,
0001
0100
0001
0100
0010
1000
0001
0010
0001
0010
0100
1000
,
0001
0100
0001
0100
0010
1000
0001
0010
0001
0010
0100
1000
,
0001
0100
0010
0100
0001
1000
0100
1000
0100
0010
0001
1000
,
0001
0100
0001
0100
0010
1000
0001
0010
0100
1000
0100
0010
,
0001
1000
0010
1000
0001
0100
0001
1000
0001
1000
0100
0010
,
0001
1000
0100
1000
0001
0010
0001
1000
0001
1000
0100
1000
,
0001
0100
0010
0100
0010
1000
0001
0010
0100
1000
0100
1000
,
0001
0100
0010
0100
0010
1000
0001
0010
0100
1000
0100
1000
,
0001
0100
0001
0100
0010
1000
0001
0010
0001
0010
0100
1000
,
0001
0100
0001
0100
0010
1000
0001
0010
0001
0010
0100
1000
,
0001
0100
0001
1000
0010
1000
0100
1000
0001
0010
0001
1000
,
0001
0100
0001
0100
0010
1000
0001
0010
0100
1000
0100
0010
,
0001
1000
0010
1000
0001
0100
0001
1000
0001
1000
0100
0010
,
0001
1000
0100
1000
0001
0010
0001
1000
0010
1000
0001
0100
,
0001
0010
0100
0010
0100
1000
0001
0100
0010
1000
0010
1000
,
0001
0010
0100
0010
0100
1000
0001
0100
0010
1000
0010
1000
,
0002
0100
0103
0002
,
0100
0103
1MM1
0000
,
2000
0100
3100
2000
,
0100
3100
1MM1
0000
,
0101
0000
1010
0000
,
1100
0000
0011
0000
,
0001
0100
0100
0100
,
0010
1000
0100
0010
,
1001
0000
0000
0000
;

//---------------dance-single - Gazebo----------------
#NOTES:
     dance-single:
     Gazebo:
     Easy:
     10:
     0.714,0.787,0.371,0.209,0.000,869.000,73.000,41.000,14.000,0.000:

0000
0000
0000
0000
,
0000
0000
0000
0000
,
0000
0000
0000
0000
,
0000
0000
0000
0000
,
0000
0000
0000
0000
,
0000
0000
0000
0000
,
0000
0000
0000
0000
,
0000
0000
0000
0000
,
1000
1000
0011
1000
,
0000
1000
0011
1000
,
0001
0001
1010
0001
,
0000
0001
1010
0001
,
1000
1000
0101
1000
,
0000
1000
0101
1000
,
0001
0001
1100
0001
,
0000
0001
1100
0000
,
1000
0001
1000
0000
1001
0000
0001
1000
,
0010
0000
0010
0100
0010
0000
0100
0000
,
0001
1000
0001
0000
0011
0000
0010
0100
,
1000
1000
1001
0000
,
0001
0100
0010
1000
0010
0000
0100
0001
,
1000
0000
1000
0100
0010
0000
0000
0000
,
0001
0010
0001
0010
0001
0000
1000
0000
,
0010
0100
0101
0001
,
1000
0000
0100
1000
0000
0100
1000
0000
,
0001
0010
0001
1000
0001
0000
0001
0000
,
0100
0000
0100
0010
0100
0000
0010
0000
,
1000
0100
0110
0000
,
0001
0000
0001
0000
1100
0000
1000
0001
,
0100
0100
1010
0000
,
1000
1000
0011
0002
,
2000
0000
0000
3003
1001
0000
0000
0000
,
1000
0001
1000
0010
1000
0001
0100
0001
,
0020
0000
0031
0000
,
0001
1000
0001
0010
0001
1000
0100
1000
,
0020
0000
1030
0000
,
1000
0000
1000
0010
1000
0000
0001
0000
,
0002
0000
0013
0000
,
0002
2003
0000
3020
,
0000
0230
0000
0302
,
0000
0000
0000
0000
,
0000
0003
1001
0000
,
0001
0010
0001
1000
0001
0100
0010
1000
,
0001
0010
0001
1000
0001
0100
0010
1000
,
0001
0010
0001
1000
0100
1000
0010
1000
,
0001
0010
0001
1000
0001
0100
0010
0100
,
0001
1000
0100
0010
0100
1000
0001
0010
,
0001
0100
0001
1000
0010
1000
0001
0100
,
0001
0010
0100
1000
0001
0100
0010
1000
,
0001
0010
0100
1000
0001
0100
0010
1000
,
0001
0010
0001
1000
0001
0100
0010
1000
,
0001
0010
0001
1000
0001
0100
0010
1000
,
0001
0010
0001
1000
0100
1000
0001
0100
,
0001
0010
0001
1000
0001
0100
0010
0100
,
0001
1000
0010
1000
0001
0100
0001
1000
,
0001
0010
0100
0010
0001
1000
0100
1000
,
0001
0100
0010
1000
0001
0010
0100
1000
,
0001
0100
0010
1000
0001
0010
0100
1000
,
0002
0100
0103
0002
,
0100
0103
1MM1
0000
,
2000
0100
3100
2000
,
0100
3100
1MM1
0000
,
0101
0000
1010
0000
,
1100
0000
0011
0000
,
0001
0100
0100
0100
,
0010
1000
0100
0010
,
0001
1000
0001
0000
1001
0000
1000
0000
,
0010
0100
0010
1000
0001
0000
0001
0000
,
1000
0100
0010
0000
0011
0000
0001
1000
,
0001
0000
0001
0100
0001
0000
0000
0000
,
1001
1000
1100
0100
,
0010
0000
0001
1000
0001
0000
0000
0000
,
0100
0100
1010
1000
,
0100
0010
0011
1000
,
0001
0100
1010
1000
,
0001
0001
0011
1000
,
0001
0001
0110
1000
,
0001
0000
1010
0010
,
1000
0001
0011
0010
,
0100
0100
1001
0000
,
0001
0001
1100
1000
,
0020
0000
0000
0030
1010
0000
0000
0000
,
0001
1000
0001
0010
0001
1000
0100
1000
,
0020
0000
1030
0000
,
1000
0001
1000
0010
1000
0001
0100
0001
,
0020
0000
0031
0000
,
0001
0000
0001
0010
0001
0000
1000
0000
,
2000
0000
3010
0000
,
2000
3002
0000
0023
,
0000
0230
0000
2300
,
0000
0000
0000
0000
,
0000
3000
1001
0000
,
1000
0010
1000
0001
1000
0100
0010
0001
,
1000
0010
1000
0001
1000
0100
0010
0001
,
1000
0010
1000
0001
0100
0001
0010
0001
,
1000
0010
1000
0001
1000
0100
0010
0100
,
1000
0001
0100
0010
0100
0001
1000
0010
,
1000
0100
1000
0001
0010
0001
1000
0100
,
1000
0010
0100
0001
1000
0100
0010
0001
,
1000
0010
0100
0001
1000
0100
0010
0001
,
1000
0010
1000
0001
1000
0100
0010
0001
,
1000
0010
1000
0001
1000
0100
0010
0001
,
1000
0010
1000
0001
0100
0001
1000
0100
,
1000
0010
1000
0001
1000
0100
0010
0100
,
1000
0001
0010
0001
1000
0100
1000
0001
,
1000
0010
0100
0010
1000
0001
0100
0001
,
1000
0100
0010
0001
1000
0010
0100
0001
,
1000
0100
0010
0001
1000
0010
0100
0001
,
2000
0100
3100
2000
,
0100
3100
1MM1
0000
,
0002
0100
0103
0002
,
0100
0103
1MM1
0000
,
0101
0000
1010
0000
,
1100
0000
0011
0000
,
1000
0010
0010
0010
,
0100
0001
0010
0100
,
2000
0000
0000
0000
0000
0000
0000
0000
0000
0000
0000
0000
0000
0000
0000
0000
0000
0000
0000
0000
0000
0000
0000
0000
0000
0000
0000
0000
0000
0000
0000
3000
0002
0000
0000
0000
0000
0000
0000
0000
0000
0000
0000
0000
0000
0000
0000
0000
0000
0000
0000
0000
0000
0000
0000
0000
0000
0000
0000
0000
0000
0000
0000
0000
,
0203
0000
0010
0001
,
0000
0010
0000
0001
,
0000
0010
0000
0300
,
0002
0000
2003
0000
,
3200
0000
0010
1000
,
0000
0010
0000
1000
,
0000
0010
0000
0300
,
1001
0001
0010
1100
,
0000
1000
0001
1000
,
0101
0001
0100
1010
,
0000
1000
0001
1000
,
1100
0100
0010
1001
,
0000
1000
0010
1000
,
1001
0001
0010
1100
,
0000
1000
0100
1000
,
0001
1000
0001
1000
0010
1000
0010
1000
,
0001
0100
0010
1000
0001
0100
0010
1000
,
0100
1000
0100
1000
0001
1000
0001
1000
,
0100
0010
0001
1000
0100
0010
0001
1000
,
0001
0001
1010
1000
,
0000
1000
0100
0010
,
0011
0001
1001
1000
,
0001
0100
0001
0100
0010
1000
0010
1000
,
0001
0000
0000
0000
0101
0000
0000
0001
,
0100
0001
0000
0000
1001
0000
0000
0000
,
1000
0000
0001
0000
0001
0010
0001
1000
,
0010
0000
0010
0000
0101
0000
0100
0010
,
1000
1000
1100
0100
,
0010
0001
0010
0000
0001
1000
0001
0000
,
0100
0000
0020
0000
0000
0030
0200
0000
,
0000
0300
0010
0000
0010
0000
0200
0000
,
0000
0300
0001
1000
0010
0000
0010
1000
,
0002
0000
1MM3
0000
,
0001
0000
0100
0001
0000
1000
0000
1000
,
0001
0000
0010
0000
0100
0000
0100
1000
,
0001
1000
0110
1001
,
0110
0000
1001
0000
0001
1000
0010
0000
,
0100
0000
0001
1000
0000
1000
0100
0000
,
1100
0000
1000
0001
0010
0000
0010
0000
,
0001
0000
0001
0100
0010
0000
1000
0000
,
0100
0010
0000
0100
0010
0000
1001
0000
,
0001
0010
0001
1000
0001
0100
0010
1000
,
0001
0010
0001
1000
0001
0100
0010
1000
,
0001
0010
0001
1000
0100
1000
0010
1000
,
0001
0010
0001
1000
0001
0100
0010
0100
,
0001
1000
0100
0010
0100
1000
0001
0010
,
0001
0100
0001
1000
0010
1000
0001
0100
,
0001
0010
0100
1000
0001
0100
0010
1000
,
0001
0010
0100
1000
0001
0100
0010
1000
,
0001
0010
0001
1000
0001
0100
0010
1000
,
0001
0010
0001
1000
0001
0100
0010
1000
,
0001
0010
0001
1000
0100
1000
0001
0100
,
0001
0010
0001
1000
0001
0100
0010
0100
,
0001
1000
0010
1000
0001
0100
0001
1000
,
0001
0010
0100
0010
0001
1000
0100
1000
,
0001
0100
0010
1000
0001
0010
0100
1000
,
0001
0100
0010
1000
0001
0010
0100
1000
,
0002
0100
0103
0002
,
0100
0103
1MM1
0000
,
2000
0100
3100
2000
,
0100
3100
1MM1
0000
,
0101
0000
1010
0000
,
1100
0000
0011
0000
,
0001
0100
0100
0100
,
0010
1000
0100
0010
,
1001
0000
0000
0000
;
