#TITLE:Hellscaper;
#SUBTITLE:;
#ARTIST:L.E.D. LIGHT-G;
#TITLETRANSLIT:;
#SUBTITLETRANSLIT:;
#ARTISTTRANSLIT:;
#CREDIT:;
#BANNER:Hellscaper-bn.png;
#BACKGROUND:Hellscaper-bg.png;
#LYRICSPATH:;
#CDTITLE:Sesshoumaru.jpg;
#MUSIC:L.E.D LIGHT-G - Hellscaper.mp3;
#OFFSET:-0.073;
#SAMPLESTART:7.080;
#SAMPLELENGTH:12.000;
#SELECTABLE:YES;
#BPMS:0.000=400.006;
#STOPS:;
#BGCHANGES:;
// cache tags:
#FIRSTBEAT:0.000;
#LASTBEAT:640.000;
#SONGFILENAME:Songs/IzzySM Keyboard Mega Pack/L.E.D LIGHT-G - Hellscaper/L.E.D LIGHT-G - Hellscaper.sm;
#HASMUSIC:1;
#HASBANNER:1;
#MUSICLENGTH:97.044;
// end cache tags

//---------------dance-single - ----------------
#NOTES:
     dance-single:
     :
     Challenge:
     11:
     1.000,1.000,1.000,0.659,0.000,682.000,328.000,64.000,0.000,0.000:
2002
0000
0000
3003
,
0220
0000
0000
0330
,
2200
3300
0022
0000
,
0000
0033
2020
0000
,
0000
3030
0101
1010
,
0101
0000
0000
0000
,
2200
3300
0220
0330
,
0022
0033
0202
0303
,
2200
3300
0220
0330
,
0022
0033
0202
0303
,
0000
0000
1000
0100
0010
0001
1000
0100
,
0010
0001
1000
0100
0010
0001
1000
0100
,
0010
0001
1000
0000
0000
0000
0000
0000
,
1001
1001
0010
0010
,
1001
0010
0010
0010
,
0010
1001
0100
1001
,
0010
1001
0010
0010
,
1001
1001
0100
0100
,
1001
0100
0100
0100
,
0100
1001
0010
1001
,
0100
1001
0100
0100
,
0110
0110
0001
0001
,
0110
0001
0001
0001
,
0001
0110
1000
0110
,
0001
0110
0001
0001
,
0110
0110
1000
1000
,
0110
1000
1000
1000
,
1000
0110
1000
0110
,
0001
0110
0000
0000
,
1001
0110
1001
0110
,
0000
1001
0000
0000
0000
0000
0000
0000
,
0000
0000
0000
0000
,
0000
0000
0000
0000
0001
0010
0100
1000
,
1100
1100
0011
0011
,
0101
0101
0110
0110
,
1010
1010
1100
1100
,
0011
0011
0110
0110
,
1100
1100
0011
0011
,
1100
1100
1010
1010
,
0101
0101
0011
0011
,
1100
1100
1001
1001
,
1000
0100
0010
0001
1000
0100
0010
0001
,
1000
0100
0010
0001
1000
0100
0010
0001
,
1100
0011
1100
0011
,
1100
0011
1100
0011
,
0001
0010
0100
1000
0001
0010
0100
1000
,
0001
0010
0100
1000
0001
0010
0100
1000
,
0110
1001
0110
1001
,
0110
1001
0110
1001
,
0100
0010
1000
0001
0100
0010
1000
0001
,
0100
0010
1000
0001
0100
0010
1000
0001
,
1010
0101
1010
0101
,
1010
0101
1010
0101
,
0010
0100
0001
1000
0010
0100
0001
1000
,
0010
0100
0001
1000
0010
0100
0001
0000
,
0110
1001
0110
1001
,
0110
1001
0110
1001
,
1000
0001
0100
0010
1000
0001
0100
0010
,
1000
0001
0100
0010
1000
0001
0100
0010
,
1001
0000
0000
0000
,
0000
0000
0000
0000
,
1100
0011
0000
0110
,
0000
0101
0000
0010
,
1100
0001
1100
0010
,
1100
0001
1100
0000
,
1100
0011
0000
0110
,
0000
0101
0000
1000
,
0101
0010
0101
1000
,
0101
0010
0101
0000
,
1100
0011
0000
0110
,
0000
0101
0000
1000
,
0110
0001
0110
1000
,
0110
0001
0110
0000
,
1100
0011
0000
0110
,
0000
0101
0000
0000
,
0001
0010
0100
1000
0010
0100
0001
1000
,
0100
0010
0001
1000
0010
0100
0001
1000
,
1001
1001
1100
1100
,
0110
0110
1001
1001
,
0110
0110
0011
0011
,
1100
1100
0011
1100
,
1100
0011
1100
0011
,
1100
0011
1100
0011
,
1001
1001
1100
1100
,
1010
1010
1100
0011
,
1100
0011
1100
0101
,
1010
0101
1010
0101
,
1010
1001
0011
1100
,
1010
1001
1001
0011
,
1100
1001
0011
1100
,
0011
1001
1010
1100
,
0011
0011
1100
1100
,
0110
0110
1001
0000
,
0001
0010
0001
0010
0001
0010
0001
0010
,
0100
1000
0100
1000
0100
1000
0100
1000
,
0001
0010
0100
1000
0001
0010
0100
1000
,
0001
0010
0100
1000
0001
0010
0100
1000
,
0010
1000
0010
1000
0010
1000
0010
1000
,
0100
1000
0100
1000
0100
1000
0100
1000
,
0001
0010
0100
1000
0010
0100
0001
1000
,
0010
0100
0001
1000
0010
0000
0000
0000
,
1001
0000
0110
0000
,
0011
0011
1100
1100
,
0000
2002
3003
0022
,
0033
0202
0303
2020
,
3030
2200
3300
0022
,
0033
0220
0330
2200
,
3300
0022
0033
2020
,
3030
0220
0330
0022
,
0033
0220
0330
2200
,
3300
0022
0033
0000
,
1100
0001
1100
1100
,
0010
1100
0001
1100
,
1100
1100
0010
1100
,
1100
0001
0001
0001
,
1100
0010
1100
1100
,
0001
1100
0010
1100
,
1100
1100
0001
1100
,
2200
0000
0000
3300
,
1100
0110
0011
1001
,
0001
0010
0100
1000
0001
0010
0100
1000
,
1001
1001
1001
1001
,
1000
0100
0010
0001
1000
0100
0010
0001
,
1001
0011
0110
1100
,
0001
0010
0100
1000
0001
0010
0100
1000
,
0110
0110
0110
0110
,
1000
0100
0010
0001
1000
0100
0010
0001
,
1000
0100
1000
0100
1000
0100
1000
0100
,
1100
0110
0011
1001
,
0001
0010
0100
1000
0001
0010
0100
1000
,
1001
1001
1001
1001
,
1000
0100
0010
0001
1000
0100
0010
0001
,
1001
0011
0110
1100
,
0001
0010
0100
1000
0001
0010
0100
1000
,
2002
0000
0000
3003
,
0220
0000
0000
0330
,
1100
0011
1100
0011
1100
0000
0000
0000
,
0000
0000
2002
0000
,
0000
0000
0000
0000
,
3003
0000
0000
0000
1000
0001
1000
0001
,
1010
0101
1010
0101
,
1010
0000
1100
0000
0100
1000
0100
1000
,
0101
0101
0110
1010
,
0110
0000
1001
0000
0001
0100
0001
0100
,
1001
1001
0110
1001
,
0110
0000
1001
0000
0010
0001
0010
0001
,
1010
1001
0110
0101
,
1100
0110
1001
0000
,
1001
0000
0110
0000
,
1001
0000
0000
0000
1000
0001
1000
0001
,
1000
0101
1100
0101
,
1100
0000
0101
0000
1000
0001
1000
0001
,
1010
0110
1010
0110
,
1010
0000
0110
0000
1000
0001
1000
0001
,
1010
0101
1001
0101
,
1001
0000
0101
0000
1000
0001
1000
0001
,
1100
1001
1010
1100
,
1001
0000
1010
0000
1000
0001
1000
0001
,
1000
0001
1000
0001
1000
0001
1000
0001
,
1000
0001
1000
0000
0100
0010
0100
0010
,
1001
0000
0000
0000
;
