#TITLE:Respect the Wilderness;
#SUBTITLE:;
#ARTIST:Sonata Arctica;
#TITLETRANSLIT:;
#SUBTITLETRANSLIT:;
#ARTISTTRANSLIT:;
#CREDIT:;
#BANNER:Respect the Wilderness-bn.png;
#BACKGROUND:Respect the Wilderness-bg.png;
#LYRICSPATH:;
#CDTITLE:!TEEXcdtitle.png;
#MUSIC:Sonata Arctica - Silence - 13 - Respect the Wilderness.mp3;
#OFFSET:-0.238;
#SAMPLESTART:37.808;
#SAMPLELENGTH:12.000;
#SELECTABLE:YES;
#BPMS:0.000=159.687;
#STOPS:;
#BGCHANGES:;
// cache tags:
#FIRSTBEAT:16.000;
#LASTBEAT:610.500;
#SONGFILENAME:Songs/Fresh Flock of Fantastic Files F4/(TEEX) Respect the Wilderness/Respect the Wilderness.sm;
#HASMUSIC:1;
#HASBANNER:1;
#MUSICLENGTH:231.621;
// end cache tags

//---------------dance-single - ----------------
#NOTES:
     dance-single:
     :
     Hard:
     11:
     1.000,1.000,0.833,0.458,1.000,1377.000,193.000,106.000,0.000,0.000:
0000
0000
0000
0000
,
0000
0000
0000
0000
,
0000
0000
0000
0000
,
0000
0000
0000
0000
,
0120
0000
0000
0000
1030
0000
0001
0000
0210
0000
0000
0000
1300
0100
1000
0000
,
0110
0000
0001
0100
0001
0010
0001
0000
1000
0100
1000
0000
0010
0100
0001
0000
,
1100
0000
0001
0000
1000
0000
0001
0010
0001
0000
0110
0000
0100
1000
0100
0000
,
0101
0000
0001
0010
0100
1000
0001
0000
0101
0000
1000
0000
0101
0000
0000
0000
,
0010
1000
0010
1000
0001
0010
0100
1000
0001
1000
0100
0010
0001
0100
0001
0100
,
0010
1000
0100
0010
0001
0100
0010
0100
0001
0010
0100
0010
0001
1000
0100
0010
,
0001
0000
1100
0000
1001
0000
0100
0001
1000
0100
1000
0100
1000
0001
0010
0001
,
0100
0110
0011
0100
1000
0001
1010
1001
,
0001
0100
0001
0100
0010
1000
0001
0010
0100
1000
0001
0100
0010
1000
0100
0010
,
0001
0100
0010
1000
0100
0010
0001
0100
0010
0100
0001
0010
0100
0000
1001
0000
,
1010
0000
0001
0010
0100
0010
0001
1000
0100
0010
0100
1000
0001
0000
0100
0000
,
0202
0000
0303
0000
2020
0000
3030
0000
2200
0000
3300
0000
1000
0001
1000
0000
,
0010
1000
0100
0001
0100
0010
0100
1000
0100
0010
0100
1000
0010
0100
0010
1000
,
0010
0100
0010
0001
0010
1000
0100
0001
0100
0010
0001
1000
0100
0010
0001
0100
,
0020
0000
0000
0030
2200
0000
0000
3300
,
0202
0000
0303
1001
2002
0000
0000
3003
,
0010
0100
0010
1000
0001
0100
0010
0100
0001
1000
0001
0100
0001
0100
0010
1000
,
0100
1000
0001
1000
0010
0100
0010
1000
0001
0100
0001
0100
0010
1000
0100
0010
,
0001
0100
0010
0100
0001
0100
0010
1000
0100
1000
0010
0100
0010
1000
0100
1000
,
0001
0100
0001
1000
0010
1000
0001
0010
0001
1000
0100
0010
0100
0000
0000
0000
,
1010
0100
1001
0100
0001
0010
0101
1001
,
1100
0010
0001
0110
0101
0010
0100
1000
,
0110
0100
0001
0010
0110
0100
1000
0001
,
1001
1100
0010
0100
1000
0010
1000
0010
,
0100
0011
0001
0010
0100
1100
1001
0010
,
1100
0100
0001
0011
0101
0100
0010
0001
,
0110
0010
1000
1100
1001
0010
0001
0011
,
0220
0000
0330
0000
0022
0000
0033
0000
2200
0000
3300
0000
0001
0100
0001
0000
,
1000
0100
1000
0100
1000
0001
1000
0001
0010
0001
0010
0001
0010
0100
0010
0100
,
1000
0100
1000
0001
0010
0001
1000
0010
0100
0010
0100
0001
0100
0010
1000
0100
,
1000
0001
0100
0010
1000
0010
0100
0001
0010
0001
0100
0001
1000
0100
0010
0001
,
0010
0100
1000
0001
1000
0100
0010
0001
1000
0100
0010
0001
1000
0010
0100
0001
,
1000
0100
0010
0001
0010
0100
1000
0001
0010
0100
1000
0001
0010
0100
1000
0001
,
1000
0100
1000
0001
0100
0001
1000
0010
0100
0010
0001
0010
0100
1000
0100
0001
,
0100
0010
1000
0100
0010
0001
0100
0001
0010
0001
1000
0100
1000
0010
0100
0010
,
1000
0100
0010
0100
1000
0000
0000
0000
0220
0000
0330
0000
2200
0000
3300
0000
,
0202
0000
0000
0303
2002
0000
0000
3003
,
2020
0000
0000
3030
0220
0000
0000
0330
,
2002
0000
0000
0000
0000
3003
0010
0000
,
2002
0000
0000
0000
0000
0000
0000
3003
,
1000
0100
1000
0100
1000
0100
1000
0100
1000
0001
1000
0001
1000
0001
1000
0001
,
0010
0001
0010
0001
0010
0001
0010
0001
0010
0100
0010
0100
0010
0100
0010
0100
,
1002
0000
0000
0000
0000
0000
0010
1000
,
0020
0000
0000
0000
0000
0000
0000
0000
0000
0000
0033
0000
0100
1000
0100
1000
,
0001
0010
0001
0010
0001
0010
0001
0010
0100
1000
0100
1000
0100
1000
0100
1000
,
0010
1000
0010
1000
0010
1000
0010
1000
0001
0100
0001
0100
0001
0100
0001
0100
,
2001
0000
0000
0000
0000
0000
0100
0100
,
3200
0000
0000
0300
,
0011
0000
0000
1001
0000
0000
1100
0000
1001
0000
0000
1010
0000
0000
0101
0000
,
0110
0000
0000
1010
0000
0000
0101
0000
2002
0000
0000
0000
0000
0000
3003
0000
,
0021
0000
0130
0021
0000
0130
0100
1000
,
1100
0000
0000
0000
0101
0000
0000
0000
0001
1000
0001
1000
0010
0100
0010
0100
,
0010
1000
0100
0000
0110
0000
0000
0000
1001
0000
0010
0001
0100
0001
0100
0000
,
0101
0000
1000
0100
1000
0001
1000
0000
0010
0100
0010
0000
1000
0100
1000
0000
,
0110
0000
0000
0000
1000
0000
0100
0000
0001
0000
0000
0000
0100
0010
0100
0000
,
0101
0000
0001
1000
0100
1000
0001
0000
1000
0010
1000
0000
0110
0000
0000
0000
,
1001
0000
0000
0000
0110
0000
0001
0000
0110
0000
0000
0000
1000
0100
1000
0000
,
1001
0000
0001
0100
0001
0010
0001
0000
0001
0010
0001
0000
0110
0000
0000
0000
,
1001
0000
0000
0000
0101
0000
0010
0000
1100
0000
0000
0000
0010
1000
0100
0000
,
0110
0000
0100
0010
0100
0000
1000
0010
1000
0100
1000
0001
2000
0000
0000
0000
,
3010
0001
0010
1000
0100
0010
0001
0100
1000
0100
0001
0010
0100
1000
0010
0100
,
1000
0100
0001
0010
0100
0001
0100
0010
0001
1000
0100
0010
0001
1000
0010
1000
,
0001
0100
0010
0001
0010
1000
0010
1000
0010
0100
0010
1000
0001
0100
0001
1000
,
0100
1000
0100
0010
0001
0010
1000
0010
0001
0100
1000
0100
0001
0010
0001
0100
,
0010
0100
0001
0010
0001
1000
0010
1000
0100
0010
0100
1000
0100
0010
1000
0010
,
0100
0010
1000
0010
0100
1000
0001
0100
0001
0010
0100
0001
0100
0010
0001
0100
,
0010
0001
0010
0100
0001
0010
0001
1000
0100
0010
0100
0010
0100
1000
0100
1000
,
0001
0010
0100
1000
0001
0010
0100
1000
0001
1000
0100
0010
0001
1000
0100
0010
,
0002
0000
0000
0203
0010
0010
2300
0000
,
0000
3020
0000
0000
0031
0001
1001
0010
,
2100
0000
0000
3002
0000
0000
1003
0010
,
0101
1000
1001
0100
1100
0000
0011
0000
,
0102
0000
0000
0023
0000
0000
2030
0000
,
0000
3200
0000
0000
0310
0010
1001
0010
,
1200
0000
0000
0320
0000
0000
0230
0000
,
0000
2300
0000
0000
3001
1000
0110
0001
,
0110
0000
1000
0000
0200
0000
0000
0000
0310
0100
0001
0100
0010
0001
1000
0100
,
0010
0001
1000
0010
1000
0100
1000
0100
1000
0001
0010
0001
0100
0010
0100
0001
,
1000
0001
0010
0001
2000
0000
0000
0000
0000
0000
0000
0000
0000
0000
0000
0000
,
3000
0000
0000
0000
1000
0010
1000
0001
0100
0001
1000
0100
0010
0100
0010
0001
,
0100
0001
0010
0001
1000
0100
0010
1000
0010
0100
0010
0001
0010
0100
0010
0001
,
0100
1000
0100
0001
2000
0000
0000
0000
0000
0000
0000
0000
3001
0100
0001
0100
,
0001
0010
0100
1000
0001
1000
0100
0010
0001
1000
0100
0010
0001
0010
0100
1000
,
0001
0010
0100
1000
0001
1000
0010
1000
0010
0100
0010
1000
0001
0100
0010
0100
,
0001
0010
0100
0001
0200
0000
0000
0000
0000
0000
0000
0000
0000
0000
0300
0000
,
0010
1000
0001
1000
0010
0100
0001
1000
0010
0100
0001
1000
0010
0100
0001
0100
,
0010
1000
0100
1000
0001
0010
0100
1000
0002
0000
0000
0000
0000
0000
0000
0000
,
1003
0010
1000
0100
0010
0001
0100
0001
0010
0100
1000
0010
,
1000
0001
0100
0002
0000
0000
0000
0000
0000
0003
0000
0000
,
0001
1000
0100
1000
0001
0010
0100
0001
0100
0010
1000
0010
,
0001
1000
0100
1000
0100
0010
0001
0100
0001
0100
0010
0100
0010
1000
0100
1000
,
0001
0010
0001
0100
0010
0100
0001
0100
0001
1000
0010
1000
0100
0010
0100
1000
,
0020
0000
0000
0000
0030
1001
1001
0010
,
0101
1001
0100
0010
1010
1001
0100
0010
,
0110
0101
0010
0001
1100
0001
1000
0101
,
0011
0100
0010
1100
0110
0001
0100
0010
,
0200
0000
0000
0000
0000
0000
0000
0000
0301
0010
0001
0000
0100
0000
0001
0000
,
0010
0001
0010
0000
0100
0000
1000
0000
0120
0000
0000
0000
0130
0000
0001
0000
,
1100
0010
0100
0011
0110
0000
1000
0001
,
0101
0100
0001
1100
1001
0010
1000
0011
,
0102
0000
0000
0000
1000
0000
0000
0000
1003
0000
0000
0000
0010
1000
0001
1000
,
0010
0100
0001
0010
0001
1000
0100
1000
0010
0100
0001
0100
0010
1000
0100
0010
,
0100
0001
0100
0010
0001
1000
0100
1000
0010
1000
0010
0100
1000
0100
0010
1000
,
0001
0100
0001
0100
0001
0100
0001
0100
0001
0010
0001
0010
0001
0010
0001
0010
,
0100
1000
0100
1000
0100
1000
0100
1000
0020
0000
0000
0000
0000
0000
0000
0000
,
0000
0000
1030
1000
1100
0010
0001
0100
,
0101
1000
0101
0010
0101
0010
0001
0100
,
0010
1000
0101
0010
1001
0100
0001
1000
,
0011
0010
1100
1000
0110
0001
0110
0000
,
2020
3030
0202
0303
,
0022
0033
2002
3003
,
0220
0000
0330
0101
,
2002
0000
0000
3003
,
0002
0000
0000
0003
0020
0000
0000
0030
,
0200
0000
0000
0300
2000
0000
3000
0000
,
0200
0000
0000
0000
0000
0000
1000
1000
,
2000
0000
0000
0000
0000
0000
3300
0000
0001
0000
1000
0100
0000
0100
0010
0001
,
1000
0100
0010
0001
1000
0100
1000
0100
1000
0100
1000
0100
0010
0001
1000
0100
,
0010
0001
1000
0100
0010
0001
0010
0001
0100
0001
0100
0001
0010
0100
0010
0100
,
0020
0000
0000
0000
0000
0000
0031
1000
,
2002
0000
0000
3003
,
1010
0000
0000
1001
0000
0000
0101
0000
0110
0000
0000
1100
0000
0000
0011
0000
,
0110
0000
0000
1010
0000
0000
0101
0000
1001
0000
0000
0000
0000
0000
0000
0000
,
1100
1000
0010
1100
0010
0001
0110
0100
,
1001
0000
0100
0000
1001
0000
0010
0000
1001
0000
0010
0001
0000
1000
0100
0000
,
1200
0000
2300
0000
,
3020
0000
0032
0000
,
0203
0000
0000
0310
,
2002
0000
0000
3003
,
0001
0010
0001
0010
0001
0010
0001
0010
0100
1000
0100
1000
0100
1000
0100
1000
,
0001
0010
0100
1000
0010
0100
0001
1000
0100
0010
0001
0100
0010
1000
0001
0100
,
0010
1000
0010
1000
0001
0100
0001
0100
0010
0100
0010
1000
0001
0000
1000
0000
,
2002
0000
0000
0000
0000
0000
3003
0000
0110
0000
1000
0100
0000
1000
0100
1000
,
0001
0010
0001
0100
0010
0100
1000
0100
0010
1000
0100
0010
0001
0100
0001
0010
,
0100
0001
0100
0010
0001
1000
0010
0100
1000
0100
0010
1000
0010
0100
0001
0100
,
0010
0001
0010
0100
0001
0010
0001
1000
0100
1000
0100
0010
1000
0010
0100
1000
,
0002
0000
0000
0000
0000
0000
0000
0013
,
0101
0000
0000
1100
0000
0000
0011
0000
1001
0000
0000
0101
0000
0000
1010
0000
,
1001
0000
0000
0110
0000
0000
0101
0000
2200
0000
0000
0000
0000
0000
3300
0000
,
0101
0010
0100
0101
0010
0100
1001
0010
,
1100
0001
0011
1000
0202
0000
0000
0303
,
1001
0000
0000
0100
0110
1000
0000
0100
,
1100
0000
0000
0010
0000
0000
0000
0000
0000
0001
0000
0000
0101
0000
0000
0000
0011
0000
0000
0000
1010
0000
0000
0000
,
1100
0000
0000
0000
0000
0000
0010
0000
0101
0000
0001
0000
1000
0001
1000
0000
,
0110
0000
1000
0000
0100
1000
0001
0000
0011
0000
1100
0000
0110
0000
0000
0000
,
1001
0000
0000
0100
1001
0000
0000
0010
,
1100
0000
0000
0000
0000
0000
0000
0000
0000
0101
0000
0000
0011
0000
0000
0000
1010
0000
0000
0000
1100
0000
0000
0000
,
0101
0000
0010
0100
0010
0000
0000
0000
0000
0000
1000
0100
1000
0001
1000
0000
,
0000
0000
0010
0100
1000
0100
0010
1000
0001
0100
0010
0000
0000
0000
0000
0000
;
