#TITLE:FLATLINE;
#SUBTITLE:;
#ARTIST:Dj Aligator Project;
#TITLETRANSLIT:;
#SUBTITLETRANSLIT:;
#ARTISTTRANSLIT:;
#CREDIT:;
#BANNER:Flatine.png;
#BACKGROUND:Flatline-bg.png;
#LYRICSPATH:;
#CDTITLE:Slig logo.png;
#MUSIC:flatline.mp3;
#OFFSET:-0.045;
#SAMPLESTART:17.056;
#SAMPLELENGTH:12.000;
#SELECTABLE:YES;
#BPMS:0.000=140.000;
#STOPS:;
#BGCHANGES:;
// cache tags:
#FIRSTBEAT:0.500;
#LASTBEAT:220.000;
#SONGFILENAME:Songs/Ace Megapack/Flatline/Flatline.sm;
#HASMUSIC:1;
#HASBANNER:1;
#MUSICLENGTH:96.399;
// end cache tags

//---------------dance-single - ----------------
#NOTES:
     dance-single:
     :
     Hard:
     10:
     0.737,0.742,0.861,0.000,0.207,414.000,83.000,0.000,0.000,0.000:  // measure 1
0000
1001
0000
0000
0000
1100
0000
0000
,  // measure 2
0000
1001
0000
0000
0000
0011
0000
0000
,  // measure 3
0000
0110
0000
0000
0000
1010
0000
0000
,  // measure 4
0000
0101
0000
0000
1000
0100
0001
0100
,  // measure 5
1000
1010
0000
0000
0010
0011
0000
0000
,  // measure 6
0100
0110
0000
0000
0100
1100
0000
0000
,  // measure 7
1000
1001
0000
0000
0010
0110
0000
0000
,  // measure 8
0010
0011
0000
0000
0001
0100
1000
0100
,  // measure 9
0101
0101
0101
0101
,  // measure 10
0011
0011
0011
0011
,  // measure 11
1000
0000
0010
0001
0010
0000
0110
0000
0010
0000
0001
0100
0001
0000
1010
0000
,  // measure 12
1000
0000
0100
0010
0100
0000
1001
0000
0001
0000
0100
1000
0100
0000
1010
0000
,  // measure 13
0010
0000
0001
0100
0001
0000
1100
0000
0100
0000
0010
1000
0010
0000
0101
0000
,  // measure 14
1000
0000
1000
0100
1000
0000
0011
0000
0010
0000
1000
0001
1000
0000
0110
0000
,  // measure 15
1000
0000
0001
0010
0001
0000
0110
0000
0100
0000
1000
0001
1000
0000
1010
0000
,  // measure 16
0010
0000
0010
0001
0010
0000
0101
0000
0100
0000
1000
0010
1000
0000
0101
0000
,  // measure 17
0010
0000
1000
0001
1000
0000
0110
0000
0100
0000
0001
1000
0001
0000
0110
0000
,  // measure 18
1000
0000
0001
0010
0001
0000
1100
0000
0100
0000
0010
1000
0010
0000
0101
0000
,  // measure 19
1000
0100
0010
0100
0001
0100
1000
0100
,  // measure 20
0010
0100
1000
0100
0001
0100
0010
0100
,  // measure 21
1000
0001
0010
0100
1000
1000
0100
0001
,  // measure 22
1000
0010
1000
0010
0001
0100
0010
0100
,  // measure 23
1100
0000
0010
1000
0010
0000
0101
0000
0100
0000
0010
0001
0010
0000
1100
0000
,  // measure 24
1000
0000
0010
0100
0010
0000
0011
0000
1000
0000
1000
0100
1000
0000
0110
0000
,  // measure 25
0001
0000
0100
0010
0100
0000
1001
0000
0100
0000
1000
0010
1000
0000
0011
0000
,  // measure 26
0100
0000
0010
0001
0010
0000
0110
0000
1000
0000
0001
0100
0001
0000
0101
0000
,  // measure 27
1000
1100
0000
0101
0001
0011
0010
1010
,  // measure 28
1000
1100
0000
0101
0100
1100
0100
0110
,  // measure 29
0010
0011
0000
0101
0100
1100
0100
0110
,  // measure 30
0100
0110
0000
1001
1000
1010
0010
0010
,  // measure 31
0100
0000
1000
0001
1000
0000
0110
0000
0010
0000
0001
1000
0001
0000
0110
0000
,  // measure 32
0100
0000
1000
0001
1000
0000
1010
0000
0010
0000
0001
0100
0001
0000
0110
0000
,  // measure 33
1000
0000
0100
0001
0100
0000
1010
0000
1000
0000
0001
0010
0001
0000
1100
0000
,  // measure 34
0010
0000
0100
1000
0100
0000
0101
0000
0010
0000
1000
0100
1000
0000
0110
0000
,  // measure 35
0010
1000
0100
1000
0010
0001
0100
0001
,  // measure 36
0010
1000
0100
1000
0010
0001
0100
0001
,  // measure 37
0100
1000
0010
1000
0100
0001
0010
0001
,  // measure 38
0100
1000
0010
1000
0100
0001
0010
0001
,  // measure 39
1010
1010
0101
0101
,  // measure 40
0010
1000
0100
1000
0100
0100
1000
1000
,  // measure 41
0010
0001
0100
1000
0010
1000
0001
0100
,  // measure 42
1000
1000
0010
0010
0100
0001
1000
0010
,  // measure 43
1000
0100
1000
0100
0010
0100
0010
0100
,  // measure 44
0001
1000
0100
0010
1000
0001
0010
0010
,  // measure 45
0010
0100
1000
0001
0100
1000
0010
0010
,  // measure 46
0001
0100
0001
0100
1000
0100
1000
0100
,  // measure 47
0010
1000
0001
0100
1000
0100
0010
0001
,  // measure 48
0100
1100
1000
1010
,  // measure 49
0010
0110
0100
0101
,  // measure 50
0001
0011
0010
1010
,  // measure 51
1000
1001
0001
0101
,  // measure 52
1000
0000
0010
0001
0010
0000
1000
0000
0001
0000
0100
0010
0100
0000
1000
0000
,  // measure 53
0001
0000
0100
1000
0100
0000
0010
0000
0010
0000
0100
0001
0100
0000
1000
0000
,  // measure 54
0010
0000
0001
0100
0001
0000
0010
0000
1000
0000
0100
0001
0100
0000
0010
0000
,  // measure 55
0010
0000
1000
0100
1000
0000
0001
0000
0100
0000
0010
0001
0010
0000
0100
0000
,  // measure 56
1001
0000
0000
0000
;

//---------------dance-single - ----------------
#NOTES:
     dance-single:
     :
     Medium:
     6:
     0.467,0.428,0.135,0.000,0.000,302.000,13.000,0.000,0.000,0.000:  // measure 1
0000
0010
0000
0000
0000
1000
0000
0000
,  // measure 2
0000
0010
0000
0000
0000
0001
0000
0000
,  // measure 3
0000
0010
0000
0000
0000
0100
0000
0000
,  // measure 4
0000
1000
0000
0000
0001
0100
0001
0010
,  // measure 5
0001
1000
0000
0000
0010
0100
0000
0000
,  // measure 6
1000
0100
0000
0000
0001
0010
0000
0000
,  // measure 7
0100
0010
0000
0000
1000
0001
0000
0000
,  // measure 8
0100
1000
0000
0000
0010
0100
0010
0100
,  // measure 9
0100
0100
1000
1000
,  // measure 10
0010
0010
0001
0001
,  // measure 11
1000
0010
0100
0000
0001
0100
1000
0000
,  // measure 12
0010
0010
0010
0000
0100
0100
1000
0001
,  // measure 13
0010
1000
0010
0000
0100
0001
0100
0000
,  // measure 14
0010
1000
0100
0000
0001
0010
0001
0010
,  // measure 15
0001
0100
0001
0000
1000
1000
1000
0000
,  // measure 16
0010
0001
0100
0000
1000
0010
1000
0010
,  // measure 17
1000
0100
1000
0000
0001
0100
1000
0000
,  // measure 18
0010
0001
0100
0000
1000
0010
1000
0010
,  // measure 19
0010
0001
0010
0000
0100
1000
0010
0000
,  // measure 20
0100
0001
0010
0000
0100
0010
0001
0000
,  // measure 21
1000
0100
0010
0000
0100
0100
1000
0000
,  // measure 22
0010
0010
0001
0000
0100
0100
0010
0010
,  // measure 23
1000
0001
0010
0000
0100
1000
0100
0000
,  // measure 24
0010
1000
1000
0000
0100
1000
1000
0000
,  // measure 25
0010
0001
0001
0000
0100
1000
0001
0000
,  // measure 26
0010
0001
0100
0000
1000
1000
0010
0010
,  // measure 27
1100
0000
1001
0011
,  // measure 28
0101
0000
1010
1100
,  // measure 29
1001
0000
0101
0101
,  // measure 30
0011
0000
1001
0110
,  // measure 31
1000
0001
1000
0000
0001
0100
0001
0000
,  // measure 32
0100
1000
0100
0000
0100
0001
0100
0000
,  // measure 33
1000
1000
1000
0000
0001
0001
0001
0000
,  // measure 34
0010
1000
0100
0000
0001
0001
0001
0000
,  // measure 35
0100
1000
0010
0000
0010
0001
0100
0000
,  // measure 36
0100
0010
0100
0000
0100
1000
0001
0000
,  // measure 37
0001
0010
0100
0000
0100
1000
0001
0000
,  // measure 38
0001
0010
1000
0000
1000
0100
0001
0000
,  // measure 39
1000
0100
0100
0010
,  // measure 40
1000
0001
0010
0000
1000
1000
0001
0000
,  // measure 41
0100
1000
0010
0000
0010
0001
0010
0000
,  // measure 42
0100
0010
0100
0000
1000
0001
1000
0000
,  // measure 43
0100
0100
0100
0000
0010
0010
0010
0000
,  // measure 44
1000
0001
0001
0000
0010
0100
0100
0000
,  // measure 45
1000
0001
0001
0000
0100
0001
0001
0000
,  // measure 46
0010
0001
0001
0000
1000
0010
1000
0000
,  // measure 47
0010
0010
0010
0000
0100
1000
0001
0000
,  // measure 48
0100
0100
0100
0000
0100
0100
0100
0000
,  // measure 49
1000
1000
1000
0000
1000
1000
1000
0000
,  // measure 50
0010
0001
0010
0000
0100
1000
0010
0000
,  // measure 51
0001
0100
0001
0000
0010
1000
0100
0000
,  // measure 52
0001
0001
0010
0000
0010
0010
0001
0000
,  // measure 53
0001
0001
0100
0000
0100
0100
1000
0010
,  // measure 54
0001
0100
0001
0000
0010
0100
0010
0000
,  // measure 55
1000
1000
1000
0000
0010
0100
0010
0100
,  // measure 56
1001
0000
0000
0000
;

//---------------dance-single - ----------------
#NOTES:
     dance-single:
     :
     Easy:
     5:
     0.368,0.371,0.467,0.000,0.000,203.000,45.000,0.000,0.000,0.000:  // measure 1
0000
1000
0000
0000
0000
0010
0000
0000
,  // measure 2
0000
0001
0000
0000
0000
0100
0000
0000
,  // measure 3
0000
0010
0000
0000
0000
1000
0000
0000
,  // measure 4
0000
0001
0000
0000
0100
0000
0110
0000
,  // measure 5
0110
0000
1010
0000
,  // measure 6
1001
0000
0101
0000
,  // measure 7
1001
0000
1001
0000
,  // measure 8
1010
0000
0100
0010
,  // measure 9
1000
0001
0001
1000
,  // measure 10
0010
0100
0100
0010
,  // measure 11
1000
1100
0100
0101
,  // measure 12
0001
0011
0010
1010
,  // measure 13
1000
1100
0100
0101
,  // measure 14
0001
0011
0010
1010
,  // measure 15
1000
0100
0001
0010
,  // measure 16
1000
0001
0100
0100
,  // measure 17
1000
0010
0100
1000
,  // measure 18
0100
0001
0001
0001
,  // measure 19
0010
1010
1000
1001
,  // measure 20
0001
0011
0010
0011
,  // measure 21
0001
0101
0100
0110
,  // measure 22
0010
1010
1000
1001
,  // measure 23
1000
0100
0100
0100
,  // measure 24
0010
0100
0100
0100
,  // measure 25
0001
1000
0010
0100
,  // measure 26
1000
0001
1000
0100
,  // measure 27
1100
0000
1001
0010
,  // measure 28
0011
0000
0101
0100
,  // measure 29
1100
0000
0011
0100
,  // measure 30
1010
0000
0110
1000
,  // measure 31
0010
0010
0100
0100
,  // measure 32
1000
1000
0001
0001
,  // measure 33
0100
1000
0010
0001
,  // measure 34
0100
1000
0010
0010
,  // measure 35
1000
0001
1000
0010
,  // measure 36
0100
0100
0010
0001
,  // measure 37
1000
1010
0010
0011
,  // measure 38
0001
0101
0100
1100
,  // measure 39
1000
0001
1000
0001
,  // measure 40
0100
1000
0010
0100
,  // measure 41
0001
1000
1000
1000
,  // measure 42
0010
0010
0001
0001
,  // measure 43
0100
1000
0001
0100
,  // measure 44
0010
1000
0010
0001
,  // measure 45
0100
1000
0100
0010
,  // measure 46
0001
1000
0100
1000
,  // measure 47
0010
0001
1000
0100
,  // measure 48
0010
0011
0001
1001
,  // measure 49
1000
1100
0100
0110
,  // measure 50
0010
0110
0100
0101
,  // measure 51
0001
0011
0010
1010
,  // measure 52
1000
0100
0010
0010
,  // measure 53
1000
0001
0100
1000
,  // measure 54
0010
0010
0100
0100
,  // measure 55
0001
1000
0100
0100
,  // measure 56
1001
0000
0000
0000
;
