#TITLE:Tell Me Why Speedcore Is So Awesome;
#SUBTITLE:;
#ARTIST:m1dlet;
#TITLETRANSLIT:;
#SUBTITLETRANSLIT:;
#ARTISTTRANSLIT:;
#CREDIT:Tyler;
#BANNER:tell me why bn new 2.png;
#BACKGROUND:tell me why bg new 2.png;
#LYRICSPATH:;
#CDTITLE:;
#MUSIC:Tell Me Why.ogg;
#OFFSET:-0.028;
#SAMPLESTART:47.470;
#SAMPLELENGTH:12.000;
#SELECTABLE:YES;
#BPMS:0.000=200.000;
#STOPS:;
#BGCHANGES:;
// cache tags:
#FIRSTBEAT:32.000;
#LASTBEAT:484.000;
#SONGFILENAME:Songs/SPEEEDCOOOORE 2/Tell Me Why - [Tyler]/Tell Me Why.sm;
#HASMUSIC:1;
#HASBANNER:1;
#MUSICLENGTH:145.162;
// end cache tags

//---------------dance-single - T. Moore----------------
#NOTES:
     dance-single:
     T. Moore:
     Challenge:
     16:
     1.000,1.000,0.448,0.234,1.000,1245.000,65.000,34.000,21.000,0.000:

0000
0000
0000
0000
,
0000
0000
0000
0000
,
0000
0000
0000
0000
,
0000
0000
0000
0000
,
0000
0000
0000
0000
,
0000
0000
0000
0000
,
0000
0000
0000
0000
,
0000
0000
0000
0000
,
1002
0003
0000
0000
0000
0000
0000
0000
1000
0000
0000
0000
0000
0000
0000
0000
,
0100
0000
0010
0000
,
0012
0003
0000
0000
0000
0000
0000
0000
0010
0000
0000
0000
0000
0000
0000
0000
,
0100
0000
1000
1000
,
1002
0003
0000
0000
0000
0000
0000
0000
0100
0000
0000
0000
0000
0000
0000
0000
,
0010
0000
1000
0000
,
1002
0003
0000
0000
0000
0000
0000
0000
0010
0000
0000
0000
0000
0000
0000
0000
,
0001
0100
0001
0100
0001
0100
0001
0100
0001
0000
1000
0000
0001
0000
1000
0000
,
0020
0030
0100
0000
0000
0000
0100
0000
0002
0003
1000
0000
0000
0000
1000
0000
,
0200
0300
0010
0000
0000
0000
0010
0000
0002
0003
1000
0000
0000
0000
1000
0000
,
0020
0030
1000
0000
0000
0000
1000
0000
0002
0003
0010
0000
0000
0000
0010
0000
,
0200
0300
1000
0000
0000
0000
1000
0000
0002
0003
1000
0000
0002
0003
1000
0000
,
0002
0003
0100
0000
0000
0000
0100
0000
0020
0030
1000
0000
0000
0000
1000
0000
,
0002
0003
0010
0000
0000
0000
0010
0000
0200
0300
1000
0000
0000
0000
1000
0000
,
0002
0003
0100
0000
0000
0000
0100
0000
0020
0030
1000
0000
0000
0000
1000
0000
,
0002
0003
0010
0000
0000
0000
0010
0000
0200
0300
0010
0000
0200
0300
0010
0000
,
0200
0300
1000
0000
0010
0000
0100
0000
0001
0000
0010
0000
0001
0000
0010
0000
,
0001
0100
0010
1000
0100
0010
0100
0010
,
0100
1000
0010
0100
0001
0010
0001
0010
,
0001
0100
0010
1000
0100
0010
0100
0010
,
0002
0003
0010
0000
0100
0000
1000
0000
0010
0000
0100
0000
0010
0000
0100
0000
,
0010
1000
0100
0010
0001
0100
0001
0100
,
0001
0010
0100
1000
0010
0100
0010
0100
,
0020
0030
1000
0000
0100
0000
0010
0000
0001
0000
0100
0000
0001
0000
0100
0000
,
M110
0000
0010
0000
1000
0000
0001
1000
0001
1000
0100
0000
0010
0000
0100
0000
,
1100
0000
1000
0000
0001
0000
1000
0100
1000
0100
0010
0000
0001
0000
0010
0000
,
0110
0000
0100
0000
1000
0000
0100
0010
0100
0010
0001
0000
1000
0000
0001
0000
,
0101
0000
0100
0000
0010
0000
0100
0010
0100
0010
1000
0000
0100
0000
1000
0000
,
1001
1010
0101
1001
,
0011
1100
0110
1001
,
0011
1100
1010
0101
,
M000
000M
0M00
00M0
,
0001
0010
0100
1000
0001
1000
0010
1000
0001
0100
0010
1000
0001
1000
0010
0100
,
0001
0000
0000
1000
0000
0000
0100
0000
0000
1000
0000
0000
0001
0000
0000
0010
0000
0000
0100
0000
0000
1000
0000
0000
0001
0000
0000
0000
0000
0000
1000
0000
0000
0000
0000
0000
0001
0000
0100
0000
0001
0000
0100
0000
0001
0000
0100
0000
,
0010
1000
0001
1000
0010
0100
0001
1000
0100
0010
0001
0010
0100
1000
0001
0010
,
0001
0000
0000
1000
0000
0000
0010
0000
0000
0100
0000
0000
0001
0000
0000
0100
0000
0000
0010
0000
0000
1000
0000
0000
0001
0000
0000
1000
0000
0000
0100
0000
0000
1000
0000
0000
0001
0000
0000
0100
0000
0000
0010
0000
1000
0000
0010
0000
,
1000
0001
1000
0010
0100
0001
1000
0001
1000
0100
0010
0001
1000
0010
0100
0001
,
0100
0010
1000
0001
0010
0001
1000
0100
0010
0100
1000
0001
0010
0100
1000
0001
,
1000
0010
0100
0001
1000
0001
0100
0010
1000
0001
0010
0001
1000
0010
0100
0001
,
0100
0000
0000
0000
0000
0000
0000
0000
0000
0000
0000
0000
0010
0000
0000
0000
0000
0000
0000
0000
0000
0000
0000
0000
1000
0000
0000
0000
0000
0000
0000
0000
0000
0000
0000
0000
0001
0000
0000
0000
0000
0000
0000
0000
0000
0000
0000
0000
0010
0000
0000
0000
0000
0000
0000
0000
0000
0000
0000
0000
0001
0000
0000
0000
0000
0000
0000
0000
0000
0000
0000
0000
1000
0000
0000
0000
0000
0000
0000
0000
0000
0000
0000
0000
0100
0000
0000
0000
0000
0000
0000
0000
0000
0000
0000
0000
0010
0000
0000
0000
0000
0000
0000
0000
0000
0000
0001
0000
0000
0000
0000
0000
0000
0000
0000
0010
0000
0000
0000
0000
0000
0000
0000
0000
0000
0100
0000
0000
0000
0000
0000
0000
0000
0000
1000
0000
0000
0000
0000
0000
0000
0000
0000
0000
0001
0000
0000
0000
0000
0000
0000
0000
0000
0000
1000
0000
0000
0000
0000
0000
0000
0000
0000
0001
0000
0000
0000
0000
0000
0000
0000
0000
0000
0100
0000
0000
0000
0000
0000
0000
0000
0000
0010
0000
0000
0000
0000
0000
0000
0000
0000
0000
,
1000
0001
0010
0100
1000
0001
1000
0100
0010
0001
1000
0010
0100
0001
1000
0001
,
0010
0000
0000
0001
0000
0000
1000
0000
0000
0100
0000
0000
0010
0000
0000
0100
0000
0000
1000
0000
0000
0001
0000
0000
1000
0000
0000
0000
0000
0000
0001
0000
0000
0000
0000
0000
0100
0000
0001
0000
0100
0000
0001
0000
0100
0000
0001
0000
,
1000
0010
1000
0001
0010
0001
1000
0100
0010
0001
1000
0010
0100
0010
1000
0001
,
0010
0000
0000
0100
0000
0000
1000
0000
0000
0001
0000
0000
0100
0000
0000
0001
0000
0000
1000
0000
0000
0100
0000
0000
0010
0000
0000
0001
0000
0000
1000
0000
0000
0010
0000
0000
0100
0000
0000
0001
0000
0000
1000
0000
0001
0000
1000
0000
,
0001
0010
0100
1000
0001
1000
0010
0100
0001
0100
0010
1000
0001
0010
0100
1000
,
0001
0100
0001
1000
0010
0100
0001
0100
0010
1000
0001
1000
0010
0100
0001
1000
,
0100
0010
0100
1000
0001
0010
0001
1000
0100
0010
0001
1000
0010
1000
0001
0010
,
0100
0000
0000
1000
0000
0000
0100
0000
0000
1000
0000
0000
0001
0000
0000
1000
0000
0000
0010
0000
1000
0000
0010
0000
1000
0000
0000
0000
0000
0000
0001
0000
0000
0000
0000
0000
1000
0000
0100
0000
1000
0000
0100
0000
1000
0000
0100
0000
,
10M0
0001
1001
1000
0001
0100
0110
0010
,
1000
0001
0011
0010
0100
1000
1001
0001
,
M100
0010
1010
1000
0001
0010
0110
0100
,
0010
0001
1001
1000
0010
0100
0101
0100
,
001M
1000
1001
0001
0010
0100
1100
1000
,
0001
0100
0110
0010
1000
0001
1001
0001
,
M010
0100
1100
1000
0001
0100
0101
0001
,
1000
0000
0000
0100
0000
0000
0110
0000
0000
0010
0000
0000
0001
0000
0000
1000
0000
0000
0100
1000
0100
1000
0100
1000
,
0001
0000
1000
0000
1010
0000
0010
1000
0001
1000
0010
0000
0110
0000
0100
0000
,
0001
0000
1000
0000
1100
0000
0100
1000
0001
0100
0010
0000
1010
0000
1000
0000
,
0001
0000
0010
0000
0110
0000
0100
1000
0001
0010
0001
0000
1001
0000
1000
0000
,
0010
0000
0100
0000
0101
0000
0001
1000
0100
0010
0001
0000
1001
0000
1000
0000
,
0100
0000
1000
0000
1010
0000
0010
0100
0001
0100
0010
0000
1010
0000
1000
0000
,
0001
0000
0010
0000
0110
0000
0100
1000
0010
0100
0001
0000
1001
0000
1000
0000
,
0100
0000
0010
0000
0011
0000
0001
1000
0010
0100
0001
0000
1001
0000
1000
0000
,
000M
00M0
M000
0M00
,
1000
0010
0100
0001
1000
0001
0010
0001
1000
0100
0010
0001
1000
0001
0010
0100
,
1000
0000
0000
0001
0000
0000
0100
0000
0000
0001
0000
0000
1000
0000
0000
0010
0000
0000
0100
0000
0000
0001
0000
0000
1000
0000
0000
0000
0000
0000
0001
0000
0000
0000
0000
0000
1000
0000
0100
0000
1000
0000
0100
0000
1000
0000
0100
0000
,
0010
0001
0010
0100
1000
0001
1000
0010
0100
0010
1000
0001
0010
0100
1000
0100
,
0010
0000
0000
0001
0000
0000
1000
0000
0000
0010
0000
0000
0100
0000
0000
0001
0000
0000
1000
0000
0000
0001
0000
0000
0100
0000
0000
0010
0000
0000
1000
0000
0000
0001
0000
0000
0010
0000
0000
0100
0000
0000
1000
0000
0100
0000
1000
0000
,
0100
0010
0001
1000
0010
1000
0001
0010
0100
1000
0001
0100
0001
1000
0100
0010
,
0100
1000
0001
0100
0010
1000
0001
0100
0010
0100
0001
1000
0010
0100
0001
1000
,
0001
0010
0100
1000
0001
1000
0100
0010
0001
1000
0010
1000
0001
0010
0100
1000
,
0100
0000
0000
0000
0000
0000
0000
0000
0000
0000
0000
0000
0010
0000
0000
0000
0000
0000
0000
0000
0000
0000
0000
0000
0001
0000
0000
0000
0000
0000
0000
0000
0000
0000
0000
0000
1000
0000
0000
0000
0000
0000
0000
0000
0000
0000
0000
0000
0010
0000
0000
0000
0000
0000
0000
0000
0000
0000
0000
0000
1000
0000
0000
0000
0000
0000
0000
0000
0000
0000
0000
0000
0001
0000
0000
0000
0000
0000
0000
0000
0000
0000
0000
0000
0100
0000
0000
0000
0000
0000
0000
0000
0000
0000
0000
0000
0010
0000
0000
0000
0000
0000
0000
0000
0000
0000
1000
0000
0000
0000
0000
0000
0000
0000
0000
0001
0000
0000
0000
0000
0000
0000
0000
0000
0000
1000
0000
0000
0000
0000
0000
0000
0000
0000
0010
0000
0000
0000
0000
0000
0000
0000
0000
0000
0100
0000
0000
0000
0000
0000
0000
0000
0000
0000
0001
0000
0000
0000
0000
0000
0000
0000
0000
1000
0000
0000
0000
0000
0000
0000
0000
0000
0000
0001
0000
0000
0000
0000
0000
0000
0000
0000
0010
0000
0000
0000
0000
0000
0000
0000
0000
0000
,
0100
1000
0100
0010
0001
1000
0001
0100
0010
1000
0010
0100
0001
1000
0001
0100
,
0010
0000
0000
1000
0000
0000
0001
0000
0000
1000
0000
0000
0010
0000
0000
0100
0000
0000
0001
0000
0000
1000
0000
0000
0100
0000
0000
0000
0000
0000
0010
0000
0000
0000
0000
0000
0001
0000
1000
0000
0001
0000
1000
0000
0001
0000
1000
0000
,
0001
0010
0100
0010
0001
1000
0100
1000
0001
1000
0010
0100
0001
0100
0010
1000
,
0001
0000
0000
0010
0000
0000
0001
0000
0000
1000
0000
0000
0100
0000
0000
1000
0000
0000
0001
0000
0000
1000
0000
0000
0010
0000
0000
1000
0000
0000
0001
0000
0000
0010
0000
0000
0100
0000
0000
1000
0000
0000
0001
0000
1000
0000
0001
0000
,
1000
0010
0100
0001
1000
0001
0010
0100
1000
0100
0010
0001
1000
0010
0100
0001
,
1000
0100
1000
0001
0010
0100
1000
0100
0010
0001
1000
0010
1000
0001
0010
0100
,
1000
0000
0000
0000
0000
0000
0000
0000
0000
0000
0100
0000
0000
0000
0000
0000
0000
0000
0000
0010
0000
0000
0000
0000
0000
0000
0000
0000
0000
0001
0000
0000
0000
0000
0000
0000
0000
0000
1000
0000
0000
0000
0000
0000
0000
0000
0000
0000
0001
0000
0000
0000
0000
0000
0000
0000
0000
0000
0100
0000
0000
0000
0000
0000
0000
0000
0000
0010
0000
0000
0000
0000
0000
0000
0000
0000
0000
1000
0000
0000
0000
0000
0000
0000
0000
0000
0001
0000
0000
0000
0000
0000
0000
0000
0000
0000
1000
0000
0000
0000
0000
0000
0000
0000
0000
0000
0010
0000
0000
0000
0000
0000
0000
0000
0000
0100
0000
0000
0000
0000
0000
0000
0000
0000
0000
0001
0000
0000
0000
0000
0000
0000
0000
0000
1000
0000
0000
0000
0000
0000
0000
0000
0000
0000
0001
0000
0000
0000
0000
0000
0000
0000
0000
0000
1000
0000
0000
0000
0000
0000
0000
0000
0000
0100
0000
0000
0000
0000
0000
0000
0000
0000
0000
0010
0000
0000
0000
0000
0000
0000
0000
0000
0001
0000
0000
0000
0000
0000
0000
0000
0000
0000
,
4000
0000
0000
0000
,
3001
0010
0100
1000
0001
1000
0100
0010
0001
1000
0010
1000
0001
1000
0100
0010
,
0001
0000
0000
1000
0000
0000
0010
0000
0000
1000
0000
0000
0001
0000
0000
0100
0000
0000
0001
0000
0000
1000
0000
0000
0010
0000
0000
0000
0000
0000
1000
0000
0000
0000
0000
0000
0001
0000
1000
0000
0001
0000
1000
0000
0001
0000
1000
0000
,
0100
0010
0100
1000
0001
1000
0100
0010
0001
1000
0010
1000
0001
0100
0001
1000
,
0010
0000
0000
0100
0000
0000
0001
0000
0000
1000
0000
0000
0100
0000
0000
0010
0000
0000
0001
0000
0000
1000
0000
0000
0010
0000
0000
0100
0000
0000
0010
0000
0000
1000
0000
0000
0001
0000
0000
0010
0000
0000
0100
0000
1000
0000
0100
0000
,
1000
0001
0010
0001
1000
0010
0100
0001
1000
0001
0100
0001
1000
0100
0010
0001
,
1000
0000
0000
0001
0000
0000
0010
0000
0000
0100
0000
0000
1000
0000
0000
0001
0000
0000
0100
0000
0000
0010
0000
0000
1000
0000
0000
0000
0000
0000
0001
0000
1000
0000
0001
0000
1000
0000
0000
0000
0000
0000
0001
0000
1000
0000
0001
0000
,
1000
0010
0100
0001
1000
0001
0100
0010
1000
0001
0100
0001
1000
0100
0010
0001
,
1000
0000
0000
0000
0000
0000
0000
0000
0000
0000
0000
0000
0001
0000
0000
0000
0000
0000
0000
0000
0000
0000
0000
0000
1000
0000
0000
0000
0000
0000
0000
0000
0000
0000
0000
0000
0010
0000
0000
0000
0000
0000
0000
0000
0000
0000
0000
0000
0100
0000
0000
0000
0000
0000
0000
0000
0000
0000
0000
0000
0001
0000
0000
0000
0000
0000
0000
0000
0000
0000
0000
0000
0100
0000
0000
0000
0000
0000
0000
0000
0000
0000
0000
0000
0010
0000
0000
0000
0000
0000
0000
0000
0000
0000
0000
0000
1000
0000
0000
0000
0000
0000
0000
0000
0000
0000
0001
0000
0000
0000
0000
0000
0000
0000
0000
1000
0000
0000
0000
0000
0000
0000
0000
0000
0000
0010
0000
0000
0000
0000
0000
0000
0000
0000
0100
0000
0000
0000
0000
0000
0000
0000
0000
0000
0001
0000
0000
0000
0000
0000
0000
0000
0000
0000
0100
0000
0000
0000
0000
0000
0000
0000
0000
0010
0000
0000
0000
0000
0000
0000
0000
0000
0000
1000
0000
0000
0000
0000
0000
0000
0000
0000
0001
0000
0000
0000
0000
0000
0000
0000
0000
0000
,
0100
0010
0100
0001
1000
0010
1000
0001
0010
0100
1000
0100
0010
0001
1000
0010
,
0100
0000
0000
0001
0000
0000
0100
0000
0000
0010
0000
0000
1000
0000
0000
0001
0000
0000
1000
0000
0000
0001
0000
0000
0010
0000
0000
0000
0000
0000
0001
0000
0000
0000
0000
0000
1000
0000
0001
0000
1000
0000
0001
0000
1000
0000
0001
0000
,
0100
0010
1000
0010
0100
0001
1000
0100
1000
0001
0100
0010
1000
0001
1000
0100
,
0010
0000
0000
0001
0000
0000
0010
0000
0000
0100
0000
0000
1000
0000
0000
0001
0000
0000
1000
0000
0000
0001
0000
0000
0100
0000
0000
0001
0000
0000
1000
0000
0000
0100
0000
0000
0010
0000
0000
0001
0000
0000
1000
0000
0001
0000
1000
0000
,
0001
0010
0100
1000
0001
0100
0001
1000
0100
0010
0001
1000
0001
0010
0100
1000
,
0001
0100
0001
1000
0100
0010
0001
1000
0001
0010
0001
1000
0100
1000
0001
1000
,
0001
0000
0000
0000
0000
0000
0000
0000
0000
0000
0100
0000
0000
0000
0000
0000
0000
0000
0000
0010
0000
0000
0000
0000
0000
0000
0000
0000
0000
1000
0000
0000
0000
0000
0000
0000
0000
0000
0010
0000
0000
0000
0000
0000
0000
0000
0000
0000
1000
0000
0000
0000
0000
0000
0000
0000
0000
0000
0001
0000
0000
0000
0000
0000
0000
0000
0000
1000
0000
0000
0000
0000
0000
0000
0000
0000
0000
0010
0000
0000
0000
0000
0000
0000
0000
0000
0100
0000
0000
0000
0000
0000
0000
0000
0000
0000
0001
0000
0000
0000
0000
0000
0000
0000
0000
0000
1000
0000
0000
0000
0000
0000
0000
0000
0000
0100
0000
0000
0000
0000
0000
0000
0000
0000
0000
0010
0000
0000
0000
0000
0000
0000
0000
0000
0001
0000
0000
0000
0000
0000
0000
0000
0000
0000
1000
0000
0000
0000
0000
0000
0000
0000
0000
0000
0001
0000
0000
0000
0000
0000
0000
0000
0000
1000
0000
0000
0000
0000
0000
0000
0000
0000
0000
0010
0000
0000
0000
0000
0000
0000
0000
0000
0100
0000
0000
0000
0000
0000
0000
0000
0000
0000
,
0004
0000
0000
0000
,
1003
0000
0001
0000
0011
0000
0010
0100
0010
0100
1000
0000
1001
0000
0001
0000
,
1000
0000
0100
0000
0110
0000
0010
0100
1000
0001
0010
0000
0110
0000
0100
0000
,
1000
0000
0001
0000
0101
0000
0100
0010
1000
0001
1000
0000
1010
0000
0010
0000
,
0100
0000
0001
0000
1001
0000
1000
0100
0010
0001
1000
0000
1001
0000
0001
0000
,
M010
0000
0001
0000
1001
0000
1000
0010
0100
0001
0100
0000
0110
0000
0010
0000
,
1000
0000
0001
0000
0011
0000
0010
0100
1000
0100
0010
0000
0011
0000
0001
0000
,
1000
0000
0010
0000
0110
0000
0100
0001
1000
0001
0010
0000
0110
0000
0100
0000
,
10M0
0000
0001
0000
0010
0000
0100
0010
0001
1000
0010
0000
0100
0000
0001
0000
,
1M00
0000
0001
0000
0010
0000
0100
0000
1000
0000
0010
1000
0001
0010
0001
0010
,
0100
0010
0001
0100
0010
0010
0010
1000
,
0001
0000
0010
0000
0100
0000
1000
0000
0010
0000
0100
0001
0100
0010
0100
0010
,
1000
0000
0000
0000
0000
0000
0100
0000
0000
0000
0000
0000
1000
0000
0000
0000
0000
0000
0001
0000
0000
0000
0000
0000
2000
0000
0000
0000
3000
0000
0200
0000
0000
0300
0000
0000
0020
0000
0030
0000
0000
0000
0002
0003
0000
0000
0000
0000
,
1000
0000
0010
0000
0100
0000
0001
0000
1000
0000
0100
0010
0100
1000
0100
1000
,
0001
0100
0010
1000
0100
0100
0100
0010
,
0001
0000
1000
0000
0100
0000
1000
0000
0001
0000
0100
0010
0100
0001
0100
0001
,
1000
0000
0000
0000
0000
0000
0100
0000
0000
0000
0000
0000
0010
0000
0000
0000
0000
0000
0001
0000
0000
0000
0000
0000
02M0
0000
0000
0000
0300
0000
M020
0000
0000
0030
0000
0000
200M
0000
3000
0000
0000
0000
00M2
0003
0000
0000
0000
0000
,
0M20
0000
0000
0000
,
0030
0000
0000
0000
;

//---------------dance-single - Rynker----------------
#NOTES:
     dance-single:
     Rynker:
     Medium:
     13:
     1.000,1.000,0.303,0.165,0.785,991.000,44.000,24.000,10.000,0.000:


0000
0000
0000
0000
,
0000
0000
0000
0000
,
0000
0000
0000
0000
,
0000
0000
0000
0000
,
0000
0000
0000
0000
,
0000
0000
0000
0000
,
0000
0000
0000
0000
,
0000
0000
0000
0000
,
1002
0003
0000
0000
0000
0000
0000
0000
1000
0000
0000
0000
0000
0000
0000
0000
,
0100
0000
0010
0000
,
0012
0003
0000
0000
0000
0000
0000
0000
0010
0000
0000
0000
0000
0000
0000
0000
,
0100
0000
1000
1000
,
1002
0003
0000
0000
0000
0000
0000
0000
0100
0000
0000
0000
0000
0000
0000
0000
,
0010
0000
1000
0000
,
1002
0003
0000
0000
0000
0000
0000
0000
0010
0000
0000
0000
0000
0000
0000
0000
,
0001
1000
0001
0010
0100
1000
0001
1000
,
0020
0030
0100
0000
0000
0000
0100
0000
0002
0003
1000
0000
0000
0000
1000
0000
,
0200
0300
0010
0000
0000
0000
0010
0000
0002
0003
1000
0000
0000
0000
1000
0000
,
0020
0030
1000
0000
0000
0000
1000
0000
0002
0003
0010
0000
0000
0000
0010
0000
,
0200
0300
1000
0000
0000
0000
1000
0000
0002
0003
1000
0000
0002
0003
1000
0000
,
0002
0003
0100
0000
0000
0000
0100
0000
0020
0030
1000
0000
0000
0000
1000
0000
,
0002
0003
0010
0000
0000
0000
0010
0000
0200
0300
1000
0000
0000
0000
1000
0000
,
0002
0003
0100
0000
0000
0000
0100
0000
0020
0030
1000
0000
0000
0000
1000
0000
,
0002
0003
0010
0000
0000
0000
0010
0000
0200
0300
0010
0000
0200
0300
0010
0000
,
0200
0300
1000
0000
0010
0000
0100
0000
0001
0000
0010
0000
0000
0000
0011
0000
,
0000
0001
1000
0010
0100
0010
0000
0110
,
0000
0100
0001
0010
0100
1000
0000
1100
,
0000
0100
0010
0001
1000
0010
0000
1010
,
0000
1000
0001
0010
0100
1000
0000
1100
,
0000
0100
0010
0001
1000
0001
0000
0101
,
0000
0100
0001
0010
0100
1000
0000
1001
,
0000
0001
1000
0010
1000
0001
0010
0100
,
0110
0000
0010
0000
0001
0000
1000
0001
1000
0001
0010
0000
0100
0000
0010
0000
,
0001
0000
1000
0000
0001
0000
1000
0001
1000
0001
0010
0000
0100
0000
1000
0000
,
0001
0000
0100
0000
0010
0000
0100
0010
0100
0010
1000
0000
0001
0000
1000
0000
,
0001
0000
0010
0000
0100
0000
0010
0100
0010
0100
1000
0000
0001
0000
0100
0000
,
0110
0101
1010
1001
,
1100
0011
0110
1001
,
1100
0011
0101
1010
,
0000
0000
0000
0000
0000
000M
00M0
0M00
,
1000
0100
1000
0100
0010
0001
1000
0001
1000
0010
0100
0001
1000
0001
0100
0010
,
1000
0010
0100
0001
1000
0010
0100
0001
1000
0000
0001
0000
4000
0000
0000
0000
,
3001
0100
0010
0100
0001
1000
0001
0010
0100
1000
0001
1000
0001
0010
0100
0010
,
0001
1000
0001
1000
0100
0010
0100
1000
0001
0100
0010
1000
0010
0100
0001
0010
,
0100
1000
0001
0010
0100
1000
0001
1000
0001
0010
0100
1000
0001
0010
0001
1000
,
0100
1000
0100
0010
0001
1000
0001
1000
0010
0100
0010
1000
0001
0100
0010
0100
,
0010
1000
0001
0100
0010
0100
0001
1000
0100
1000
0100
1000
0001
0100
0010
1000
,
0010
0100
0001
1000
0001
1000
0001
0010
0004
0000
0000
0000
0000
0000
0000
0000
,
1003
0000
0100
0000
0010
0000
0001
1000
0001
1000
0001
0000
1000
0000
0010
0000
,
0010
0000
0100
0000
0001
0000
1000
0100
1000
0100
1000
0000
0001
0000
0010
0000
,
0010
0000
0100
0000
1000
0000
0001
0100
0001
0100
0001
0000
1000
0000
0100
0000
,
0100
0000
0010
0000
0001
0000
1000
0100
1000
0100
1000
0000
0001
0000
1000
0000
,
1000
0000
0001
0000
0100
0000
0010
0100
0010
0100
0010
0000
1000
0000
0001
0000
,
0001
0000
0010
0000
0100
0000
1000
0100
1000
0100
1000
0000
0001
0000
0010
0000
,
0010
0000
0001
0000
0100
0000
0010
1000
0010
1000
0010
0000
1000
0000
0001
0000
,
0001
0000
1000
0000
0100
0000
0010
0001
1000
0000
0010
0000
0100
0001
0100
0001
,
0100
0001
1001
1000
0001
0100
0110
0010
,
1000
0001
0011
0010
0100
1000
1001
0001
,
M100
0010
1010
1000
0001
0010
0110
0100
,
0010
0001
1001
1000
0010
0100
0101
0100
,
001M
1000
1001
0001
0010
0100
1100
1000
,
0001
0100
0110
0010
1000
0001
1001
0001
,
M010
0100
1100
1000
0001
0100
0101
0001
,
1000
0000
0100
0000
0110
0000
0010
0000
0001
0000
1000
0000
0100
1000
0100
1000
,
0100
0000
1000
0000
0010
0000
0100
0001
0100
0001
1000
0000
0100
0000
0010
0000
,
0001
0000
1000
0000
0010
0000
0100
0001
0100
0001
1000
0000
0100
0000
0010
0000
,
0001
0000
0010
0000
0100
0000
1000
0001
1000
0001
0100
0000
0010
0000
0100
0000
,
0001
0000
1000
0000
0100
0000
0010
0001
0010
0001
1000
0000
0001
0000
0100
0000
,
0010
0000
1000
0000
0010
0000
0100
0001
0100
0001
1000
0000
0001
0000
0010
0000
,
0100
0000
0010
0000
0100
0000
1000
0001
1000
0001
0100
0000
0010
0000
0100
0000
,
0001
0000
1000
0000
0100
0000
0010
0001
0010
0001
1000
0000
0001
0000
1000
0000
,
000M
00M0
M000
0M00
,
0001
0000
0010
0000
0100
0000
1000
0001
1000
0001
1000
0000
0001
0000
0100
0000
,
0100
0000
0010
0000
1000
0000
0001
0010
0001
0010
0001
0000
1000
0000
0100
0000
,
0100
0000
0010
0000
0001
0000
1000
0010
1000
0010
1000
0000
0001
0000
0010
0000
,
0010
0000
0100
0000
1000
0000
0001
0010
0001
0010
0001
0000
1000
0000
0001
0000
,
0001
0000
1000
0000
0010
0000
0100
0010
0100
0010
0100
0000
0001
0000
1000
0000
,
1000
0000
0100
0000
0010
0000
0001
0010
0001
0010
0001
0000
1000
0000
0100
0000
,
0100
0000
1000
0000
0010
0000
0100
0001
0100
0001
0100
0000
0001
0000
1000
0000
,
1000
0000
0001
0000
0010
0000
0100
1000
0001
0100
0001
0100
0001
0100
0001
0100
,
0001
0000
0010
0000
0100
0000
1000
0001
1000
0001
0010
0000
0001
0000
0100
0000
,
0100
0000
0010
0000
1000
0000
0001
0010
0001
0010
0100
0000
1000
0000
0100
0000
,
0100
0000
0010
0000
0001
0000
1000
0010
1000
0010
0100
0000
0001
0000
0010
0000
,
0010
0000
0100
0000
1000
0000
0001
0010
0001
0010
0100
0000
1000
0000
0001
0000
,
0001
0000
1000
0000
0010
0000
0100
0010
0100
0010
1000
0000
0001
0000
1000
0000
,
1000
0000
0100
0000
0010
0000
0001
0010
0001
0010
0100
0000
1000
0000
0100
0000
,
0100
0000
1000
0000
0010
0000
0100
0001
0100
0001
0010
0000
0001
0000
1000
0000
,
4000
0000
0000
0000
,
3001
0100
0010
0100
0010
1000
0001
1000
0010
0100
0001
0100
0010
1000
0001
0100
,
0010
1000
0001
1000
0010
0100
0010
1000
0001
0000
1000
0000
0100
1000
0100
1000
,
0100
0010
0100
1000
0001
1000
0100
0010
0001
1000
0100
0010
0001
1000
0100
0010
,
0001
1000
0001
1000
0100
0010
0001
1000
0001
1000
0010
0100
0010
0100
0001
0010
,
0100
1000
0100
0010
0001
1000
0001
1000
0001
0100
0010
1000
0010
1000
0001
0100
,
0010
1000
0001
0100
0010
0100
0001
1000
0001
0000
4000
0000
3001
0000
4000
0000
,
3001
0000
0010
0000
0100
0000
1000
0001
1000
0001
0010
0000
0001
0000
0100
0000
,
0100
0000
0010
0000
1000
0000
0001
0010
0001
0010
0100
0000
1000
0000
0100
0000
,
0100
0000
0010
0000
0001
0000
1000
0010
1000
0010
0100
0000
0001
0000
0010
0000
,
0010
0000
0100
0000
1000
0000
0001
0010
0001
0010
0100
0000
1000
0000
0001
0000
,
0001
0000
1000
0000
0010
0000
0100
0010
0100
0010
1000
0000
0001
0000
1000
0000
,
1000
0000
0100
0000
0010
0000
0001
0010
0001
0010
0100
0000
1000
0000
0100
0000
,
0100
0000
1000
0000
0010
0000
0100
0001
0100
0001
0010
0000
0001
0000
1000
0000
,
0001
0000
0010
0000
0100
0000
1000
0001
1000
0001
0010
0000
0001
0000
0100
0000
,
0001
0100
0010
0100
0001
1000
0100
0010
0100
1000
0001
0010
0001
0100
0010
0100
,
0001
1000
0010
0100
0001
1000
0100
0010
0001
1000
0001
0100
0010
0100
0001
1000
,
0001
0000
0010
0000
0001
0000
1000
0001
1000
0001
0010
0000
0100
0000
0010
0000
,
0001
0000
1000
0000
0001
0000
1000
0001
1000
0001
0010
0000
0100
0000
1000
0000
,
0001
0000
0100
0000
0010
0000
0100
0010
0100
0010
1000
0000
0001
0000
1000
0000
,
0001
0000
0010
0000
0100
0000
0010
0100
0010
0100
1000
0000
0001
0000
0100
0000
,
0001
0000
1000
0000
0001
0000
1000
0010
1000
0010
0100
0000
0001
0000
0010
0000
,
0001
0000
1000
0000
0001
0000
1000
0001
1000
0001
0010
0000
0100
0000
1000
0000
,
0001
0000
0100
0000
0010
0000
0100
0010
0100
0010
1000
0000
0001
0000
1000
0000
,
0001
0000
0010
0000
0100
0000
0010
0100
0010
0100
1000
0000
0001
0000
0100
0000
,
0010
0000
1000
0000
0001
0000
0000
0000
0000
0000
1000
0001
1000
0001
0100
0000
,
0000
0010
0000
1000
0100
0010
0001
1000
,
0000
0000
0000
0000
0001
0000
0000
0000
0000
0000
0100
0010
0100
0010
1000
0000
,
0000
0001
0000
0010
0100
1000
0010
0100
,
0001
0000
0000
0000
1000
0000
0000
0000
0000
0000
0010
0100
0010
0100
0001
0000
,
0000
1000
0000
0000
0100
0010
0100
0000
,
0000
0000
0000
0000
1000
0000
0000
0000
0000
0000
0001
0100
0001
1000
0100
0000
,
0010
0001
1000
0010
0100
0010
1000
0001
,
0020
0000
0000
0000
,
0030
0000
0000
0000
;

//---------------dance-single - T. Moore----------------
#NOTES:
     dance-single:
     T. Moore:
     Hard:
     15:
     1.000,1.000,0.572,0.234,1.000,1091.000,83.000,34.000,20.000,0.000:


0000
0000
0000
0000
,
0000
0000
0000
0000
,
0000
0000
0000
0000
,
0000
0000
0000
0000
,
0000
0000
0000
0000
,
0000
0000
0000
0000
,
0000
0000
0000
0000
,
0000
0000
0000
0000
,
2001
3000
0000
0000
0000
0000
0000
0000
0001
0000
0000
0000
0000
0000
0000
0000
,
0010
0000
0100
0000
,
2100
3000
0000
0000
0000
0000
0000
0000
0100
0000
0000
0000
0000
0000
0000
0000
,
0010
0000
0001
0001
,
2001
3000
0000
0000
0000
0000
0000
0000
0010
0000
0000
0000
0000
0000
0000
0000
,
0100
0000
0001
0000
,
2001
3000
0000
0000
0000
0000
0000
0000
0001
0000
0000
0000
0000
0000
0000
0000
,
0010
0001
0010
0001
0010
0001
0010
0001
1000
0000
0001
0000
1000
0000
0001
0000
,
0200
0300
0010
0000
0000
0000
0010
0000
2000
3000
0001
0000
0000
0000
0001
0000
,
0020
0030
0100
0000
0000
0000
0100
0000
2000
3000
0001
0000
0000
0000
0001
0000
,
0200
0300
0001
0000
0000
0000
0001
0000
2000
3000
0100
0000
0000
0000
0100
0000
,
0020
0030
0001
0000
0000
0000
0001
0000
2000
3000
0001
0000
2000
3000
0001
0000
,
2000
3000
0010
0000
0000
0000
0010
0000
0200
0300
0001
0000
0000
0000
0001
0000
,
2000
3000
0100
0000
0000
0000
0100
0000
0020
0030
0001
0000
0000
0000
0001
0000
,
0200
0300
0001
0000
0000
0000
0001
0000
0020
0030
0100
0000
0000
0000
0100
0000
,
2000
3000
0001
0000
0000
0000
0001
0000
0020
0030
0100
0000
0020
0030
0100
0000
,
0020
0030
0001
0000
0100
0000
0010
0000
1000
0000
0100
0000
0000
0000
0100
0000
,
1000
0010
0100
0001
0010
0100
0000
0100
,
0010
0001
0100
0010
1000
0100
0000
0100
,
1000
0010
0100
0001
0010
0100
0000
0100
,
2000
3000
0100
0000
0010
0000
0001
0000
0100
0000
0010
0000
0000
0000
0010
0000
,
0100
0001
0010
0100
1000
0010
0000
0010
,
1000
0100
0010
0001
0100
0010
0000
0010
,
0200
0300
0001
0000
0010
0000
0100
0000
1000
0000
0010
0000
0000
0000
0010
0000
,
011M
0000
0100
0000
0001
0000
1000
0001
1000
0001
0010
0000
0100
0000
0010
0000
,
0001
0000
0001
0000
1000
0000
0001
0010
0001
0010
0100
0000
1000
0000
0100
0000
,
0010
0000
0010
0000
0001
0000
0010
0100
0010
0100
1000
0000
0001
0000
1000
0000
,
0010
0000
0010
0000
0100
0000
0010
0100
0010
0100
0001
0000
0010
0000
0001
0000
,
1001
0101
1010
1001
,
1100
0011
0110
1001
,
1100
0011
0101
1010
,
000M
M000
00M0
0M00
,
1000
0100
0010
0001
1000
0001
0100
0001
1000
0010
0100
0001
1000
0001
0100
0010
,
1000
0001
0010
0001
1000
0100
0010
0001
1000
0000
0001
0000
4000
0040
0000
3000
,
0130
0001
1000
0001
0100
0010
1000
0001
0010
0100
1000
0100
0010
0001
1000
0100
,
1000
0001
0100
0010
1000
0010
0100
0001
1000
0001
0010
0001
1000
0010
0400
0000
,
0301
1000
0001
0100
0010
1000
0001
1000
0001
0010
0100
1000
0001
0100
0010
1000
,
0010
0100
0001
1000
0100
1000
0001
0010
0100
0010
0001
1000
0100
0010
0001
1000
,
0001
0100
0010
1000
0001
1000
0010
0100
0001
1000
0100
1000
0001
0100
0010
1000
,
0010
0000
0000
0100
0000
0000
0001
0000
0000
1000
0000
0000
0100
0000
0000
1000
0000
0000
0001
0000
0000
0010
0000
0000
0400
0000
0000
4000
0000
0000
0000
0000
0000
0000
0000
0000
0000
0000
0000
0000
0000
0000
0000
0000
0300
0000
0000
0000
,
3001
0010
0001
1000
0100
1000
0001
0010
0100
1000
0001
0100
0010
1000
0001
1000
,
0100
1000
0001
0010
0100
0010
0001
1000
0001
0000
1000
0000
0040
4000
0000
0030
,
3001
0100
0001
1000
0100
1000
0001
0010
0100
1000
0001
0100
0010
0100
0001
1000
,
0100
0010
0001
1000
0010
1000
0001
0010
0100
1000
0001
0100
0010
1000
0004
0000
,
1003
0100
0010
0001
1000
0001
0100
0010
1000
0010
0100
0001
1000
0100
0010
0001
,
1000
0010
1000
0001
0100
0010
1000
0010
0100
0001
1000
0001
0100
0010
1000
0001
,
0010
0100
0010
0001
1000
0100
1000
0001
0010
0100
1000
0001
0100
0001
1000
0100
,
0010
0001
0010
0001
1000
0001
0400
0000
0301
0000
1000
0000
0400
4000
0000
0300
,
3001
0010
1001
0001
1000
0010
0110
0100
,
0001
1000
1100
0100
0010
0001
1001
1000
,
001M
0100
0101
0001
1000
0100
0110
0010
,
0100
1000
1001
0001
0100
0010
1010
0010
,
M100
0001
1001
1000
0100
0010
0011
0001
,
1000
0010
0110
0100
0001
1000
1001
1000
,
010M
0010
0011
0001
1000
0010
1010
1000
,
0001
0000
0010
0000
0110
0000
0100
0000
1000
0000
0001
0000
0040
0004
0000
0030
,
1003
0000
0001
0000
0101
0000
0100
0001
1000
0001
0100
0000
0110
0000
0010
0000
,
1000
0000
0001
0000
0011
0000
0010
0001
1000
0010
0100
0000
0101
0000
0001
0000
,
1000
0000
0100
0000
0110
0000
0010
0001
1000
0100
1000
0000
1001
0000
0001
0000
,
0100
0000
0010
0000
1010
0000
1000
0001
0010
0100
1000
0000
1001
0000
0001
0000
,
0010
0000
0001
0000
0101
0000
0100
0010
1000
0010
0100
0000
0101
0000
0001
0000
,
1000
0000
0100
0000
0110
0000
0010
0001
0100
0010
1000
0000
1001
0000
0001
0000
,
0010
0000
0100
0000
1100
0000
1000
0001
0100
0010
1000
0000
1001
0000
0001
0000
,
M000
0M00
000M
00M0
,
0001
0100
0010
1000
0001
1000
0100
1000
0001
0010
0100
1000
0001
1000
0100
0010
,
0001
1000
0010
1000
0001
0100
0010
1000
0001
0000
1000
0000
0004
0040
0000
0003
,
0130
1000
0100
0010
0001
1000
0001
0100
0010
0100
0001
1000
0100
0010
0001
0010
,
0100
1000
0001
0100
0010
1000
0001
1000
0010
0100
0001
1000
0100
0010
0004
0000
,
0013
0100
1000
0001
0100
0001
1000
0100
0010
0001
1000
0010
1000
0001
0010
0100
,
0010
0001
1000
0010
0100
0001
1000
0010
0100
0010
1000
0001
0100
0010
1000
0001
,
1000
0100
0010
0001
1000
0001
0010
0100
1000
0001
0100
0001
1000
0100
0010
0001
,
0010
0000
0000
0100
0000
0000
1000
0000
0000
0001
0000
0000
0100
0000
0000
0001
0000
0000
1000
0000
0000
0010
0000
0000
0400
0000
0000
0004
0000
0000
0000
0000
0000
0000
0000
0000
0000
0000
0000
0000
0000
0000
0000
0000
0300
0000
0000
0000
,
1003
0010
1000
0001
0100
0001
1000
0010
0100
0001
0100
0010
1000
0001
1000
0010
,
0100
0001
1000
0100
0010
0001
1000
0001
0010
0000
0100
0000
4000
0004
0000
3000
,
0103
0010
0100
0001
1000
0100
0010
0001
1000
0001
0100
0010
1000
0010
0100
0001
,
1000
0100
1000
0001
0010
0001
1000
0001
0100
0001
1000
0100
0010
0001
4000
0000
,
3001
0100
0010
1000
0001
1000
0100
0010
0001
0010
0100
1000
0001
0100
0010
1000
,
0001
0010
0001
1000
0100
0010
0001
0010
0100
1000
0001
0100
0001
1000
0100
0010
,
0004
4000
0000
0000
0000
0000
0000
0000
0000
0000
0000
0000
0000
0000
0000
0000
,
0040
0000
0000
0000
0000
0000
0000
0033
,
3001
0100
0001
1000
0010
1000
0001
1000
0100
0010
0001
0010
0100
1000
0001
0100
,
0001
1000
0010
1000
0001
0010
0001
1000
0100
0000
1000
0000
0004
4000
0000
0003
,
3010
0100
0010
1000
0001
1000
0010
0100
0001
1000
0100
1000
0001
0010
0001
1000
,
0100
0010
0001
1000
0010
0100
0001
1000
0100
0010
0100
1000
0001
0100
0040
0000
,
0130
0001
1000
0001
1000
0100
0010
0001
1000
0001
0010
0001
1000
0010
0100
0001
,
1000
0001
0100
0010
1000
0001
0010
0100
1000
0000
0004
0000
1003
0000
0004
0000
,
1003
0100
0010
0001
1000
0001
0010
0100
1000
0001
0010
0001
1000
0010
0100
0001
,
1000
0000
0000
0001
0000
0000
1000
0000
0000
0100
0000
0000
0010
0000
0000
0001
0000
0000
0010
0000
0000
0100
0000
0000
4000
0000
0000
0004
0000
0000
0000
0000
0000
0000
0000
0000
0000
0000
0000
0000
0000
0000
0000
0000
3000
0000
0000
0000
,
0013
0100
0010
0001
1000
0100
1000
0001
0100
0010
1000
0010
0100
0001
1000
0100
,
0010
0001
0010
0100
1000
0001
1000
0001
0100
0000
0001
0000
4000
0004
0000
3000
,
0013
0100
1000
0100
0010
0001
1000
0010
1000
0001
0010
0100
1000
0001
1000
0010
,
0100
0001
0100
0010
1000
0001
1000
0001
0010
0001
1000
0010
0100
0001
4000
0000
,
3001
0100
0010
1000
0001
0010
0001
1000
0010
0100
0001
1000
0001
0100
0010
1000
,
0001
0010
0001
1000
0010
0100
0001
1000
0001
0100
0001
1000
0010
1000
0001
1000
,
0004
0400
0000
0000
0000
0000
0000
0000
0000
0000
0000
0000
0000
0000
0000
0000
,
0040
0000
0000
0000
,
0333
0000
1000
0000
1001
0000
0001
0010
0001
0010
0100
0000
1100
0000
1000
0000
,
0001
0000
0010
0000
0110
0000
0100
0010
0001
1000
0100
0000
0110
0000
0010
0000
,
0001
0000
1000
0000
1010
0000
0010
0100
0001
1000
0001
0000
0101
0000
0100
0000
,
0010
0000
1000
0000
1001
0000
0001
0010
0100
1000
0001
0000
1001
0000
1000
0000
,
010M
0000
1000
0000
1001
0000
0001
0100
0010
1000
0010
0000
0110
0000
0100
0000
,
0001
0000
1000
0000
1100
0000
0100
0010
0001
0010
0100
0000
1100
0000
1000
0000
,
0001
0000
0100
0000
0110
0000
0010
1000
0001
1000
0100
0000
0110
0000
0010
0000
,
0M01
0000
1000
0000
0100
0000
0010
0100
1000
0001
0100
0000
0010
0000
1000
0000
,
00M1
0000
1000
0000
0100
0000
0010
0000
0001
0000
0100
0001
1000
0100
1000
0100
,
0010
0100
1000
0010
0100
0100
0100
0001
,
1000
0000
0100
0000
0010
0000
0001
0000
0100
0000
0010
1000
0010
0100
0010
0100
,
0001
0000
0000
0000
0000
0000
0010
0000
0000
0000
0000
0000
0001
0000
0000
0000
0000
0000
1000
0000
0000
0000
0000
0000
0002
0000
0000
0000
0003
0000
0020
0000
0000
0030
0000
0000
0200
0000
0300
0000
0000
0000
2000
3000
0000
0000
0000
0000
,
0001
0000
0100
0000
0010
0000
1000
0000
0001
0000
0010
0100
0010
0001
0010
0001
,
1000
0010
0100
0001
0010
0010
0010
0100
,
1000
0000
0001
0000
0010
0000
0001
0000
1000
0000
0010
0100
0010
1000
0010
1000
,
0001
0000
0000
0000
0000
0000
0010
0000
0000
0000
0000
0000
0100
0000
0000
0000
0000
0000
1000
0000
0000
0000
0000
0000
0M20
0000
0000
0000
0030
0000
020M
0000
0000
0300
0000
0000
M002
0000
0003
0000
0000
0000
2M00
3000
0000
0000
0000
0000
,
02M0
0000
0000
0000
,
0300
0000
0000
0000
;
