#TITLE:Enemy Storm;
#SUBTITLE:(SC Style);
#ARTIST:Croove;
#TITLETRANSLIT:;
#SUBTITLETRANSLIT:;
#ARTISTTRANSLIT:;
#CREDIT:;
#BANNER:Enemy Storm (SC Style).png;
#BACKGROUND:Enemy Storm (SC Style)-bg.png;
#LYRICSPATH:;
#CDTITLE:NVLM-cdtitle.png;
#MUSIC:Enemy Storm (SC Style).mp3;
#OFFSET:-0.053;
#SAMPLESTART:86.666;
#SAMPLELENGTH:12.000;
#SELECTABLE:YES;
#BPMS:0.000=133.000;
#STOPS:;
#BGCHANGES:;
// cache tags:
#FIRSTBEAT:4.000;
#LASTBEAT:253.750;
#SONGFILENAME:Songs/toune 8/Enemy Storm (SC Style)/Enemy Storm (SC Style).sm;
#HASMUSIC:1;
#HASBANNER:1;
#MUSICLENGTH:114.964;
// end cache tags

//---------------dance-single - ----------------
#NOTES:
     dance-single:
     :
     Hard:
     11:
     0.895,0.854,0.713,0.087,1.000,628.000,82.000,10.000,0.000,0.000:  // measure 1
0000
0000
0000
0000
,  // measure 2
0100
0010
0000
0001
0010
0000
0100
0100
0000
1000
0010
0000
0100
0001
0000
0000
,  // measure 3
1001
0000
0000
1010
0000
0000
1100
0000
0000
0000
0000
0000
0000
0000
0000
0000
,  // measure 4
1000
0100
0000
0010
0001
0000
1000
0010
0000
0100
0110
0000
0000
0000
0000
0000
,  // measure 5
0101
0000
0000
0011
0000
0000
1001
0000
0000
0000
0000
0000
0000
0000
0000
0000
,  // measure 6
1000
0001
0000
0010
0100
0000
1000
0010
0000
0001
0101
0000
0000
0011
0000
0000
,  // measure 7
1010
0000
0000
1100
0000
0000
1001
0000
0000
0000
0000
0000
0000
0000
0000
0000
,  // measure 8
0100
0100
0000
0000
0010
0010
0000
0000
1000
1000
0000
0000
0001
0001
0000
0000
,  // measure 9
0010
0000
0100
1000
0000
0010
0100
0000
0001
1000
0000
1000
0100
0000
0010
0001
,  // measure 10
0010
0100
1000
0001
1000
0100
0001
0100
1000
0010
0100
0001
0010
0100
0000
1000
,  // measure 11
0001
0000
0100
0010
0000
1000
0100
0000
0010
0001
0000
1000
0001
0000
0010
0100
,  // measure 12
1000
0010
0100
0001
0100
0001
1000
0100
0010
0001
0100
0010
1000
0100
0000
0100
,  // measure 13
1001
0000
0001
0100
0000
0100
1000
0000
0001
0010
0000
0100
0010
0000
1000
0100
,  // measure 14
1000
0010
0100
0001
0010
1000
0010
0001
0100
0010
1000
1000
0100
0010
0000
0001
,  // measure 15
1000
0000
0100
0010
0000
0001
1000
0000
0100
0001
0000
0100
1000
0000
0010
0100
,  // measure 16
0001
1000
0100
1000
0010
0100
0001
1000
0100
0010
0001
1000
0101
0000
0000
0000
,  // measure 17
0010
0100
0010
0001
0000
0000
1000
0100
0010
0001
0000
0000
0101
0000
0101
0000
,  // measure 18
1000
0100
0000
0010
0001
0000
0100
1000
0000
0100
0010
0000
1001
0000
1001
0000
,  // measure 19
0010
0100
0010
0100
0000
0000
1000
0100
0010
0001
0000
0000
0110
0000
0110
0000
,  // measure 20
0010
1000
0000
0100
0001
0000
1000
0001
0000
0100
0010
0000
1001
0000
1001
0000
,  // measure 21
0100
0010
0001
0100
0000
0000
0010
1000
0010
1000
0000
0000
1100
0000
1100
0000
,  // measure 22
0010
0001
0000
0010
1000
0000
0100
0010
0000
0001
0100
0000
1001
0000
1001
0000
,  // measure 23
0010
0100
0010
1000
0000
0000
0001
0100
0010
1000
0000
0000
1100
0000
1010
0000
,  // measure 24
2002
0000
0000
0000
3003
0000
1100
1100
,  // measure 25
0010
0001
0010
0001
0100
0010
0100
0020
0000
0000
1030
0000
0100
1000
0000
0000
,  // measure 26
0010
0100
0010
0100
1000
0100
1000
0200
0000
0001
0300
0001
0000
0000
0000
0000
,  // measure 27
1000
0100
1000
0100
0010
0001
0010
0002
0000
0000
0103
0000
0010
0100
0000
0000
,  // measure 28
0001
1000
0001
1000
0100
0010
0100
0020
0000
0001
0030
0001
0000
0000
0000
0000
,  // measure 29
0010
1000
0010
1000
0100
0001
0100
0002
0000
0000
1003
0000
0100
1000
0000
0000
,  // measure 30
0010
0001
0010
0100
1000
0001
1000
0002
0000
0100
0003
0100
0000
0000
0000
0000
,  // measure 31
0100
1000
0100
1000
0001
0010
0001
0020
0000
0000
0130
0000
1000
0100
0000
0000
,  // measure 32
1000
0001
1000
0001
0010
0100
0010
0002
0000
1000
0003
1000
0100
0000
0010
0000
,  // measure 33
1001
0000
0000
1000
0100
0010
0000
0000
0001
0100
0000
0010
1000
0000
0001
0100
,  // measure 34
0000
0000
1000
0000
0100
1000
0000
0010
0100
0000
0001
1001
0000
0000
0100
0000
,  // measure 35
1100
0000
0000
1000
0001
0001
0000
0000
0010
0100
0000
0010
0001
0000
1000
0100
,  // measure 36
0000
0001
0100
0000
0010
1000
0000
0010
0001
0000
0100
0110
0000
0000
1000
0000
,  // measure 37
1100
0000
0000
0010
1000
0100
0000
0000
0001
0010
0000
0001
0001
0000
0100
0010
,  // measure 38
0000
0100
1000
0000
0001
0010
0000
0001
1000
0000
0100
0110
0000
0010
0001
0000
,  // measure 39
1001
0000
0000
0001
1000
0100
0000
0010
0001
1000
0000
0010
0100
0000
0001
0010
,  // measure 40
0000
0100
0010
0000
0001
0100
0000
1000
0100
0000
0001
1000
0000
0010
0001
0000
,  // measure 41
0110
0000
0000
0100
1000
0001
0000
0000
0101
0000
0000
0001
0010
0100
0000
0000
,  // measure 42
1100
0000
0000
1000
0010
0100
0000
0000
0101
0000
0000
0001
1000
0100
0000
0000
,  // measure 43
1001
0000
0000
1000
0100
0010
0000
0000
0110
0000
0000
0010
0001
1000
0000
0000
,  // measure 44
0101
0000
0000
0100
1000
0100
0000
0000
1010
0000
0000
0010
0001
0010
0100
0000
,  // measure 45
1001
0010
1001
0100
0011
1000
0110
0001
,  // measure 46
1100
0010
0101
1000
0110
0001
1010
0100
,  // measure 47
0010
0001
0010
0100
0010
1000
0010
0100
0010
0001
0010
0100
0010
1000
0010
0100
,  // measure 48
0011
0000
0000
0000
,  // measure 49
1000
0100
0000
0001
0100
0000
1000
0010
0000
0001
0010
0000
1100
0000
1001
0000
,  // measure 50
0100
0010
0000
0100
1000
0000
0010
0100
0000
0010
0001
0000
1100
0000
1010
0000
,  // measure 51
0100
0001
0000
0100
1000
0000
0010
1000
0000
0010
0001
0000
0110
0000
1100
0000
,  // measure 52
0001
0010
0000
0001
0100
0000
1000
0100
0000
1000
0010
0000
0101
0000
1001
0000
,  // measure 53
0010
0100
0000
0010
0001
0000
0100
0010
0000
0100
1000
0000
0011
0000
0110
0000
,  // measure 54
1000
0001
0000
1000
0100
0000
0001
1000
0000
0001
0010
0000
1100
0000
1001
0000
,  // measure 55
0100
0010
0000
0100
0001
0000
0010
0100
0000
0010
1000
0000
0101
0000
0110
0000
,  // measure 56
1000
0001
0000
1000
0010
0000
0001
1000
0000
0001
0100
0000
1010
0000
0101
0000
,  // measure 57
1000
0010
1000
0100
1000
0010
1000
0100
0010
0001
0011
0000
0000
0110
0000
0000
,  // measure 58
0100
1000
0100
0010
0100
1000
0100
0010
0001
1000
0001
0100
0010
1000
0100
1000
,  // measure 59
0001
0010
0001
0100
0001
0010
0001
0100
0010
1000
1100
0000
0000
0101
0000
0000
,  // measure 60
0001
0010
0001
1000
0001
0010
0001
1000
0100
0100
0010
0001
0010
0100
1000
0010
,  // measure 61
0100
0001
0100
1000
0100
0001
0100
1000
0010
0100
0101
0000
0000
1001
0000
0000
,  // measure 62
1000
0100
0010
0001
0010
0001
0100
0010
1000
0100
1000
0001
0100
1000
0100
0010
,  // measure 63
1000
0001
1000
0100
1000
0001
1000
0100
0010
0001
1001
0000
0000
1100
0000
0000
,  // measure 64
0110
0000
0000
0011
0000
0000
0101
0000
0000
0000
0000
0000
0000
0000
0000
0000
;

//---------------dance-single - ----------------
#NOTES:
     dance-single:
     :
     Challenge:
     15:
     1.000,1.000,1.000,0.339,1.000,953.000,411.000,39.000,0.000,38.000:  // measure 1
0000
0000
0000
0000
,  // measure 2
1001
1000
0100
0001
0010
0100
1000
0010
0110
0001
0100
1000
0010
0100
0001
0010
,  // measure 3
1101
1000
0000
1011
0001
0000
1101
0100
0010
0000
0010
0000
0010
0010
0010
0000
,  // measure 4
1001
0100
0010
0001
0100
1000
0010
0100
0001
1000
2200
0000
0000
3300
0000
0000
,  // measure 5
1101
0001
0000
0111
0010
0000
1011
1000
0100
0000
0100
0000
0010
0010
0010
0000
,  // measure 6
1001
0100
0010
1000
0001
0010
0100
1000
0010
0100
1101
0001
0000
0111
0010
0000
,  // measure 7
1110
0010
0000
1101
0100
0000
1011
1000
0100
0100
0010
0100
0100
0001
1000
0100
,  // measure 8
0220
0000
0330
0000
0011
0011
0011
0000
2002
0000
3003
0000
0220
2002
3333
0000
,  // measure 9
0011
1100
0011
1100
1100
0011
1100
0011
0011
1100
0011
1100
1100
0011
0011
1100
,  // measure 10
1010
1010
0101
1010
0101
0101
1010
0101
1010
1010
0101
1010
0101
0101
1010
0101
,  // measure 11
1001
0110
0110
1001
0110
1001
1001
0110
1001
0110
0110
1001
0110
1001
1001
0110
,  // measure 12
1100
0011
1100
1100
0011
1100
0011
0011
1100
0011
1100
0011
0011
1100
0011
0110
,  // measure 13
0101
0101
1010
0101
1010
1010
0101
1010
0101
0101
1010
0101
1010
1010
0101
1010
,  // measure 14
0110
0110
1001
0110
1001
1001
0110
1001
1001
0110
0110
1001
0110
1001
1001
0110
,  // measure 15
1010
1010
0101
1010
0101
0101
1010
0101
1010
1010
0101
1010
0101
0101
1010
1010
,  // measure 16
1001
1001
1100
0011
0110
1000
1001
0010
0100
1001
0100
0110
1001
1001
1001
1001
,  // measure 17
0110
0001
0001
1100
0010
0010
1001
0100
0010
0011
1000
1000
0101
0010
0101
0010
,  // measure 18
1001
0100
0100
0011
1000
1000
0101
0010
0010
1001
0100
0100
1001
0010
1001
0010
,  // measure 19
0110
1000
1000
0101
0010
0010
1001
0100
0100
0011
1000
1000
0110
0001
0110
1000
,  // measure 20
0001
1001
0100
0100
0011
1000
1000
0110
0001
1100
0010
0010
1001
0100
1001
0010
,  // measure 21
0110
1000
1000
0101
0010
0010
1001
0100
0100
1010
0001
0001
0110
1000
0110
0001
,  // measure 22
1100
0010
0010
1001
0100
0100
0011
1000
1000
0110
0001
0001
1100
0010
1100
0001
,  // measure 23
0011
1000
1000
0110
0001
0001
1010
0100
0100
1001
0010
0010
1100
0001
0110
1000
,  // measure 24
2002
0100
0010
0100
0010
0100
0010
0100
3013
0100
0010
0001
1100
1100
1100
0000
,  // measure 25
1010
0001
0110
0001
1100
0010
0101
0020
0000
0000
1031
0000
0100
1000
0001
1000
,  // measure 26
0011
0100
1010
0100
0011
0100
1001
0200
0000
0011
0300
0011
0000
1000
0100
0010
,  // measure 27
1010
0100
1001
0100
1010
0001
0110
0002
0000
0000
1103
0000
0010
0100
0001
0010
,  // measure 28
0101
1000
0110
1000
0101
0010
1001
0020
0000
0101
0030
0101
0000
1000
0100
0001
,  // measure 29
0011
1000
0110
1000
0101
0001
1100
0002
0000
0000
1013
0000
0100
1000
0001
0100
,  // measure 30
1010
0001
0110
0100
1010
0001
1100
0002
0000
0110
0003
0110
0000
1000
0001
0010
,  // measure 31
0110
1000
0101
1000
1001
0010
0101
0020
0000
0000
0131
0000
1000
0100
0010
0010
,  // measure 32
1100
0001
1010
0001
1100
0100
1010
0002
0000
1010
0003
1010
0100
0001
0010
0100
,  // measure 33
1001
0100
0010
0000
0110
1000
0001
0000
0011
1000
1000
0110
0001
0001
1100
0010
,  // measure 34
0010
0100
0001
0000
0100
1001
0010
0010
1100
0001
0001
0110
1000
1000
0110
0001
,  // measure 35
1100
0010
0001
0000
0101
1000
1000
0000
1010
0100
0100
0011
0001
1000
0110
0001
,  // measure 36
0001
0110
0010
1000
0101
0001
0010
1100
1000
0010
0101
0100
0010
1001
0001
0100
,  // measure 37
1100
0010
0001
0000
1001
0100
0010
0000
0011
1000
1000
0110
0010
0001
1010
0100
,  // measure 38
0100
1001
0010
0010
1100
0001
1000
0000
0011
0001
1000
0110
0001
0010
1100
0001
,  // measure 39
1001
0100
0010
0000
1001
0010
0010
0101
1000
1000
0000
0110
0010
1000
0011
0100
,  // measure 40
1000
0101
0010
0010
1001
0001
0010
1100
1000
0010
0101
0100
0010
1001
0001
0010
,  // measure 41
2200
0000
3310
0010
0100
0001
0001
0010
2002
0000
3103
0100
0010
0001
0001
0100
,  // measure 42
2020
0000
0000
0000
3130
0000
0100
0000
0001
0000
0010
0000
0010
0000
0001
0000
1100
0001
1000
0000
0010
0000
0100
0000
0001
0000
0001
0000
0010
0000
0000
0000
,  // measure 43
2002
0000
0010
0000
3103
0000
0100
0000
0010
0000
0001
0000
0001
0000
0100
0000
1010
0100
0010
0000
1000
0000
1000
0000
0001
0000
0010
0000
0010
0000
0100
0000
,  // measure 44
2001
0000
3001
0001
0100
0010
0010
1000
2200
0000
3301
0001
0010
0100
0100
1000
,  // measure 45
1001
0000
0010
0000
0100
0000
0010
0000
1001
0000
0100
0000
0010
0000
0001
1000
0101
0000
1000
0000
0100
0000
0010
0000
1001
0000
0010
0000
0100
0000
1000
0001
,  // measure 46
1010
0000
0010
0000
0100
0000
0001
0010
1001
0000
0100
0000
0010
0000
0001
0000
0101
0000
1000
0000
0100
0000
0010
0000
1010
0000
0100
0000
0001
0000
1000
0100
,  // measure 47
0010
0001
0000
0000
0100
1000
0000
0000
0010
0001
0000
0000
0100
1000
0000
0000
0010
0001
0000
0000
0100
1000
0000
0000
0010
0001
0000
0000
0100
1000
0000
0000
0010
0001
0000
0000
0100
1000
0000
0000
0010
0001
0000
0000
0100
1000
0000
0000
0010
0001
0000
0000
0100
1000
0000
0000
0010
0001
0000
0000
0100
1000
0000
0000
,  // measure 48
2012
0000
3003
0000
0101
0101
0101
0000
2200
0000
3300
0000
2020
0202
3333
0000
,  // measure 49
0101
0100
1001
0010
0010
1100
0001
0001
0110
1000
1000
0110
0101
0101
0101
1000
,  // measure 50
0110
0001
1100
0010
0010
1001
0100
0100
0011
1000
1000
0110
0101
0101
1001
0010
,  // measure 51
0110
1000
0011
0100
0100
1001
0010
0010
0101
1000
1000
0110
0011
0101
0101
0010
,  // measure 52
1001
0100
1100
0001
0001
0110
1000
1000
0011
0100
0100
1001
0011
0011
0110
1000
,  // measure 53
1001
0100
0011
1000
1000
0110
0001
0001
1100
0010
0010
1001
0101
1100
1100
0010
,  // measure 54
1001
1000
0110
0001
0001
1100
0010
0010
1001
0100
0100
0011
1001
1010
1010
0100
,  // measure 55
1001
0001
1010
0100
0100
1001
0010
0010
0101
1000
1000
0110
0011
0011
0101
1000
,  // measure 56
1010
0100
0011
1000
1000
0110
0001
0001
1100
0010
0010
1001
0101
0110
0110
1000
,  // measure 57
1001
0010
0010
1100
0001
0001
0110
1000
1000
0110
0100
1001
0100
0100
0011
1000
,  // measure 58
0101
0010
0010
1100
0001
0001
0110
1000
1000
0010
0110
1001
1001
0101
0110
1010
,  // measure 59
1001
0100
0100
0011
1000
1000
0110
0001
0001
1010
0100
1100
0001
0001
1010
0100
,  // measure 60
0101
0000
1000
0000
1000
0000
0110
0000
0001
0000
0001
0000
1100
0000
0010
0000
0110
0000
1001
0000
0110
0000
1100
0000
1000
0010
1000
0010
0100
0001
0100
0001
,  // measure 61
1010
0001
0001
0110
1000
1000
0011
0100
0100
0011
0010
1001
0100
0100
0011
1000
,  // measure 62
1001
0000
0010
0000
0010
0000
1100
0000
0001
0000
0001
0000
0110
0000
1000
0000
1001
0000
0100
0000
0010
0000
0001
0000
0100
0010
0100
0010
1000
0001
1000
0001
,  // measure 63
0110
0001
0001
1010
0100
0100
1001
0010
0010
1100
0100
0011
1000
1000
0101
0001
,  // measure 64
0110
1000
1000
0011
0100
0100
1111
1111
0000
0000
0000
0000
0000
0000
0000
0000
;

//---------------dance-single - ----------------
#NOTES:
     dance-single:
     :
     Medium:
     9:
     0.584,0.551,0.522,0.070,0.439,402.000,60.000,8.000,0.000,0.000:  // measure 1
0000
0000
0000
0000
,  // measure 2
0100
0100
0100
0100
,  // measure 3
1001
0000
0000
1010
0000
0000
0110
0000
0000
0000
0000
0000
0000
0000
0000
0000
,  // measure 4
1000
1000
1000
1000
,  // measure 5
0101
0000
0000
0110
0000
0000
1010
0000
0000
0000
0000
0000
0000
0000
0000
0000
,  // measure 6
0001
0000
0000
0000
0001
0000
0000
0000
0000
0000
0110
0000
0000
1010
0000
0000
,  // measure 7
1100
0000
0000
0101
0000
0000
1001
0000
0000
0000
0000
0000
0000
0000
0000
0000
,  // measure 8
0110
0000
0000
0000
1000
0001
1000
0000
0001
0000
0000
0000
0110
0000
0000
0000
,  // measure 9
1000
0100
0010
0001
0100
1000
0100
0010
,  // measure 10
1000
0001
0000
1000
0100
0000
0010
0001
0000
0010
0100
0000
1000
0001
1000
0000
,  // measure 11
0010
0100
0001
0010
0100
1000
0010
0100
,  // measure 12
0001
1000
0000
0001
0010
0000
0100
1000
0000
0100
0010
0000
0001
1000
0001
0000
,  // measure 13
0100
0010
0100
0010
1000
0100
0001
0100
,  // measure 14
1000
0010
0000
1000
0100
0000
0010
0001
0000
1000
0001
0000
0010
0100
0010
0000
,  // measure 15
0001
0100
0010
1000
0100
0001
0100
1000
,  // measure 16
0010
0100
0000
0001
0100
0000
0010
1000
0000
0100
1000
0000
1001
0000
0000
0000
,  // measure 17
0100
0000
0000
0100
0000
0000
0010
0000
0000
1000
0000
0000
0001
0000
0101
0000
,  // measure 18
0100
0000
0000
0010
0000
0000
1000
0000
0000
0100
0000
0000
0010
0000
0011
0000
,  // measure 19
0001
0000
0000
0100
0000
0000
0010
0000
0000
1000
0000
0000
0100
0000
0110
0000
,  // measure 20
0000
0010
0000
0000
0001
0000
0000
0100
0000
0010
0000
0000
1000
0000
1010
0000
,  // measure 21
0010
0000
0000
0100
0000
0000
0001
0000
0000
0010
0000
0000
0100
0000
1100
0000
,  // measure 22
1000
0000
0000
0001
0000
0000
0100
0000
0000
0010
0000
0000
0010
0000
1001
0000
,  // measure 23
1000
0000
0000
0010
0000
0000
0100
0000
0000
0100
0000
0000
0001
0000
0011
0000
,  // measure 24
0110
0000
0000
0000
0000
0000
0100
0100
,  // measure 25
0010
0000
0001
1000
0000
0001
1000
0000
0000
0000
0000
0000
0100
0000
0000
0000
,  // measure 26
0010
0000
1000
0001
0000
1000
0001
0000
0000
0100
0000
0100
0000
0000
0000
0000
,  // measure 27
0010
0000
0100
0001
0000
1000
0001
0000
0000
0000
0000
0000
0010
0000
0000
0000
,  // measure 28
0100
0000
1000
0010
0000
1000
0001
0000
0000
0010
0000
0010
0000
0000
0000
0000
,  // measure 29
0001
0000
0010
0100
0000
1000
0100
0000
0000
0000
0000
0000
0010
0000
0000
0000
,  // measure 30
1000
0000
0001
0100
0000
0001
0010
0000
0000
0100
0000
0100
0000
0000
0000
0000
,  // measure 31
1000
0000
0010
0100
0000
0001
0100
0000
0000
0000
0000
0000
1000
0000
0000
0000
,  // measure 32
0001
0000
0010
0100
0000
1000
0100
0000
0000
0010
0000
0001
0000
0100
0000
0000
,  // measure 33
1000
0000
0000
1000
0100
0000
0010
0000
0001
0000
1000
0000
1000
0000
0000
0000
,  // measure 34
0010
0100
0010
0000
1000
0000
0100
0000
0010
0000
0001
0000
1001
0000
0000
0000
,  // measure 35
0010
0000
0000
0010
1000
0000
0100
0000
0010
0000
0001
0000
0001
0000
0000
0000
,  // measure 36
0100
0010
0000
0100
0010
0000
1000
0000
0001
0000
0010
0000
0110
0000
0000
0000
,  // measure 37
1000
0000
0000
1000
0100
0000
0010
0000
0000
0000
0001
0000
1000
0000
0000
0000
,  // measure 38
0001
0100
0000
0001
0010
0000
0100
0000
0000
0000
1000
0000
0010
0000
0000
0000
,  // measure 39
0100
0000
0000
0100
0001
0000
1000
0000
0000
0000
0010
0000
0100
0000
0000
0000
,  // measure 40
0001
1000
0001
0000
0010
0000
0100
0000
0000
0000
1000
0000
0010
0000
0100
0000
,  // measure 41
0102
1003
2100
3010
,  // measure 42
0210
0301
1020
0031
,  // measure 43
0210
1300
0102
0013
,  // measure 44
2100
3010
1002
0103
,  // measure 45
1100
1010
0110
0101
,  // measure 46
0011
0110
1100
1010
,  // measure 47
1001
1001
0101
0101
0110
0110
1010
1010
,  // measure 48
1100
0000
0000
0000
,  // measure 49
0100
0000
0000
0100
0000
0000
0001
0000
0000
0010
0000
0000
0100
0000
0100
0000
,  // measure 50
1000
0010
1000
0100
0001
0100
1000
0010
,  // measure 51
0100
0000
0000
0100
0000
0000
0001
0000
0000
0010
0000
0000
0100
0000
1000
0000
,  // measure 52
0001
0100
0010
1000
0100
0001
0100
0100
,  // measure 53
0010
0000
0000
0010
0000
0000
0001
0000
0000
1000
0000
0000
0100
0000
0010
0000
,  // measure 54
0001
0100
1000
0100
0001
1000
0100
0010
,  // measure 55
0001
0000
0000
0001
0000
0000
0100
0000
0000
0010
0000
0000
1000
0000
1000
0000
,  // measure 56
0100
0010
0001
0100
0010
1000
0100
0100
,  // measure 57
0010
0000
0001
0010
0000
0001
0100
0000
0000
0000
0000
0110
0000
0000
1010
0000
,  // measure 58
1000
0000
0001
0100
0000
0001
0010
0000
0000
0000
0100
0000
1000
0000
0010
0000
,  // measure 59
0100
0000
0001
0100
0000
0001
1000
0000
0000
0000
0110
0000
0000
0011
0000
0000
,  // measure 60
0001
0000
1000
0010
0000
1000
0100
0000
0010
0000
0001
0000
0010
0000
0100
0000
,  // measure 61
1000
0000
0001
0100
0000
0001
0010
0000
0000
0000
0110
0000
0000
1100
0000
0000
,  // measure 62
1000
0000
0001
0010
0000
0100
0010
0000
0001
0000
0100
0000
0010
0000
1000
0000
,  // measure 63
0100
0000
0010
0001
0000
0010
0100
0000
0000
0000
1100
0000
0000
1010
0000
0000
,  // measure 64
0110
0000
0000
0101
0000
0000
1001
0000
0000
0000
0000
0000
0000
0000
0000
0000
;

//---------------dance-single - ----------------
#NOTES:
     dance-single:
     :
     Easy:
     8:
     0.477,0.606,0.652,0.139,0.222,293.000,75.000,16.000,0.000,0.000:  // measure 1
0000
0000
0000
0000
,  // measure 2
0000
0000
0000
0000
,  // measure 3
1001
0000
0000
1001
0000
0000
1001
0000
0000
0000
0000
0000
0000
0000
0000
0000
,  // measure 4
0000
0000
0000
0000
,  // measure 5
0110
0000
0000
0110
0000
0000
0110
0000
0000
0000
0000
0000
0000
0000
0000
0000
,  // measure 6
0000
0000
0000
0000
0000
0000
0000
0000
0000
0000
0110
0000
0000
0110
0000
0000
,  // measure 7
0101
0000
0000
0101
0000
0000
1001
0000
0000
0000
0000
0000
0000
0000
0000
0000
,  // measure 8
0110
0000
0000
0000
,  // measure 9
1000
0000
0000
1000
0000
0000
0001
0000
0010
0000
0100
0000
1000
0000
0000
0000
,  // measure 10
0001
0010
0001
0100
0010
1000
0100
0000
,  // measure 11
1000
0000
0000
1000
0000
0000
0010
0000
0100
0000
0001
0000
0010
0000
0000
0000
,  // measure 12
0100
1000
0100
0010
0001
0100
0010
0000
,  // measure 13
1000
0000
0000
1000
0000
0000
0001
0000
0010
0000
0100
0000
1000
0000
0000
0000
,  // measure 14
0010
0100
0010
0001
0100
0010
1000
0000
,  // measure 15
0001
0000
0000
0001
0000
0000
0010
0000
0100
0000
1000
0000
0010
0000
0000
0000
,  // measure 16
0100
0001
1000
1010
,  // measure 17
0001
0000
0000
0001
0000
0000
0010
0000
0000
0100
0000
0000
1000
0000
1000
0000
,  // measure 18
0001
0000
0000
0100
0000
0000
0001
0000
0000
0010
0000
0000
0100
0000
0100
0000
,  // measure 19
1000
0000
0000
0010
0000
0000
1000
0000
0000
0000
0001
0000
0010
0000
0100
0000
,  // measure 20
0000
0010
0000
0000
0001
0000
0000
0100
0000
0010
0000
0000
1000
0000
0010
0000
,  // measure 21
1000
0000
0000
0001
0000
0000
0010
0000
0000
0100
0000
0000
1000
0000
1000
0000
,  // measure 22
0010
0000
0000
0100
0000
0000
0001
0000
0000
0010
0000
0000
0100
0000
1000
0000
,  // measure 23
1000
0000
0000
0010
0000
0000
0100
0000
0000
0001
0000
0000
0001
0000
0010
0000
,  // measure 24
0110
0000
0000
0000
,  // measure 25
1000
0100
1000
0100
0000
0000
0000
0000
,  // measure 26
0001
0000
0010
0000
0001
0000
0010
0000
0000
0100
0000
0100
0000
0000
0000
0000
,  // measure 27
1000
0010
1000
0010
0000
0000
0000
0000
,  // measure 28
0001
0000
0100
0000
0001
0000
0100
0000
0000
0010
0000
0010
0000
0000
0000
0000
,  // measure 29
1000
0100
0010
0001
0000
0000
0000
0000
,  // measure 30
0001
0000
0010
0000
0100
0000
1000
0000
0000
0001
0000
0001
0000
0000
0000
0000
,  // measure 31
0100
0010
1000
0001
0000
0000
0000
0000
,  // measure 32
0010
0000
0100
0000
0001
0000
1000
0000
0000
0010
0000
0100
0000
0010
0000
0000
,  // measure 33
1000
0000
0001
0000
0010
0010
0010
0000
,  // measure 34
0100
0000
1000
0000
0000
1001
0000
0000
,  // measure 35
0100
0000
0010
0000
0001
0001
0001
0000
,  // measure 36
0100
0000
0010
0000
0000
1001
0000
0000
,  // measure 37
0100
0000
0010
0000
1000
1000
1000
0000
,  // measure 38
0001
0000
0010
0000
0000
0110
0000
0000
,  // measure 39
1000
0000
0100
0000
0010
0010
0010
0000
,  // measure 40
0001
0100
0110
1000
,  // measure 41
0202
0303
2200
3300
,  // measure 42
0220
0330
0022
0033
,  // measure 43
2020
3030
0202
0303
,  // measure 44
2002
3003
2020
3030
,  // measure 45
0110
0101
1001
1100
,  // measure 46
0110
0011
0101
0110
,  // measure 47
1001
1001
1001
1001
0110
0110
0110
0110
,  // measure 48
1001
0000
0000
0000
,  // measure 49
1000
0000
0000
1000
0000
0000
0010
0000
0000
0010
0000
0000
0100
0000
0100
0000
,  // measure 50
0001
1000
0001
1000
0100
0000
0010
0000
,  // measure 51
0001
0000
0000
0001
0000
0000
0100
0000
0000
0100
0000
0000
0010
0000
0010
0000
,  // measure 52
1000
0100
1000
0100
0010
0000
0001
0000
,  // measure 53
0100
0000
0000
0100
0000
0000
0010
0000
0000
1000
0000
0000
0001
0000
0001
0000
,  // measure 54
0010
0100
0010
0100
1000
0000
0010
0000
,  // measure 55
0100
0000
0000
0100
0000
0000
0001
0000
0000
0001
0000
0000
1000
0000
0100
0000
,  // measure 56
0010
0001
0010
0001
1000
0000
0010
0000
,  // measure 57
0110
0000
0000
0110
0000
0000
0110
0000
0000
0000
0101
0000
0000
1001
0000
0000
,  // measure 58
1100
0000
0000
1100
0000
0000
1100
0000
0000
0000
0010
0000
0010
0000
0000
0000
,  // measure 59
0101
0000
0000
0101
0000
0000
0101
0000
0000
0000
1100
0000
0000
1010
0000
0000
,  // measure 60
0110
0000
0000
0110
0000
0000
0101
0000
0001
0000
1000
0000
0001
0000
0010
0000
,  // measure 61
0110
0000
0000
0110
0000
0000
0110
0000
0000
0000
1100
0000
0000
1001
0000
0000
,  // measure 62
0101
0000
0000
0101
0000
0000
0110
0000
0010
0000
1000
0000
0010
0000
0100
0000
,  // measure 63
0101
0000
0000
0101
0000
0000
1001
0000
0000
0000
1100
0000
0000
0110
0000
0000
,  // measure 64
0110
0000
0000
0011
0000
0000
1001
0000
0000
0000
0000
0000
0000
0000
0000
0000
;

//---------------dance-double - ----------------
#NOTES:
     dance-double:
     :
     Hard:
     10:
     0.687,0.854,0.478,0.000,0.670,498.000,55.000,0.000,0.000,0.000:  // measure 1
00000000
00000000
00000000
00000000
,  // measure 2
00000000
00000000
00000000
00000000
,  // measure 3
00011000
00000000
00000000
00101000
00000000
00000000
00110000
00000000
00000000
00000000
00000000
00000000
00000000
00000000
00000000
00000000
,  // measure 4
00011000
00000000
00000000
00000000
,  // measure 5
00001100
00000000
00000000
00010100
00000000
00000000
00011000
00000000
00000000
00000000
00000000
00000000
00000000
00000000
00000000
00000000
,  // measure 6
00000000
00000000
00000000
00000000
00000000
00000000
00000000
00000000
00000000
00000000
01010000
00000000
00000000
00110000
00000000
00000000
,  // measure 7
01100000
00000000
00000000
01001000
00000000
00000000
00011000
00000000
00000000
00000000
00000000
00000000
00000000
00000000
00000000
00000000
,  // measure 8
00001100
00000000
00000000
00000000
,  // measure 9
00010000
00000000
00001000
00100000
00000000
00001000
00100000
00000000
00010000
00000000
01000000
00000000
00100000
00000000
10000000
00000000
,  // measure 10
01000000
00010000
00001000
00000100
00000010
00000001
00001001
00000000
,  // measure 11
00000100
00000000
00010000
00001000
00000000
00010000
00001000
00000000
00100000
00000000
01000000
00000000
10000000
00000000
00010000
00000000
,  // measure 12
01000000
00001000
00010000
00000100
00000010
00000001
00001001
00000000
,  // measure 13
00000100
00000000
00010000
00001000
00000000
00010000
00001000
00000000
00100000
00000000
01000000
00000000
10000000
00000000
00010000
00000000
,  // measure 14
01000000
00001000
00010000
00000010
00000100
00000001
00001001
00000000
,  // measure 15
00000100
00000000
00010000
00001000
00000000
00100000
00010000
00000000
01000000
00000000
00100000
00000000
10000000
00000000
01000000
00000000
,  // measure 16
00100000
00010000
00001000
00000100
00000010
00000001
00001001
00000000
,  // measure 17
00001000
00000100
00000000
00001000
00000100
00000000
00010000
00001000
00000000
00100000
00010000
00000000
01000000
00000000
00100000
00000000
,  // measure 18
10000000
01000000
00000000
00100000
00010000
00000000
00001000
00000100
00000000
00000010
00000001
00000000
00000100
00000000
00000010
00000000
,  // measure 19
00001000
00000100
00000000
00100000
00010000
00000000
01000000
00100000
00000000
10000000
01000000
00000000
00100000
00000000
00010000
00000000
,  // measure 20
00000000
00001000
00000100
00000000
00000010
00000001
00000010
00000001
00000000
00001000
00000100
00000000
00010000
00000000
00001000
00000000
,  // measure 21
01000000
00100000
00000000
10000000
00010000
00000000
00100000
00001000
00000000
00010000
00000010
00000000
00000100
00000000
00000001
00000000
,  // measure 22
00000010
00000100
00000000
00001000
00010000
00000000
00100000
01000000
00000000
10000000
01000000
00000000
00100000
00000000
00010000
00000000
,  // measure 23
01000000
00001000
00000000
00010000
00000010
00000000
00000100
00000001
00000000
00000100
00001000
00000000
00010000
00000000
00100000
00000000
,  // measure 24
01100000
00000000
00000000
00000000
00000000
00000000
10000000
01000000
,  // measure 25
00100000
00000000
00000000
00100000
00010000
00001000
00000100
00000000
00000000
00000000
00000010
00000000
00001001
00000000
00000000
00000000
,  // measure 26
00000010
00000000
00000000
00000010
00000100
00001000
00010000
00000000
00000000
00100000
00000000
01100000
00000000
00000000
00000000
00000000
,  // measure 27
10000000
00000000
00000000
10000000
00010000
00100000
00001000
00000000
00000000
00000000
00000100
00000000
00000011
00000000
00000000
00000000
,  // measure 28
00000001
00000000
00000000
00000001
00001000
00000100
00010000
00000000
00000000
00100000
00000000
01100000
00000000
00000000
00000000
00000000
,  // measure 29
10000000
00000000
00000000
10000000
01000000
00100000
00010000
00000000
00000000
00000000
00001000
00000000
00000110
00000000
00000000
00000000
,  // measure 30
00000001
00000000
00000000
00000001
00000010
00000100
00001000
00000000
00000000
00010000
00000000
00110000
00000000
00000000
00000000
00000000
,  // measure 31
01000000
00000000
00000000
01000000
00010000
00001000
00000100
00000000
00000000
00000000
00000010
00000000
00000101
00000000
00000000
00000000
,  // measure 32
00000001
00000000
00000000
00000001
00001000
00000100
00010000
00000000
00000000
00001000
00000000
00100000
01000000
00000000
10000000
00000000
,  // measure 33
00010000
00100000
00000000
00100000
00001000
00000000
00010000
00000000
00000100
00000000
00000100
00000000
00000100
00000000
00000000
00000000
,  // measure 34
00001000
00000000
00000000
00001000
00000010
00000000
00010000
00000000
00001000
00000000
00101000
00000000
00000000
00000000
00000000
00000000
,  // measure 35
01000000
00010000
00000000
01000000
00001000
00000000
00010000
00000000
00000010
00000000
00000010
00000000
00000010
00000000
00000000
00000000
,  // measure 36
00000100
00000000
00000000
00000100
00001000
00000000
00010000
00000000
00100000
00000000
01100000
00000000
00000000
00000000
00000000
00000000
,  // measure 37
10000000
00010000
00000000
10000000
01000000
00000000
00100000
00000000
00001000
00000000
00001000
00000000
00001000
00000000
00000000
00000000
,  // measure 38
00010000
00000000
00000000
00010000
00000010
00000000
00000100
00000000
00001000
00000000
00011000
00000000
00000000
00000000
00000000
00000000
,  // measure 39
00100000
01000000
00000000
01000000
10000000
00000000
00010000
00000000
00001000
00000000
00001000
00000000
00001000
00000000
00000000
00000000
,  // measure 40
01000000
00000000
00000000
01000000
00100000
00000000
00010000
00000000
00001000
00000000
00000100
00000000
00000010
00000000
00000000
00000000
,  // measure 41
00001001
00000000
00000000
00000001
00000100
00000000
00000000
00000000
00001100
00000000
00000000
00001000
00010000
00000000
00000000
00000000
,  // measure 42
01100000
00000000
00000000
01000000
10000000
00000000
00000000
00000000
01010000
00000000
00000000
00010000
00001000
00000000
00000000
00000000
,  // measure 43
00000110
00000000
00000000
00000010
00000001
00000000
00000000
00000000
00001100
00000000
00000000
00001000
00000010
00000000
00000000
00000000
,  // measure 44
00011000
00000000
00000000
00010000
00000100
00000000
00000000
00000000
01100000
00000000
00000000
00100000
00010000
00000000
00000000
00000000
,  // measure 45
01010000
01000000
01001000
00001000
00011000
00010000
00010010
00000010
,  // measure 46
00000110
00000100
00001100
00001000
00101000
00100000
01100000
01000000
,  // measure 47
01000000
00001000
00010000
00000100
01000000
00001000
00010000
00000100
01000000
00001000
00010000
00000100
01000000
00001000
00010000
00000100
,  // measure 48
00011000
00000000
00000000
00000000
,  // measure 49
01000000
00010000
00000000
01000000
00001000
00000000
00010000
00000100
00000000
00001000
00000010
00000000
00000100
00000000
00000001
00000000
,  // measure 50
00000010
00000000
00000100
00000000
00001000
00000000
00010000
00000000
00100000
00000000
01000000
00000000
10000000
00010000
10000000
00000000
,  // measure 51
01000000
00100000
00000000
00010000
00001000
00000000
00000100
00000010
00000000
00000001
00000010
00000000
00000100
00000000
00001000
00000000
,  // measure 52
00000010
00000000
00010000
00000000
00001000
00000000
00100000
00000000
01000000
00000000
10000000
00000000
00010000
01000000
00010000
00000000
,  // measure 53
00100000
00001000
00000000
00010000
00000100
00000000
00001000
00000010
00000000
00000100
00000001
00000000
00000010
00000000
00000100
00000000
,  // measure 54
00001000
00000000
00000010
00000000
00010000
00000000
00001000
00000000
01000000
00000000
00100000
00000000
10000000
01000000
10000000
00000000
,  // measure 55
00010000
00100000
00000000
00001000
00100000
00000000
00010000
00001000
00000000
00000100
00000010
00000000
00000001
00000000
00000001
00000000
,  // measure 56
00001000
00000100
00010000
00001000
00100000
00010000
01000000
00001000
,  // measure 57
00010000
00000100
00010000
00001000
00010000
00000100
00010000
00001000
01000000
00010000
01000000
00000000
01000000
00100000
01100000
00000000
,  // measure 58
00001000
00010000
00001000
00100000
00001000
00010000
00001000
00100000
00000100
00001000
00000100
00000000
00000100
00010000
00010100
00000000
,  // measure 59
00001000
00000010
00001000
00000100
00001000
00000010
00001000
00000100
00100000
00010000
00100000
00000000
00100000
00001000
00101000
00000000
,  // measure 60
00010000
01000000
00010000
00100000
00010000
01000000
00010000
00100000
00001000
00010000
00001000
00000000
00001000
01000000
01001000
00000000
,  // measure 61
00100000
10000000
00100000
01000000
00100000
10000000
00100000
01000000
00001000
00010000
00001000
00000000
00001000
00100000
00101000
00000000
,  // measure 62
00010000
00000100
00010000
00000010
00010000
00000100
00010000
00000010
00001000
00000001
00001000
00000000
00001000
00000100
00001100
00000000
,  // measure 63
00000010
00010000
00000010
00001000
00000010
00010000
00000010
00001000
00000100
00001000
00000100
00000000
00000100
00010000
00010100
00000000
,  // measure 64
00011000
00000000
00000000
00110000
00000000
00000000
01010000
00000000
00000000
00000000
00000000
00000000
00000000
00000000
00000000
00000000
;

//---------------dance-double - ----------------
#NOTES:
     dance-double:
     :
     Challenge:
     11:
     0.833,0.937,0.618,0.078,1.000,588.000,71.000,9.000,0.000,1.000:  // measure 1
00000000
00000000
00000000
00000000
,  // measure 2
00000000
00000000
00000000
00000000
,  // measure 3
00011000
00000000
00010000
00101000
00000000
00000000
00110000
00000000
00000000
00000000
00000000
00000000
00000000
00000000
00000000
00000000
,  // measure 4
00122100
00000000
00033000
00000000
,  // measure 5
00001100
00000000
00001000
00010100
00000000
00000000
00011000
00000000
00000000
00000000
00000000
00000000
00000000
00000000
00000000
00000000
,  // measure 6
00000000
00000000
00000000
00000000
00000000
00000000
00000000
00000000
00000000
00000000
01010000
00000000
00000000
00110000
00000000
00000000
,  // measure 7
01100000
00000000
00000000
01001000
00000000
00000000
00011000
00000000
00000000
00000000
00000000
00000000
00000000
00000000
00000000
00000000
,  // measure 8
00001100
00000000
00000000
00000000
00010000
00001000
00010000
00000000
00011000
00000000
00000000
00000000
00110000
00000000
00000000
00000000
,  // measure 9
00011000
00000000
00001000
00100000
00000000
00001000
00100000
00000000
00010000
00000000
01000000
00000000
00100000
00000000
10000000
00000000
,  // measure 10
01000000
00100000
00010000
00000000
00001000
00000100
00000010
00000001
00000010
00000001
00000100
00000000
00000110
00000000
00000000
00000010
,  // measure 11
00000100
00000000
00010000
00001000
00000000
00010000
00001000
00000000
00100000
00000000
01000000
00000000
10000000
00000000
00010000
00000000
,  // measure 12
01000000
00100000
00001000
00000000
00010000
00001000
00000100
00000010
00000001
00000010
00000001
00000000
00001001
00000000
00000000
00000001
,  // measure 13
00000100
00000000
00010000
00001000
00000000
00010000
00001000
00000000
00100000
00000000
01000000
00000000
10000000
00000000
00010000
00000000
,  // measure 14
01000000
00100000
00001000
00000000
00010000
00001000
00000010
00000001
00000100
00000010
00000100
00000000
00001001
00000000
00000000
00000001
,  // measure 15
00000100
00000000
00010000
00001000
00000000
00100000
00010000
00000000
01000000
00000000
00100000
00000000
10000000
00000000
01000000
00000000
,  // measure 16
00100000
00010000
00001000
00000000
00001000
00000100
00000010
00000001
00000010
00000001
00000100
00000000
00001001
00000000
00000000
00000001
,  // measure 17
00001000
00000100
00000000
00001000
00000100
00000000
00010000
00001000
00000000
00100000
00010000
00000000
01000000
00100000
01000000
00000000
,  // measure 18
10000000
01000000
00000000
00100000
00010000
00000000
00001000
00000100
00000000
00000010
00000001
00000000
00000100
00000010
00000100
00000000
,  // measure 19
00001000
00000100
00000000
00100000
00010000
00000000
01000000
00100000
00000000
10000000
01000000
00000000
00100000
00010000
00001000
00000000
,  // measure 20
00000000
00001000
00000100
00000000
00000010
00000001
00000010
00000001
00000000
00001000
00000100
00000000
00010000
00001000
00010000
00000000
,  // measure 21
01000000
00100000
00000000
10000000
00010000
00000000
00100000
00001000
00000000
00010000
00000010
00000000
00000100
00000001
00000100
00000000
,  // measure 22
00000010
00000100
00000000
00001000
00010000
00000000
00100000
01000000
00000000
10000000
01000000
00000000
00100000
00010000
00100000
00000000
,  // measure 23
01000000
00001000
00000000
00010000
00000010
00000000
00000100
00000001
00000000
00000100
00001000
00000000
00010000
00100000
00010000
00000000
,  // measure 24
01100000
00000000
00000000
00000000
00000000
00000000
11000000
11000000
,  // measure 25
00100000
00010000
00000000
00100000
00010000
00001000
00000200
00000000
00000000
00000000
00000310
00000000
00001001
00000000
00000000
00000000
,  // measure 26
00000010
00000001
00000000
00000010
00000100
00001000
00020000
00000000
00000000
00130000
00000000
01100000
00000000
00000000
00000000
00000000
,  // measure 27
10000000
01000000
00000000
10000000
00010000
00100000
00002000
00000000
00000000
00000000
00003100
00000000
00000011
00000000
00000000
00000000
,  // measure 28
00000001
00000010
00000000
00000001
00001000
00000100
00020000
00000000
00000000
00130000
00000000
01100000
00000000
00000000
00000000
00000000
,  // measure 29
10000000
00010000
00000000
10000000
01000000
00100000
00020000
00000000
00000000
00000000
00031000
00000000
00000110
00000000
00000000
00000000
,  // measure 30
00000001
00001000
00000000
00000001
00000010
00000100
00002000
00000000
00000000
00013000
00000000
00110000
00000000
00000000
00000000
00000000
,  // measure 31
01000000
00100000
00000000
01000000
00010000
00001000
00000200
00000000
00000000
00000000
00000310
00000000
00000101
00000000
00000000
00000000
,  // measure 32
00000001
00000010
00000000
00000001
00001000
00000100
00010000
00001000
00010000
00001000
00000000
00100000
01000000
00000000
10000000
00000000
,  // measure 33
00010000
00100000
00000000
00100000
00001000
00000000
00010000
00000000
00000100
00001000
00000100
00001000
00000100
00000000
00000000
00000000
,  // measure 34
00001000
00000100
00000000
00001000
00000010
00000000
00010000
00000000
00001000
00000000
00101000
00000000
00000000
00000000
00000000
00000000
,  // measure 35
01000000
00010000
00000000
01000000
00001000
00000000
00010000
00000000
00000010
00000100
00000010
00000100
00000010
00000000
00000000
00000000
,  // measure 36
00000100
00000001
00000000
00000100
00001000
00000000
00010000
00000000
00100000
00000000
01100000
00000000
00000000
00000000
00000000
00000000
,  // measure 37
10000000
00010000
00000000
10000000
01000000
00000000
00100000
00000000
00001000
00010000
00001000
00010000
00001000
00000000
00000000
00000000
,  // measure 38
00010000
00001000
00000000
00010000
00000010
00000000
00000100
00000000
00001000
00000000
00011000
00000000
00000000
00000000
00000000
00000000
,  // measure 39
00100000
01000000
00000000
00100000
10000000
00000000
00010000
00000000
00001000
00100000
00001000
01000000
00001000
00000000
00000000
00000000
,  // measure 40
01000000
10000000
00000000
01000000
00100000
00000000
00010000
00000000
00001000
00000000
00000100
00000000
00000010
00000000
00000000
00000000
,  // measure 41
00001001
00000000
00000000
00000001
00000100
00000010
00000000
00000000
00001100
00000000
00000000
00001000
00010000
00100000
00000000
00000000
,  // measure 42
01100000
00000000
00000000
01000000
10000000
00100000
00000000
00000000
01010000
00000000
00000000
00010000
00001000
00000100
00000000
00000000
,  // measure 43
00000110
00000000
00000000
00000010
00000001
00000100
00000000
00000000
00001100
00000000
00000000
00001000
00000010
00000100
00000000
00000000
,  // measure 44
00011000
00000000
00000000
00010000
00000100
01000000
00000000
00000000
01100000
00000000
00000000
00100000
00010000
10000000
00000000
00000000
,  // measure 45
01010000
01100000
01001000
00101000
00011000
00010100
00010010
00001010
,  // measure 46
00000110
00010100
00001100
00011000
00101000
10100000
01100000
01010000
,  // measure 47
01001000
00001000
00010000
00000100
01000000
00001000
00010000
00000100
01000000
00001000
00010000
00000100
01000000
00001000
00010000
00000100
,  // measure 48
00011000
00000000
00000000
00000000
00100000
00010000
00100000
00000000
00110000
00000000
00000000
00000000
00011000
00000000
00000000
00000000
,  // measure 49
01000000
00010000
00000000
01000000
00001000
00000000
00010000
00000100
00000000
00001000
00000010
00000000
00000100
00000001
00000100
00000000
,  // measure 50
00000010
00000100
00000010
00000100
00001000
00000000
00010000
00000000
00100000
00000000
01000000
00000000
10000000
00010000
10000000
00000000
,  // measure 51
01000000
00100000
00000000
00010000
00001000
00000000
00000100
00000010
00000000
00000001
00000010
00000000
00000100
00001000
00000100
00000000
,  // measure 52
00000010
00010000
00000010
00010000
00001000
00000000
00100000
00000000
01000000
00000000
10000000
00000000
00010000
01000000
00010000
00000000
,  // measure 53
00100000
00001000
00000000
00010000
00000100
00000000
00001000
00000010
00000000
00000100
00000001
00000000
00000010
00000100
00000010
00000000
,  // measure 54
00001000
00000100
00001000
00000100
00010000
00000000
00001000
00000000
01000000
00000000
00100000
00000000
10000000
01000000
10000000
00000000
,  // measure 55
00010000
00100000
00000000
00001000
00100000
00000000
00010000
00001000
00000000
00000100
00000010
00000000
00000001
00000100
00000001
00000000
,  // measure 56
00001000
00000010
00001000
00000000
00010000
00000000
00001000
00000000
00100000
00000000
00010000
00000000
01000000
00001000
00001000
00000000
,  // measure 57
00010000
00000100
00010000
00001000
00010000
00000100
00010000
00001000
01000000
00100000
01000000
00010000
01000000
00100000
01100000
00000000
,  // measure 58
00001000
00010000
00001000
00100000
00001000
00010000
00001000
00100000
00000100
00010000
00000100
00001000
00000100
00010000
00010100
00000000
,  // measure 59
00001000
00000010
00001000
00000100
00001000
00000010
00001000
00000100
00100000
00001000
00100000
00010000
00100000
00001000
00101000
00000000
,  // measure 60
00010000
01000000
00010000
00100000
00010000
01000000
00010000
00100000
00001000
01000000
00001000
00010000
00001000
01000000
01001000
00000000
,  // measure 61
00100000
10000000
00100000
01000000
00100000
10000000
00100000
01000000
00001000
00100000
00001000
00010000
00001000
00100000
00101000
00000000
,  // measure 62
00010000
00000100
00010000
00000010
00010000
00000100
00010000
00000010
00001000
00000100
00001000
00000001
00001000
00000100
00001100
00000000
,  // measure 63
00000010
00010000
00000010
00000100
00000010
00010000
00000010
00001000
00000100
00010000
00000100
00100000
00000100
00010000
00010100
00000000
,  // measure 64
00011000
00000000
00001000
00110000
00000000
00010000
01010000
00000000
00000000
00000000
00000000
00000000
00000000
00000000
00000000
00000000
;
