#TITLE:Jaeger Final Attack;
#SUBTITLE:;
#ARTIST:L.E.D.;
#TITLETRANSLIT:;
#SUBTITLETRANSLIT:;
#ARTISTTRANSLIT:;
#CREDIT:;
#BANNER:jaeger-BN.png;
#BACKGROUND:jaeger-BG.png;
#LYRICSPATH:;
#CDTITLE:;
#MUSIC:JAEGER FINAL ATTACK(LOTB).mp3;
#OFFSET:-0.615;
#SAMPLESTART:37.736;
#SAMPLELENGTH:12.000;
#SELECTABLE:YES;
#BPMS:0.000=159.000;
#STOPS:;
#BGCHANGES:;
// cache tags:
#FIRSTBEAT:0.000;
#LASTBEAT:296.000;
#SONGFILENAME:Songs/Ace Megapack/Jaeger Final Attack/jaeger.sm;
#HASMUSIC:1;
#HASBANNER:1;
#MUSICLENGTH:114.050;
// end cache tags

//---------------dance-single - ----------------
#NOTES:
     dance-single:
     :
     Hard:
     12:
     1.000,1.000,1.000,0.026,1.000,947.000,121.000,3.000,0.000,0.000:  // measure 1
2002
0000
0000
0000
0000
0000
0000
0000
0000
0000
0000
0000
0000
0000
0000
3003
,  // measure 2
0110
0001
1000
0001
0100
0010
1000
0000
0010
0001
0100
0010
0100
1000
0010
0000
,  // measure 3
0001
0010
0100
1000
0010
0100
0001
0010
0100
1000
0010
0100
0001
0010
1000
0100
,  // measure 4
0001
1000
0001
0100
0010
0001
0100
0000
0001
1000
0010
0100
0001
0010
1000
0100
,  // measure 5
0010
1000
0100
0010
0001
0100
0010
0001
0100
1000
0010
0100
0001
0010
1000
0100
,  // measure 6
0011
0100
1000
0010
0100
0001
0010
0000
1000
0010
0100
1000
0010
0100
0001
0010
,  // measure 7
0100
0010
1000
0001
0100
0010
0001
0010
0100
1000
0010
0100
0001
0010
1000
0100
,  // measure 8
0001
1000
0010
0100
0001
0100
0010
0000
1000
0010
0100
0001
0010
0100
1000
0001
,  // measure 9
1000
0000
1000
0000
1000
0000
1000
0000
1000
0000
1000
0000
1000
0001
1000
0001
,  // measure 10
1000
0100
0010
0001
0010
0100
1000
0010
0100
0001
0010
0100
1000
0100
0010
0100
,  // measure 11
0001
1000
0010
1000
0001
0100
0001
1000
0010
0001
1000
0100
0001
1000
0010
1000
,  // measure 12
0100
0010
0001
1000
0100
0001
1000
0010
1000
0001
0100
1000
0001
0010
1000
0001
,  // measure 13
0010
0100
0010
0001
0100
0010
1000
0100
0010
0001
0010
0100
1000
0100
0010
1000
,  // measure 14
0100
0010
1000
0100
0010
0001
0100
0010
1000
0100
0010
0001
0010
0100
1000
0010
,  // measure 15
1000
0100
0001
1000
0010
1000
0001
0100
1000
0001
0010
1000
0001
0100
0001
1000
,  // measure 16
0001
1000
0001
0010
1000
0001
0100
0001
1000
0010
1000
0001
0010
1000
0001
0100
,  // measure 17
0010
1000
0010
0001
1000
0100
0001
1000
0010
1000
0001
0100
1000
0001
0010
1000
,  // measure 18
0001
1000
0100
0010
0001
0100
0010
0001
0010
0100
1000
0100
0010
0001
0100
0010
,  // measure 19
0100
0001
1000
0010
1000
0001
0100
0001
1000
0100
0001
1000
0010
1000
0001
0100
,  // measure 20
0010
1000
0100
0001
1000
0010
1000
0001
0100
1000
0001
0100
0001
1000
0010
1000
,  // measure 21
0001
1000
0010
0100
0001
0010
0100
1000
0100
0010
0001
0100
0010
1000
0100
0010
,  // measure 22
0001
0100
0010
0001
0100
0010
0001
0010
0100
1000
0100
0010
0001
0100
0010
1000
,  // measure 23
0010
0100
1000
0100
0010
0001
0100
0010
1000
0100
0010
0001
0010
0100
1000
0100
,  // measure 24
0010
1000
0100
0010
0001
0010
0100
1000
0100
0010
0001
0010
0100
1000
0100
0010
,  // measure 25
1000
0010
0100
1000
0100
0010
0001
0010
0100
1000
0100
0010
0001
0010
0100
1000
,  // measure 26
0110
1100
0000
0000
0110
0101
0110
1010
,  // measure 27
0000
0000
0000
0000
0000
0000
0000
0000
0000
0000
0000
0000
0000
0000
1000
0001
,  // measure 28
1100
0110
1001
0000
0110
1001
0011
0110
,  // measure 29
0000
0000
0000
0000
1010
1010
0101
0101
,  // measure 30
0110
0011
1100
0000
0101
0110
1010
0110
,  // measure 31
1001
0000
0000
0000
0000
0000
0000
0000
0000
0000
0000
0000
0000
0000
0010
0100
,  // measure 32
1001
0110
0101
0000
1010
0101
0110
1001
,  // measure 33
0110
0011
1100
1100
0110
0011
1100
1100
,  // measure 34
1001
0101
0110
0000
0101
0110
1010
0110
,  // measure 35
0000
1100
1100
1100
0110
0011
1100
0101
,  // measure 36
0110
0101
0110
0000
1010
0101
0110
1001
,  // measure 37
0000
1010
1010
1010
0110
1001
0011
0110
,  // measure 38
1001
0101
0011
0000
0011
0101
0110
1010
,  // measure 39
0000
0110
0110
0110
1001
0101
0110
1010
,  // measure 40
1001
0011
1100
0000
1100
0011
0110
1001
,  // measure 41
0000
0101
0101
0101
0110
1001
0011
0110
,  // measure 42
1010
0100
0001
1000
0010
0100
0001
0000
0101
0010
1000
0001
0100
0010
0001
0010
,  // measure 43
0100
1000
0010
0001
0100
0010
1000
0001
0100
0010
0001
0100
1000
0010
0001
0100
,  // measure 44
1010
0100
0001
1000
0010
0100
0001
0000
1010
0100
0001
0010
0100
1000
0010
0100
,  // measure 45
0001
0010
0100
1000
0010
0100
0001
1000
0100
0001
0010
0100
1000
0010
0001
0100
,  // measure 46
1010
0100
0001
1000
0010
0100
0001
0000
0110
0001
1000
0010
0100
1000
0010
0001
,  // measure 47
0100
0010
0001
1000
0100
0001
0010
0100
0001
1000
0010
0100
0001
0100
1000
0010
,  // measure 48
0101
0010
1000
0001
0100
0010
1000
0000
0101
0010
1000
0100
0001
0010
1000
0100
,  // measure 49
0010
0001
1000
0010
0100
0001
0010
0100
1000
0010
0001
0100
1000
0010
0100
0001
,  // measure 50
1000
0100
0001
0010
0000
0100
0001
0010
1000
0100
0000
0001
0010
0000
1000
0100
,  // measure 51
0001
0010
0000
0100
0001
0000
1000
0100
0001
0000
1000
0100
0000
0001
0100
1000
,  // measure 52
0001
0010
0000
0100
0001
0000
1000
0100
0001
0000
1000
0100
0000
0001
0100
1000
,  // measure 53
0010
0000
1000
0010
0000
0001
1000
0100
0001
0000
1000
0100
0000
0001
0100
1000
,  // measure 54
0010
0100
0000
0100
0001
0000
1000
0100
0001
0000
1000
0100
0000
0001
0100
1000
,  // measure 55
0100
0010
0000
0010
1000
0000
0001
0010
1000
0100
0000
0010
1000
0000
1000
0100
,  // measure 56
0010
0100
0000
0100
0001
0000
1000
0100
0001
0000
1000
0100
0000
0001
0100
1000
,  // measure 57
0100
0010
0000
0010
1000
0000
0001
0010
1000
0100
0000
0010
1000
0000
1000
0100
,  // measure 58
0010
0001
0100
1000
0010
0001
0010
0100
1000
0010
0100
0001
0100
0010
1000
0100
,  // measure 59
0001
0100
0010
1000
0100
0001
0010
0100
1000
0001
0100
0001
1000
0010
1000
0100
,  // measure 60
0001
0010
0100
1000
0100
0001
0010
0100
0001
1000
0010
0100
0001
0010
0100
1000
,  // measure 61
0010
1000
0010
1000
0001
1000
0100
0010
1000
0001
0100
0010
0001
0100
1000
0010
,  // measure 62
0100
0001
0100
0010
1000
0100
0010
0001
0100
0001
1000
0010
0100
0001
0010
0100
,  // measure 63
1000
0010
0001
0100
0010
1000
0001
0100
0001
1000
0001
0100
0010
1000
0100
0001
,  // measure 64
0010
0100
1000
0001
0010
0001
0100
0001
1000
0010
0001
0010
1000
0100
0010
1000
,  // measure 65
0101
0000
0000
1010
0000
0000
0101
0000
1010
0001
0100
0010
0101
0010
1000
0010
,  // measure 66
0101
0010
1000
0010
0100
0001
1000
0100
0001
0010
0100
1000
0101
0010
0001
1000
,  // measure 67
0010
0100
0001
0100
1000
0010
0100
0001
1010
0100
1000
0010
1000
0001
0100
0010
,  // measure 68
0001
1000
0001
0100
0010
0001
0100
1000
0010
0100
0001
0010
0101
1000
0010
0100
,  // measure 69
0001
0100
0010
1000
0001
0100
1000
0010
1001
0100
0010
1000
0001
1000
0001
0100
,  // measure 70
0001
0010
1000
0010
0100
1000
0100
0001
0010
0100
1000
0010
1100
0001
0010
1000
,  // measure 71
0100
0001
0100
0010
0001
0100
1000
0010
1100
0001
0010
1000
0100
0001
0100
0010
,  // measure 72
0001
1000
0010
1000
0001
1000
0100
0010
0001
1000
0001
0010
1100
0010
0100
0001
,  // measure 73
1000
0001
1000
0001
1000
0001
1000
0001
1100
0001
1000
0001
1000
0001
1000
0001
,  // measure 74
2000
0000
0000
0000
,  // measure 75
3000
0000
0000
0000
;
