#TITLE:Angeli Domini;
#SUBTITLE:;
#ARTIST:Datura;
#TITLETRANSLIT:;
#SUBTITLETRANSLIT:;
#ARTISTTRANSLIT:;
#CREDIT:duhitsmee;
#BANNER:angeli domini.png;
#BACKGROUND:galaxy[1].png;
#LYRICSPATH:;
#CDTITLE:!title.png;
#MUSIC:Datura - Angeli domini(2).mp3;
#OFFSET:-1.161;
#SAMPLESTART:65.240;
#SAMPLELENGTH:15.500;
#SELECTABLE:YES;
#BPMS:0.000=149.999,116.000=299.998,1150.000=300.000,1150.250=285.938,1150.500=271.875,1150.667=257.813,1150.833=243.750,1151.000=229.687,1151.150=215.625,1151.300=201.563,1151.450=187.500,1151.600=173.437,1151.725=159.375,1151.850=145.313,1151.975=131.250,1152.075=117.187,1152.175=103.125,1152.275=89.063,1152.350=75.000,1152.425=60.937,1152.500=50.000,1152.550=41.000,1152.600=33.500,1152.640=25.000,1152.670=17.000,1152.690=12.500,1152.705=9.500,1152.730=7.500,1152.740=6.000,1152.749=5.000,1152.750=9000.000,1162.000=5.000;
#STOPS:116.000=1.200
;
#BGCHANGES:;
// cache tags:
#FIRSTBEAT:0.000;
#LASTBEAT:1152.750;
#SONGFILENAME:Songs/new cc/01/So Cold.sm;
#HASMUSIC:1;
#HASBANNER:1;
#MUSICLENGTH:264.497;
// end cache tags

//---------------dance-single - ----------------
#NOTES:
     dance-single:
     :
     Hard:
     11:
     1.000,1.000,1.000,1.000,0.000,1351.000,323.000,337.000,0.000,0.000:
2002
0000
0000
0000
,
3003
0000
0000
0000
,
0220
0000
0000
0000
,
0330
0000
0000
0000
,
2002
0000
0000
3000
0100
0000
0010
0000
,
1003
0001
0010
0001
,
0100
0010
0001
0010
,
2000
0000
0000
3000
0010
0000
0000
0000
,
2002
0000
0000
0003
0010
0000
0001
3000
,
0210
0001
0310
1000
,
0100
0000
0010
0000
2001
0000
0010
3000
,
0201
0000
0310
0000
,
2000
0000
3100
0010
,
0001
0010
1000
0100
,
0001
0010
0001
1000
,
0020
0000
0130
0000
,
2010
0000
0000
0000
0001
0000
0010
3000
,
0120
1000
0130
0010
,
1000
0000
2001
0000
0100
0000
0001
3000
,
0210
0000
0301
0000
,
0010
0000
0100
0001
,
0210
0000
0001
0000
0010
0300
1020
0030
,
2100
0000
0010
3000
0201
0000
0010
0300
,
2001
0000
0000
3000
0012
0000
0003
0000
,
2010
0000
0000
0000
0001
0000
0010
3000
,
0201
0000
0010
0000
1000
0300
1020
0030
,
0201
0000
0010
0300
1002
0000
0100
0003
,
0012
0000
0000
0003
2200
0000
0000
0000
,
3300
0000
0000
0000
,
2002
0000
3003
0000
0010
0000
1000
0010
,
0100
1000
0100
0010
0001
0000
0100
0000
,
1000
0010
0000
0010
,
0000
0000
0001
0000
0100
0000
0010
0001
,
1000
0100
0001
1000
0010
0000
0000
0000
,
1000
0000
0001
0000
,
0010
0001
0101
1000
,
0110
0010
1010
0100
,
0110
1000
0001
0100
1010
0001
0100
0010
,
0001
0010
0100
1000
0010
0100
0001
0010
,
0001
0100
0010
1000
0100
0010
0001
0010
,
1000
0010
1000
0100
0010
1000
0001
0010
,
0100
1000
0001
0010
0101
0000
1000
0100
,
0010
0000
0010
0100
1000
0000
0100
0010
,
0001
0000
0100
0010
0001
0000
0010
0001
,
0100
1000
0110
0001
,
1001
0100
1010
0100
,
1001
0100
1001
0010
,
1010
0101
0010
0101
,
0010
1001
1010
1010
,
0101
0011
1100
0010
,
0101
1000
1010
0010
,
0011
0110
0100
0101
,
0001
0011
0001
1001
,
1000
1100
0011
0000
,
0101
0000
0110
0000
,
1010
1001
0000
0101
,
0000
0110
1010
1100
,
0110
0011
0101
0000
,
0110
0000
1100
0000
,
1010
0000
0110
0000
1000
0010
0101
1000
,
0001
0010
1001
0010
0001
0010
1100
0001
,
0100
1000
0110
0001
2010
0000
0100
0000
,
0000
0001
0000
0100
,
0000
0000
0000
3000
0002
0000
0000
0000
,
0000
0000
1000
0003
0210
0000
0001
0000
,
0010
0000
0001
0300
1020
0000
1000
0000
,
0000
0001
0100
0000
,
0000
0000
0000
0030
2000
0000
0000
0000
,
0000
0010
0001
0010
,
0100
0000
0001
3000
0012
0000
1000
0000
,
0000
0010
0000
0100
,
0000
0000
0000
0003
0200
0000
0000
0000
,
0000
0000
0001
0300
1020
0000
1000
0000
,
0001
0000
0100
0030
2001
0000
0100
0000
,
0000
0010
0001
0000
,
0100
0000
0000
3000
0200
0000
0001
0000
,
1000
0000
0010
0300
1020
0000
0100
0000
,
1000
0000
0001
0030
0200
0000
0010
0000
,
0000
0001
0000
0010
,
0000
0000
0000
0300
2000
0000
0100
0000
,
0000
0000
0010
3000
0102
0000
0000
0000
,
0000
0000
0000
0003
0200
0000
1000
0000
,
0000
0010
0000
0001
,
0000
0000
0000
0300
0020
0000
1000
0000
,
0000
0001
0100
0000
,
0001
0000
0000
0030
2000
0000
0010
0000
,
0000
0001
0000
0100
,
0000
0000
0000
3000
0002
0000
1000
0000
,
0000
0000
0100
0003
0210
0000
0000
0000
,
0000
0000
0000
0300
0020
0000
1000
0000
,
0000
0100
0000
0001
,
0000
0000
0000
0030
2000
0000
0100
0000
,
0000
0000
0010
3000
0102
0000
0000
0000
,
0100
0000
0000
0003
2010
0100
0010
0000
,
0010
0001
0010
3000
0021
0100
0001
0030
,
1002
0010
1000
0003
0201
1000
0001
0300
,
0012
1000
0010
0003
0120
1000
0001
0030
,
0012
0100
1000
0003
0120
0001
1000
0030
,
2001
0100
0010
3000
0201
0010
0001
0300
,
0012
0100
1000
0003
0021
0100
1000
0000
,
0100
1000
0001
0030
2010
0001
0100
0000
,
0010
0100
0001
3000
0210
0001
0010
0000
,
1000
0010
0001
0300
0012
0100
0010
0003
,
1020
0001
0100
0030
1002
0100
0010
0003
,
2001
0010
0100
3000
0210
0001
0010
0300
,
1002
0010
0100
0003
0120
0001
1000
0030
,
2100
0001
0010
3000
0102
1000
0100
0003
,
2001
0100
0001
3000
1020
0001
0100
0000
,
1000
0100
0001
0030
0210
0001
1000
0000
,
0010
1000
0010
0300
0202
0000
0000
0000
,
0000
0000
0000
0003
2000
0000
0000
3000
,
0020
0000
0000
0330
2002
0000
0000
3000
,
0200
0000
0000
0300
0020
0000
0000
0033
,
2020
0000
0000
3030
0022
0000
0000
0003
,
2000
0000
0000
3030
0202
0000
0000
0003
,
2000
0000
0000
3300
2020
0000
0000
0000
,
0000
0000
0000
3030
2002
0000
0000
0000
,
0000
0000
0000
3003
0022
0000
0000
0000
,
0000
0000
0000
0030
2000
0000
0000
3000
,
0020
0000
0000
0033
2020
0000
0000
3000
,
0200
0000
0000
0300
0002
0000
0000
0033
,
2200
0000
0000
3300
2020
0000
0000
0030
,
0002
0000
0000
3003
0202
0000
0000
0300
,
0020
0000
0000
0033
2200
0000
0000
0000
,
0000
0000
0000
3300
0202
0000
0000
0000
,
0000
0000
0000
0303
1001
0100
0000
0001
,
0010
0000
0010
0001
1010
0100
0000
0001
,
1010
0000
0100
0010
1100
0001
0000
0010
,
1001
0000
0100
0001
0110
0001
0000
1000
,
0101
0000
0010
0100
0011
1000
0000
0010
,
1100
0000
0001
0010
1100
0001
0000
0010
,
0101
0000
0010
1000
0101
0010
0000
0001
,
0100
0000
0010
0100
0011
1000
0000
0100
,
0010
0000
1000
0100
1010
0001
0000
1000
,
0100
0000
0001
0010
0101
1000
0000
0010
,
1100
0000
0001
0100
0011
1000
0000
0100
,
0011
0000
1000
0010
1100
0010
0000
1000
,
0101
0000
0001
0100
0011
1000
0000
0100
,
1010
0000
1000
0100
1001
0010
0000
1000
,
0110
0000
0001
0100
1010
0001
0000
1000
,
0001
0000
1000
0010
1100
0001
0000
0010
,
1000
0000
0001
0100
2020
0000
0000
0000
,
0000
0000
0000
0000
,
0000
0000
0000
3030
0100
0001
0010
0001
,
1000
0100
1000
0010
0100
0001
1000
0010
,
1000
0001
0100
0010
1000
0001
0010
0001
,
1000
0001
0010
0100
0001
1000
0010
0100
,
0001
0010
0001
1000
0010
0100
1000
0010
,
0100
0001
0100
0010
1000
0010
0100
0010
,
1000
0100
0010
0001
0010
0100
1000
0010
,
0001
0100
0010
1000
0100
0001
0010
0001
,
1000
0010
0100
0001
0010
0001
1000
0010
,
0100
1000
0010
0100
0001
0010
0100
1000
,
0010
1000
0001
0100
0010
0001
1000
0100
,
1000
0010
1000
0001
0100
0010
0100
0001
,
0010
0100
0010
1000
0001
0100
0001
1000
,
0010
0100
0001
1000
0010
0100
0001
0010
,
0001
1000
0100
0010
0100
0001
1000
0010
,
0100
0001
0010
1000
0100
0001
0010
0001
,
1000
0000
0010
0000
0100
0000
0010
0000
0002
0000
0000
0000
0020
0000
0000
0003
,
2000
0000
0000
0030
0002
0000
0000
3000
0020
0000
0000
0003
0200
0000
0000
0030
,
0002
0000
0000
0300
2000
0000
0000
0003
0200
0000
0000
3000
0020
0000
0000
0300
,
2000
0000
0000
0030
0002
0000
0000
3000
0020
0000
0000
0003
2000
0000
0000
0030
,
0200
0000
0000
3000
0002
0000
0000
0300
2000
0000
0000
0003
0020
0000
0000
3000
,
0200
0000
0000
0030
0002
0000
0000
0300
2000
0000
0000
0003
0020
0000
0000
3000
,
0002
0000
0000
0030
0200
0000
0000
0003
2000
0000
0000
0300
0002
0000
0000
3000
,
0020
0000
0000
0003
0200
0000
0000
0030
2000
0000
0000
0300
0200
0000
0000
3000
,
0020
0000
0000
0300
0002
0000
0000
0030
0020
0000
0000
0003
0200
0000
0000
0030
,
2000
0000
0000
0300
0020
0000
0000
3000
0002
0000
0000
0030
0200
0000
0000
0003
,
0020
0000
0000
0300
2000
0000
0000
0030
0200
0000
0000
3000
0002
0000
0000
0300
,
0020
0000
0000
0003
2000
0000
0000
0030
0002
0000
0000
3000
0200
0000
0000
0003
,
0020
0000
0000
0300
2000
0000
0000
0030
0200
0000
0000
3000
0002
0000
0000
0300
,
2000
0000
0000
0003
0200
0000
0000
3000
0020
0000
0000
0300
0002
0000
0000
0030
,
2000
0000
0000
0003
0200
0000
0000
3000
0002
0000
0000
0300
0020
0000
0000
0003
,
2000
0000
0000
0030
0002
0000
0000
3000
0200
0000
0000
0003
0020
0000
0000
0300
,
0002
0000
0000
0030
0000
0000
0000
0003
2100
3000
0001
0000
0020
0030
0100
0000
,
2010
3000
0000
0000
2001
3000
0010
0000
1002
0003
0010
0000
0200
0300
1000
0000
,
0120
0030
0000
0000
2001
3000
0100
0000
0021
0030
1000
0000
0200
0300
0001
0000
,
1020
0030
0000
0000
2010
3000
0100
0000
0012
0003
0100
0000
2000
3000
0001
0000
,
0120
0030
0000
0000
2100
3000
0001
0000
2010
3000
0100
0000
0002
0003
0010
0000
,
1002
0003
0000
0000
0210
0300
1000
0000
0012
0003
0100
0000
0020
0030
0001
0000
,
0210
0300
0000
0000
2001
3000
0010
0000
1200
0300
0001
0000
0020
0030
1000
0000
,
0201
0300
0000
0000
2010
3000
0001
0000
1200
0300
0001
0000
0020
0030
1000
0000
,
0012
0003
0000
0000
0201
0300
0010
0000
2100
3000
0001
0000
0020
0030
0100
0000
,
2010
3000
0000
0000
0102
0003
1000
0000
0210
0300
0001
0000
0200
0300
0010
0000
,
2001
3000
0000
0000
0102
0003
0010
0000
2100
3000
0001
0000
0200
0300
0001
0000
,
1020
0030
0000
0000
0102
0003
1000
0000
0210
0300
1000
0000
0002
0003
0010
0000
,
2001
3000
0000
0000
0120
0030
0001
0000
2010
3000
0010
0000
0120
0030
0100
0000
,
0201
0300
0001
0000
1002
0003
1000
0000
2010
3000
0010
0000
0021
0030
0001
0000
,
1002
0003
1000
0000
2001
3000
0001
0000
0102
0003
0100
0000
0210
0300
0010
0000
,
1020
0030
1000
0000
2001
3000
0001
0000
0102
0003
0100
0000
0201
0300
0001
0000
,
1002
0003
1000
0000
2010
3000
0010
0000
0110
0000
0000
0000
0010
0000
0000
0000
,
1001
1000
1010
0001
,
0110
0011
0001
1100
,
1000
0011
1010
0110
,
1010
0101
1010
0100
,
0101
0010
1010
0100
,
0011
1001
0010
0110
,
0001
1010
1000
1100
,
0010
1001
1100
0010
,
0101
1000
1010
0100
,
1001
0110
1000
0101
,
0010
1001
0011
0110
,
0011
1001
0110
1000
,
0101
0010
1010
0100
,
1001
0110
0010
1001
,
1000
0101
0001
1100
,
0100
1010
0110
0001
,
1100
0010
0101
1000
,
1010
1001
1000
0110
,
0010
1001
0101
0110
,
1010
0101
0011
1000
,
1001
0010
0101
0001
,
1010
1001
1000
0101
,
0001
0011
0100
0110
,
1000
1010
0011
0001
,
1010
0100
1001
0010
,
1100
1001
0010
1100
,
1000
0011
1010
0110
,
1001
0011
1010
0100
,
0110
1000
0101
0100
,
0011
0000
1001
0000
0010
0001
0100
1000
,
0001
0100
0010
0001
1000
0010
0100
1000
,
0010
0001
1000
0010
0102
1000
0010
0100
,
0010
1000
0100
0010
0100
1000
0010
0100
,
0010
1000
0010
0103
1020
0001
0100
0001
,
1000
0100
1000
0001
1000
0100
0001
1030
,
0201
1000
0010
1300
0012
0100
1000
0010
,
0100
0010
1000
0013
2100
0001
0010
0100
,
0001
0010
0001
3100
0021
1000
0100
0001
,
0100
0001
1000
0031
1200
0010
0001
1000
,
0010
0001
1000
0310
1002
0010
0100
1000
,
0100
0010
1000
0010
0100
0010
1000
0100
,
0010
1000
0010
0103
2010
0001
0010
0001
,
0100
0010
0001
0100
0001
0010
0001
3010
,
0201
1000
0010
0301
1020
0100
1000
0001
,
0100
1000
0001
0100
0001
0100
1000
0130
,
1002
0100
0010
0103
1020
0100
0001
0100
,
0001
1000
0100
0001
1000
0100
0001
0100
,
0001
1000
0100
1030
0102
0010
0100
1000
,
0100
0010
0100
1000
0010
0100
0010
1000
,
0100
1000
0100
1003
0120
0001
0100
1000
,
0001
0100
0001
1000
0100
0001
0100
0031
,
2100
0010
0001
3010
0201
0010
1000
0010
,
0001
1000
0010
1300
0012
0100
1000
0010
,
0100
1000
0100
1003
0120
0001
0100
0001
,
1000
0100
0001
1030
0201
0010
0001
1000
,
0001
0010
0001
0310
2001
0100
0010
0100
,
0001
0010
0001
0100
0010
0001
0100
0010
,
0100
0001
0010
3100
0012
1000
0010
0100
,
0010
1000
0010
0100
0010
1000
0100
0013
,
1200
0001
0010
0301
1020
0100
0001
1000
,
0001
0100
1000
0130
1002
0010
0100
1000
,
0010
1000
0100
1003
0210
1000
0001
0010
,
0001
1000
0010
0301
2010
0001
0100
0010
,
0001
0010
0100
3001
0120
1000
0000
0001
,
0100
0000
1000
0130
1002
0010
0000
0103
,
2010
0000
0001
3010
0120
1000
0000
0031
,
1200
0000
0010
0301
1002
0100
0000
0013
,
2100
0000
0001
3010
0120
1000
0000
0031
,
2200
3000
0010
0301
1002
0010
0000
0103
,
2010
0000
0001
3010
0201
0010
0000
1000
,
0001
0000
1000
0310
1020
0001
0000
1000
,
0100
0000
1000
0130
0002
0010
0000
0100
,
1000
0000
0010
0103
2000
0001
0000
3100
,
0020
0000
1000
0130
0002
0010
0000
1003
,
0200
0000
0001
0310
2000
0100
0000
3001
,
0020
0000
1000
0031
0200
0010
0000
1300
,
0002
0000
0100
0013
2000
0010
0000
3100
,
0002
0000
0100
1000
0203
1000
0000
0001
,
0010
0000
1000
0301
0020
0100
0000
1000
,
0100
0000
0001
0130
2002
0000
0000
0000
,
0000
0000
0000
0003
0200
0000
0000
0300
,
0020
0000
0000
3030
2002
0000
0000
3000
,
0200
0000
0000
0300
0020
0000
0000
0030
,
0200
0000
0000
0300
2000
0000
0000
3000
,
0020
0000
0000
0030
0200
0000
0000
0300
,
0020
0000
0000
0033
2200
0000
0000
0000
,
0000
0000
0000
0300
0002
0000
0000
3000
,
0000
0000
0000
0003
2000
0000
0000
0000
,
0000
0000
0000
3000
0020
0000
0000
0030
,
0200
0000
0000
0300
0002
0000
0000
0003
,
2000
0000
0000
3000
0200
0000
0000
0300
,
0020
0000
0000
0030
0002
0000
0000
0003
,
0200
0000
0000
0300
0002
0000
0000
0003
,
2000
0000
0000
3000
0202
0000
0000
0000
,
0000
0000
0000
0300
0020
0000
0000
0000
,
0000
0000
0000
0033
0220
0000
0000
0000
,
0000
0000
0000
0330
0000
0000
0000
0000
0000
0000
0000
0000
0000
0000
0000
0000
;
