#TITLE:Healing Vision;
#SUBTITLE:(Angelic mix);
#ARTIST:2MB;
#TITLETRANSLIT:;
#SUBTITLETRANSLIT:;
#ARTISTTRANSLIT:;
#CREDIT:;
#BANNER:Healing Vision (Angelic mix).png;
#BACKGROUND:Healing Vision (Angelic mix)-bg.png;
#LYRICSPATH:;
#CDTITLE:./CDTITLES/DANCE DANCE REVOLUTION MAX.PNG;
#MUSIC:Healing Vision (Angelic mix).mp3;
#OFFSET:-1.243;
#SAMPLESTART:35.500;
#SAMPLELENGTH:12.000;
#SELECTABLE:YES;
#DISPLAYBPM:46.000:196.000;
#BPMS:0.000=49.000,4.000=196.000,291.000=49.000;
#STOPS:226.000=0.306
;
#BGCHANGES:;
// cache tags:
#FIRSTBEAT:4.000;
#LASTBEAT:291.250;
#SONGFILENAME:Songs/IzzySM Keyboard Mega Pack/HVAM (Oni Keyboard Edit)/Healing Vision (Angelic mix).sm;
#HASMUSIC:1;
#HASBANNER:1;
#MUSICLENGTH:100.419;
// end cache tags

//---------------dance-double - ----------------
#NOTES:
     dance-double:
     :
     Easy:
     5:
     0.415,0.435,0.199,0.000,0.005,272.000,20.000,0.000,0.000,0.000:
00000000
00000000
00000000
00000000
,
00110000
10000000
10000000
10000000
,
10000000
01000000
00010000
00001000
,
00001000
00000100
00000001
00000100
,
00000001
00000010
00000100
00001000
,
00001100
00000001
00000001
00000001
,
00000001
00000100
00001000
00010000
,
00010000
01000000
10000000
01000000
,
10000000
00100000
01000000
00010000
,
00010000
01000000
10000000
01000000
,
00010000
01000000
10000000
00100000
,
00010000
01000000
10000000
01000000
,
00010000
00001000
00000100
00000001
,
00001000
00000100
00000001
00000100
,
00001000
00000100
00000001
00000010
,
00001000
00000100
00000001
00000100
,
00001000
00010000
01000000
10000000
,
00010000
10000000
10000000
01000000
,
00010000
00001000
00010000
00001000
,
00000100
00000001
00000001
00000100
,
00001000
00010000
00001000
00010000
,
00011000
00000000
00000000
01000000
00000000
00000000
00000000
00000000
,
00011000
00000000
00000000
00000100
00000000
00000000
00000000
00000000
,
00011000
00000000
00000000
00100000
00000000
00000000
00000000
00000000
,
01000000
10000000
00010000
01000000
,
10100000
01000000
00010000
00011000
,
00000010
00000011
00000100
00000001
,
00001000
00001100
00000011
00001000
,
00010000
01000000
01000000
10000000
,
01000000
01000000
01000000
01000000
,
00010000
00010000
10000000
01000000
,
00010000
00001000
00000100
00000001
,
00000100
00001000
00001000
00000000
,
00000011
00000100
00001000
00011000
,
00100000
10100000
01000000
10000000
,
00010000
01010000
10100000
00010000
,
01000000
00010000
00010000
00001000
,
00000100
00000100
00000100
00000100
,
00000001
00000001
00001000
00000001
,
00000001
00000100
00001000
00010000
,
01000000
10000000
10000000
00100000
,
00100000
00000000
00000000
00000000
,
00000000
00000000
00000000
00000010
,
00000010
00000001
00001000
00000100
,
00000010
00000001
00000100
00001000
,
00010000
00011000
01000000
00100000
,
10000000
00100000
00010000
01000000
,
10000000
01000000
00010000
00001000
,
00011000
00000000
00011000
00000000
00010000
00001000
00010000
00001000
,
00010000
00000000
00000000
00000000
,
00011000
00000000
00000000
00000100
00000000
00000000
00000000
00000000
,
00000010
00000000
00000000
00001000
00000000
00000000
00000000
00000000
,
00010000
00000000
00000000
10000000
00000000
00000000
00000000
00000000
,
10000000
10000000
01000000
10000000
,
00100000
10000000
01000000
00010000
,
00001000
00001000
00010000
00001000
,
00001000
00000000
00000100
00000000
00000001
00000000
00000001
00000100
,
00001000
00000100
00001000
00010000
,
10000000
01000000
10000000
00100000
,
10000000
01000000
00010000
00001000
,
00000100
00000000
00000001
00000000
00001000
00000000
00001000
00000100
,
00000001
00000100
00001000
00010000
,
01000000
00000000
10000000
00000000
00010000
00000000
00010000
01000000
,
10000000
01000000
10000000
00100000
,
10000000
01000000
00010000
00011000
,
00001000
00000100
00000001
00000010
,
00000100
00001000
00001000
00000001
,
00000001
00001000
00000100
00001000
,
00000001
00000010
00000100
00001000
,
00010000
00100000
01000000
10000000
,
00100000
10000000
10000000
01000000
,
00100000
10000000
01000000
00010000
,
00001000
00000000
00000000
00000000
00000100
00000000
00000000
00000000
00000100
00000000
00000000
00000000
00000001
00000001
00000000
00000000
;

//---------------dance-double - ----------------
#NOTES:
     dance-double:
     :
     Medium:
     7:
     0.595,0.544,0.398,0.000,0.005,378.000,40.000,0.000,0.000,0.000:
00000000
00000000
00000000
00000000
,
00110000
00000000
10000000
00010000
10000000
00000000
10000000
00000000
,
10000000
01010000
10000000
01000000
,
00010000
00000000
00001000
00000100
00000001
00000000
00001000
00000000
,
00000010
00000101
00001000
00000001
,
00001010
00000000
00000001
00001000
00000001
00000000
00000001
00000000
,
00000001
00001100
00000001
00000100
,
00001000
00000000
00010000
01000000
10000000
00000000
00010000
00000000
,
00100000
11000000
00010000
10000000
,
00010000
10000000
01000000
00010000
00001000
00000000
00010000
00001000
,
00000100
00000000
00000001
00001000
00000100
00000000
00000001
00001000
,
00000100
00000000
00000001
00001000
00000100
00000000
00000010
00000001
,
00000100
00000010
00001010
00000101
,
00001000
00000001
00000100
00001000
00010000
00000000
00001000
00010000
,
01000000
00000000
10000000
00010000
01000000
00000000
10000000
00010000
,
01000000
00000000
10000000
00010000
01000000
00000000
00100000
10000000
,
01000000
00000000
10000000
00010000
10000000
00000000
01000000
00000000
,
00100000
10000000
00100000
01000000
00100000
00000000
10000000
01000000
,
00100000
00000000
00010000
01000000
01000000
00010000
00001000
00000100
,
00000001
00000000
00000010
00000100
00001000
00000000
00000010
00000100
,
00000001
00000100
00000101
00001100
,
00000010
00001000
00000010
00000100
00000000
00000000
00000000
00000000
,
00001000
00010000
00001000
01000000
00000000
00000000
00000000
00000000
,
00010000
00100000
00010000
01000000
00000000
00000000
00000000
00000000
,
00100000
10000000
01000000
00010000
00001000
00010000
00001000
00000000
,
00100000
00100000
00110000
00100000
,
10000000
00010000
10000000
00000000
00100000
10000000
00010000
00000000
,
01000000
01010000
00011000
00000100
,
00000010
00000000
00000001
00000000
00001000
00000001
00000100
00000000
,
00000010
00000010
00001010
00000010
,
00000001
00001000
00000001
00000000
00000100
00001000
00010000
00000000
,
00001000
00011000
01010000
00100000
,
01000000
00000000
00010000
00000000
00001000
00000100
00000001
00000000
,
00000010
00000010
00000011
00000010
,
00000001
00001000
00000001
00000000
00000010
00000001
00001000
00000000
,
00000100
00001100
00011000
01000000
,
00100000
00000000
10000000
00000000
00010000
10000000
01000000
00000000
,
00100000
00100000
00110000
00100000
,
10000000
00010000
10000000
00000000
01000000
00010000
00001000
00000000
,
00010000
00011000
00001100
00000010
,
00000011
00000101
00001100
00011000
,
00100000
00000000
00010000
01000000
00100000
00000000
10000000
01000000
,
00100000
00000000
10000000
00010000
10000000
00000000
01000000
00000000
,
00010000
00000000
00011000
00000000
00001000
00000000
00000100
00000001
,
00001000
00000000
00000100
00001000
00000100
00000010
00000001
00000000
,
00000100
00000000
00001010
00000000
00000100
00000000
00000001
00001000
,
00000100
00000000
00000010
00000001
00000100
00000000
00001000
00010000
,
00001000
00000000
00010000
01000000
10000000
00000000
00010000
10000000
,
00100000
10000000
01000000
00000000
10000000
00010000
10000000
00010000
,
10000000
00000000
00100000
01010000
00000000
00000000
00000000
00000000
,
00110000
00000000
00001000
01000000
00000000
00000000
00000000
00000000
,
00011000
00000000
00000010
00000100
00000000
00000000
00000000
00000000
,
00000101
00000000
00001000
00000001
00000000
00000000
00000000
00000000
,
00001010
00000000
00000100
00001000
00000100
00000000
00000010
00000000
,
00000101
00000000
00000001
00001000
00000100
00000000
00010000
00000000
,
00011000
00000000
00010000
01000000
10000000
00000000
00010000
00000000
,
01100000
00000000
10000000
00010000
01000000
00000000
00010000
10000000
,
00010000
00000000
00100000
01000000
10000000
00010000
01000000
00010000
,
00100000
00000000
01000000
00000000
00010000
00000000
00001000
00010000
,
00001000
00000000
00000100
00000001
00001000
00000100
00000010
00000001
,
00001000
00000000
00000100
00000000
00000010
00000000
00000001
00001000
,
00000001
00000000
00000010
00000100
00001000
00000001
00000100
00000001
,
00001000
00000000
00001100
00000000
00011000
00000000
00010000
00001000
,
00010000
00000000
01000000
10000000
00100000
01000000
00010000
10000000
,
01000000
11000000
01010000
10000000
,
00010000
01000000
00010000
00000000
00100000
00001000
00010000
00000000
,
00001000
00000100
00000001
00000000
00000010
00000100
00000010
00000000
,
00000001
00001000
00000010
00000000
00000001
00001000
00000010
00000000
,
00000100
00001000
00010000
00001000
00010000
00001000
00010000
00000000
,
01000000
10000000
00010000
00000000
01000000
00100000
01000000
00000000
,
00010000
00100000
01000000
00000000
10000000
00010000
10000000
00000000
,
01000000
00010000
00001000
00000000
00001000
00000100
00000001
00000000
,
00001000
00000000
00000001
00000000
00000100
00000000
00000001
00000000
00000010
00000000
00000001
00000000
00001000
00001000
00000000
00000000
;

//---------------dance-double - ----------------
#NOTES:
     dance-double:
     :
     Hard:
     9:
     0.710,0.616,0.279,0.000,0.005,471.000,28.000,0.000,0.000,0.000:
00000000
00000000
00000000
00000000
,
00110000
00000000
10000000
00010000
01000000
00100000
10000000
01000000
,
00100000
00000000
00010000
10000000
01000000
00010000
00001000
00000100
,
00000001
00000000
00001000
00000100
00001000
00000010
00000100
00000001
,
00000100
00000000
00000001
00000010
00000100
00001000
00010000
01000000
,
00010000
00000000
10000000
01000000
00100000
00010000
10000000
01000000
,
00100000
00000000
00010000
00100000
01000000
10000000
01000000
00010000
,
00001000
00000000
00000100
00000001
00001000
00000010
00001000
00000100
,
00000010
00000000
00000001
00000100
00001000
00000010
00000001
00000100
,
00000010
00000000
00000001
00000100
00001000
00000000
00010000
01000000
,
10000000
00000000
00010000
01000000
00010000
00100000
10000000
01000000
,
00100000
00000000
10000000
01000000
00010000
00000000
00001000
00000100
,
00000001
00000000
00001000
00000100
00000001
00000010
00001000
00000100
,
00000010
00000000
00000001
00000100
00001000
00000000
00010000
01000000
,
00100000
00000000
00010000
10000000
01000000
00100000
00010000
01000000
,
00100000
00000000
10000000
01000000
00010000
00000000
00001000
00000100
,
00000001
00000000
00001000
00000001
00000010
00000001
00001000
00000001
,
00001100
00000000
00001000
00000100
00001000
00000000
00000010
00001000
,
00000100
00000000
00000010
00000100
00001000
00010000
01000000
10000000
,
00100000
00000000
00010000
10000000
01000000
00000000
00010000
00001000
,
00000100
00000000
00000001
00000100
00001000
00000000
00000001
00001000
,
00000001
00000000
00000010
00000101
00000000
00000000
00000000
00000000
,
00001000
00000000
00000100
00001100
00000000
00000000
00000000
00000000
,
00011000
00000000
01000000
01010000
00000000
00000000
00000000
00000000
,
10000000
00010000
00100000
01000000
00010000
10000000
00010000
10000000
,
10100000
00000000
01000000
00000000
00001000
00010000
00001000
00010000
,
00000010
00000000
00000011
00000000
00000100
00001000
00000001
00000010
,
00001000
00000000
00001100
00000000
00000010
00000100
00001000
00000100
,
00001000
00010000
00001000
00010000
00001000
00010000
00000100
00000000
,
00011000
00000000
01000000
00000000
01000000
00100000
01000000
00100000
,
00010000
10000000
00010000
01000000
00001000
01000000
00010000
01000000
,
10000000
00000000
01000000
00010000
10000000
00010000
00100000
00000000
,
01000000
00010000
00001000
00010000
00001000
00000000
00001100
00000000
,
00000011
00000000
00000100
00000000
00010000
00001000
00010000
00001000
,
00100000
00000000
10100000
00000000
01000000
00010000
10000000
00100000
,
00010000
00000000
01010000
00000000
00100000
01000000
00010000
01000000
,
00010000
00001000
00010000
00001000
00010000
00001000
01000000
00000000
,
00011000
00000000
00000100
00000000
00000100
00000010
00000100
00000010
,
00001000
00000001
00001000
00000100
00010000
00000100
00001000
00100000
,
00010000
00000000
00100000
10000000
00010000
10000000
01000000
10000000
,
01000000
00000000
00010000
00001000
00000100
00000000
00000010
00000100
,
00000010
00000000
00000101
00000000
00000010
00000100
00000001
00000100
,
00000010
00000000
00000001
00000100
00001000
00000000
00010000
00000000
,
01000000
00000000
11000000
00000000
01000000
10000000
00010000
01000000
,
00010000
00000000
00100000
01000000
00010000
10000000
01000000
00000000
,
00010000
00000000
00011000
00000000
00000010
00001000
00000100
00001000
,
00000100
00000000
00010000
00001000
00000100
00000000
00000001
00000000
,
00001000
00000000
00001100
00000000
00000100
00000001
00001000
00000100
,
00010000
00000000
00001000
00000000
00001000
00010000
00001000
00010000
,
00000100
00000000
00001000
00001100
00000000
00000000
00011000
00000000
,
01000000
00000000
00010000
01010000
00000000
00000000
00110000
00000000
,
11000000
00000000
00100000
01100000
00000000
00000000
00001000
00000000
,
00011000
00000000
00000010
00000110
00000000
00000000
00001001
00000000
,
00000010
00000000
00000100
00000001
00000010
00000100
00001000
00000100
,
00001000
00000000
00000010
00000100
00010000
00001000
00010000
01000000
,
10000000
00000000
00100000
10000000
00100000
01000000
00100000
10000000
,
01000000
00000000
00100000
00001000
00000100
00000001
00000010
00000100
,
00001000
00000010
00000100
00000001
00001000
00000010
00000100
00001000
,
00010000
01000000
10000000
01000000
10000000
00010000
00100000
00010000
,
10000000
01000000
00100000
00010000
10000000
01000000
00010000
00001000
,
00000100
00000001
00001000
00000001
00001000
00000001
00000010
00001000
,
00000100
00000010
00000100
00001000
00000001
00001000
00000001
00001000
,
00000010
00000100
00001000
00010000
01000000
10000000
00100000
00010000
,
01000000
00010000
10000000
01000000
00100000
00010000
01000000
00100000
,
10000000
01000000
10000000
01000000
00010000
00001000
00000010
00001000
,
00000001
00000100
00000001
00000010
00000100
00001000
00000001
00000100
,
00000010
00001000
00000100
00000001
00000100
00001000
00000010
00000001
,
00000100
00001000
00010000
00001000
00010000
01000000
10000000
01000000
,
10000000
00010000
01000000
00100000
10000000
00010000
00100000
10000000
,
00010000
00100000
00010000
01000000
00010000
10000000
01000000
00100000
,
00010000
10000000
01000000
00010000
00001000
00000100
00000001
00000100
,
00001000
00000100
00000010
00000001
00000100
00000010
00001000
00000001
,
00000010
00000000
00000100
00000000
00001000
00000000
00010000
00000000
01000000
00000000
01000000
00000000
00010000
00010000
00000000
00000000
;

//---------------dance-single - Copied from----------------
#NOTES:
     dance-single:
     Copied from:
     Challenge:
     10:
     1.000,0.979,0.119,0.000,0.941,728.000,12.000,0.000,0.000,0.000:
0000
0000
0000
0000
,
1000
0000
0000
0000
0001
0000
1000
0100
1000
0000
0010
0100
0010
0000
1000
0000
,
0001
0010
0001
0000
1000
0100
1000
0000
0001
0000
0010
0000
0100
0000
1000
0000
,
0001
1000
0001
0000
1000
0000
0100
0000
0010
0001
0010
0000
0100
0000
1000
0000
,
0100
0010
0100
0000
1000
0010
1000
0000
0001
0100
0001
0000
1000
0000
0001
0000
,
0100
0000
0010
1000
0010
0000
0100
0000
0001
0000
0100
0010
0100
0000
0001
0000
,
0000
0000
1000
0100
1000
0000
0100
0000
0010
0000
0001
0010
0001
0000
0100
0000
,
0000
0000
1000
0100
1000
0000
0001
0000
0010
0100
0010
0000
0001
0000
0100
0000
,
0010
1000
0010
0000
1000
0100
1000
0000
0010
0000
1000
0000
0001
0000
0100
0000
,
0001
0010
0001
0010
0001
0000
0100
0010
0100
0000
0010
1000
0010
0000
0100
0000
,
0001
0010
0001
0010
0001
0000
1000
0100
1000
0000
0001
0010
0001
0000
1000
0000
,
0001
1000
0001
1000
0001
0000
0100
0000
0010
1000
0010
1000
0010
0000
0100
0000
,
0001
0100
0001
0000
1000
0001
1000
0000
0001
0000
0010
0000
0100
0000
1000
0000
,
0010
1000
0010
1000
0010
0000
1000
0100
1000
0000
0001
0010
0001
0000
0100
0000
,
0001
0100
0001
0100
0001
0000
0010
0001
0010
0000
0100
1000
0100
0000
0010
0000
,
0001
0100
0001
0100
0001
0000
0010
0000
0001
1000
0001
1000
0001
0000
0010
0000
,
0100
1000
0100
0000
0010
0001
0010
0000
0001
0000
0010
0000
0100
0000
1000
0000
,
0100
1000
0100
0000
0010
0000
0001
0000
1000
0100
1000
0000
0010
0000
0000
0000
,
0100
0010
0100
0000
0001
0000
0100
0000
0010
1000
0010
0000
1000
0000
0000
0000
,
0001
0010
0001
0000
1000
0000
0100
0000
1000
0010
1000
0000
0001
0000
0100
0000
,
0010
0100
0010
0000
0100
0001
0100
0000
0010
1000
0010
0000
1000
0100
1000
0000
,
0001
0010
0100
0000
1000
0000
1010
0000
0000
0000
0000
0000
0000
0000
0000
0000
,
1000
0100
0010
0000
0001
0000
0101
0000
0000
0000
0000
0000
0000
0000
0000
0000
,
0001
0010
0100
0000
1000
0000
1010
0000
0000
0000
0000
0000
0000
0000
0000
0000
,
1000
0100
1000
0100
0010
0001
0010
0001
0100
0001
0100
0001
0010
0100
0010
0100
,
1000
0000
0001
0000
0100
0000
0010
1000
0010
0000
1000
0000
0100
0000
0010
0000
,
0001
0010
0001
0000
1000
0000
0001
0010
0001
0000
0010
0000
0100
0000
1000
0000
,
0001
0010
0001
0000
1000
0100
1000
0000
0001
0010
0001
0000
1000
0100
1000
0000
,
0001
0000
0100
0000
0010
0000
1000
0000
0001
0010
0001
0010
0001
0000
0000
0000
,
1000
0000
0100
0000
0010
0000
0001
0010
0001
0000
1000
0000
0100
0000
0010
0000
,
0001
0010
0001
0000
1000
0000
0001
0010
0001
0000
0010
0000
0100
0000
1000
0000
,
0001
0010
0001
0000
1000
0100
1000
0000
0001
0010
0001
0000
1000
0100
1000
0000
,
0001
0000
0010
0000
0100
0000
1000
0000
0010
1000
0010
1000
0010
1000
0010
0000
,
1000
0000
0001
0000
1000
0000
0010
1000
0010
0000
1000
0000
0100
0000
0010
0000
,
0001
0010
0001
0000
1000
0000
0001
0010
0001
0000
0010
0000
0100
0000
1000
0000
,
0001
0010
0001
0000
1000
0100
1000
0000
0001
0010
0001
0000
1000
0100
1000
0000
,
0001
0000
0100
0000
0001
0000
1000
0000
0001
0100
0001
0100
0001
0000
0000
0000
,
0100
0000
0001
0000
1000
0000
0010
1000
0010
0000
1000
0000
0100
0000
0010
0000
,
0001
0010
0001
0000
1000
0000
0001
0010
0001
0000
0010
0000
0100
0000
1000
0000
,
0001
0010
0001
0000
1000
0100
1000
0000
0001
0010
0001
0000
1000
0100
1000
0000
,
0001
0000
0010
0000
0001
0000
1000
0000
0010
0100
0010
0100
0010
0100
0010
0000
,
1000
0100
1000
0000
0010
0000
0100
0000
0001
0100
0001
0000
0100
0000
0010
0000
,
0100
0010
0100
0000
0001
0010
0001
0000
0010
0000
0100
0010
0100
0000
1000
0000
,
0010
0000
0100
0001
0100
0000
0010
0000
1000
0000
0100
0010
0100
0000
1000
0000
,
0010
0000
0100
0000
0001
0000
0010
0000
0100
0000
1000
0100
1000
0000
0010
0000
,
0100
0001
0100
0000
0010
0000
1000
0000
0001
0010
0001
0000
0010
0000
0100
0000
,
1000
0100
1000
0000
0001
0010
0001
0000
0100
0000
0010
1000
0010
0000
0100
0000
,
0001
0000
0100
0010
0100
0000
0001
0000
1000
0000
0001
0010
0001
0000
1000
0000
,
0001
1000
0010
0100
1001
0110
1001
0110
,
0001
0010
0100
0000
1000
0000
1010
0000
0000
0000
0000
0000
0000
0000
0000
0000
,
1000
0100
0010
0000
0001
0000
0101
0000
0000
0000
0000
0000
0000
0000
0000
0000
,
0001
0010
0100
0000
1000
0000
1010
0000
0000
0000
0000
0000
0000
0000
0000
0000
,
1000
0100
0010
0000
0001
0000
0101
0000
0000
0000
0000
0000
0000
0000
0000
0000
,
1000
0100
1000
0000
0001
0000
1000
0000
0001
0010
0001
0000
1000
0000
0100
0000
,
0010
0001
0010
0000
0100
0000
1000
0000
0001
0010
0001
0000
0100
0000
0010
0000
,
1000
0100
1000
0000
0100
0000
0010
0000
0001
0010
0001
0000
1000
0000
0001
0000
,
1000
0001
1000
0000
0001
0000
1000
0000
1001
0000
0000
0000
1000
0010
1000
0010
,
1000
0000
0001
0010
0001
0000
1000
0100
1000
0000
0010
0000
0100
0001
0100
0001
,
0100
0000
0010
1000
0010
0000
0100
0001
0100
0000
0010
0000
1000
0100
1000
0100
,
1000
0000
0100
0000
0010
0001
0010
0001
0010
0000
0100
0000
1000
0010
1000
0000
,
0100
0010
0100
0000
1000
0010
1000
0010
1000
0010
1000
0000
0001
1000
0001
1000
,
0001
0000
1000
0100
1000
0000
0010
1000
0010
0000
0100
0000
0001
0100
0001
0100
,
0001
0000
0010
0001
0010
0000
0001
0100
0001
0000
0010
0000
0001
0100
0001
0100
,
0001
0000
0010
0000
0100
1000
0100
1000
0100
0000
0010
0000
0001
0010
0001
0000
,
1000
0100
1000
0000
0001
0100
0001
0100
0001
0100
0001
0000
0010
0100
0010
0000
,
0001
0000
0010
0000
0100
1000
0100
0000
0010
0001
0010
0000
0001
0100
0001
0000
,
1000
0000
0100
0000
0010
0001
0010
0000
0001
1000
0001
0000
0100
0010
0100
0000
,
0001
0000
0100
0000
0001
0010
0001
0000
1000
0100
1000
0000
0010
0000
0100
0000
,
0001
0000
0010
0000
0100
1000
0100
1000
0100
1000
0100
0000
0010
0100
0010
0000
,
0001
0000
0010
0000
0100
1000
0100
0000
0010
0001
0010
0000
0001
0010
0001
0000
,
1000
0000
0100
0000
0010
0001
0010
0000
0100
1000
0100
0000
0010
0001
0010
0000
,
0100
0000
1000
0000
0001
0010
0001
0000
1000
0100
1000
0000
0010
0000
1000
0000
,
0010
0000
0100
0000
0001
0010
0001
0010
0001
0010
0001
0000
0010
0010
0000
0000
;
