#TITLE:Spyro A Hero's Tail - Title;
#SUBTITLE:;
#ARTIST:Unknown artist;
#TITLETRANSLIT:;
#SUBTITLETRANSLIT:;
#ARTISTTRANSLIT:;
#CREDIT:Dancing Monkeys v1.04;
#BANNER:03-spyro5-title - BN.png;
#BACKGROUND:03-spyro5-title.png;
#LYRICSPATH:;
#CDTITLE:spyrothedragon.png;
#MUSIC:03-spyro5-title.mp3;
#OFFSET:-0.629;
#SAMPLESTART:60.632;
#SAMPLELENGTH:12.000;
#SELECTABLE:YES;
#BPMS:0.000=119.995;
#STOPS:39.000=2.000
,67.000=2.000
,67.000=2.000
,67.000=2.000
,67.000=2.000
;
#BGCHANGES:;
// cache tags:
#FIRSTBEAT:0.000;
#LASTBEAT:119.500;
#SONGFILENAME:Songs/toune 3/03-spyro5-title/03-spyro5-title.sm;
#HASMUSIC:1;
#HASBANNER:1;
#MUSICLENGTH:74.038;
// end cache tags

//---------------dance-single - Basic----------------
#NOTES:
     dance-single:
     Basic:
     Easy:
     3:
     0.233,0.294,0.027,0.000,0.000,119.000,2.000,0.000,0.000,0.000:
0110
0001
1000
0000
0001
0000
0010
0001
,
1000
0000
0010
0000
0000
0000
1000
0000
,
0001
0000
0100
0000
0000
0000
0001
0000
,
0001
0000
0010
0000
0000
0000
0001
0000
,
1000
0000
0100
0000
0000
0000
1000
0000
,
0001
0000
0001
0000
0100
0000
0001
0000
,
1000
0000
0010
0000
0000
0000
1000
0000
,
1000
0000
0010
0000
0001
0000
0100
0000
,
0001
0100
0010
0000
1000
0000
0100
0000
,
0001
0100
0010
0000
1000
0000
0100
0000
,
0000
0000
0000
0000
1000
0000
0001
0000
,
0001
0000
0000
0000
0010
0000
0100
0000
,
0000
0000
0000
0000
1000
0000
0001
0000
,
1000
0000
0010
0000
0001
0000
0100
0000
,
0001
0000
0100
0000
1000
0000
0010
0000
,
1000
0000
0100
0000
0001
0000
0010
0000
,
0001
0000
0010
0000
1000
0000
0100
0000
,
0001
0000
0100
0010
1000
0000
0010
1000
,
1000
0000
0100
0010
0001
0000
0010
0001
,
0001
0100
0010
0000
1000
0000
0100
0000
,
0001
0000
1000
0010
0100
0010
1000
0001
,
1000
0100
0001
0100
0010
0100
0010
0000
,
1000
0000
0010
0000
0000
0000
1000
0000
,
0000
0000
0000
0000
1000
0000
0001
0000
,
1000
0000
0010
0000
0100
0000
0001
0000
,
0001
1000
0001
0100
0001
0000
0011
0000
,
1000
0000
0010
0000
0000
0000
1000
0000
,
1000
0000
0010
0000
0100
0000
0100
0000
,
1000
0000
0010
0000
0000
0000
1000
0000
,
1000
0000
0000
0000
0000
0000
0000
0000
,;

//---------------dance-single - Standard----------------
#NOTES:
     dance-single:
     Standard:
     Medium:
     6:
     0.367,0.339,0.027,0.000,0.000,188.000,2.000,0.000,0.000,0.000:
0110
0001
0010
0001
1000
0001
0010
0100
,
1000
0000
0100
0000
1000
0010
0100
0001
,
0001
0000
0100
0000
0001
0010
0100
1000
,
1000
0000
0100
0000
1000
0010
0100
0001
,
1000
0000
0010
0000
1000
0100
0010
0001
,
1000
0001
0001
0010
0001
0100
0001
0100
,
1000
0000
0100
0000
1000
0010
0100
0001
,
1000
1000
0001
0000
1000
0100
0010
0100
,
0001
0100
0010
0000
1000
0001
1000
0010
,
1000
0010
0100
0000
0001
1000
0001
0100
,
0000
0000
0000
0000
0001
1000
0001
0000
,
0000
1000
0000
0000
0100
1000
0001
0100
,
0000
0000
0000
0000
1000
0001
1000
0000
,
1000
1000
0001
0000
1000
0100
0010
0100
,
1000
1000
0001
0000
1000
0010
0100
0010
,
0001
0001
1000
0000
0001
0010
0100
0010
,
1000
1000
0001
0000
1000
0100
0010
0100
,
0001
0010
0100
1000
0010
1000
0010
0001
,
1000
0100
0010
0001
0100
0001
0100
1000
,
0001
0100
0010
0000
1000
0001
1000
0010
,
0001
0100
0001
1000
0100
1000
0010
1000
,
0001
0100
0010
1000
0001
0010
0100
0010
,
1000
0000
0100
0000
1000
0010
0100
0001
,
0000
0000
0000
0000
1000
0001
1000
0000
,
1000
0000
0100
0010
0001
0010
0001
0100
,
0001
1000
0001
0010
1000
0000
0011
0000
,
1000
0000
0100
0000
1000
0010
0100
0001
,
0001
0100
0010
0100
0001
0100
0100
0000
,
1000
0000
0100
0000
1000
0010
0100
0001
,
1000
0000
0000
0000
1000
0000
0000
0000
,;

//---------------dance-single - Heavy----------------
#NOTES:
     dance-single:
     Heavy:
     Hard:
     7:
     0.419,0.363,0.054,0.000,0.000,213.000,4.000,0.000,0.000,0.000:
1100
1000
0100
1000
0100
0010
0100
1000
,
0001
0100
0010
1000
0010
1000
0010
0100
,
1000
0010
0100
0001
0100
0001
0100
0010
,
1000
0010
0100
0001
0100
0001
0100
0010
,
0001
0100
0010
1000
0010
1000
0010
0100
,
0000
0001
0001
1000
0100
1000
0001
0000
,
0001
0100
0010
1000
0010
1000
0010
0100
,
1000
1000
0100
0000
1000
0100
0010
0001
,
1000
0010
0100
0000
0010
1000
0100
1000
,
1000
0100
0010
0000
0100
1000
0010
1000
,
0001
0010
0100
0000
1000
0010
0100
0010
,
1000
0010
1000
1000
0010
1000
0001
0100
,
1000
0100
0010
0000
0001
0100
0010
0100
,
1000
1000
0100
0000
1000
0100
0010
0001
,
1000
1000
0010
0000
1000
0010
0100
0001
,
1000
1000
0010
0000
1000
0010
0100
0001
,
1000
1000
0100
0000
1000
0100
0010
0001
,
1000
0000
0001
0100
0010
0100
0010
0100
,
1000
0000
0001
0010
0100
0010
0100
0010
,
1000
0010
0100
0000
0010
1000
0100
1000
,
0001
1000
0010
1000
0001
0100
0010
0100
,
1000
0000
1100
0000
1000
0100
1000
0000
,
0001
0100
0010
1000
0010
1000
0010
0100
,
1000
0100
0010
0000
0001
0100
0010
0100
,
1000
0000
0100
0000
0010
0001
0100
0010
,
0001
0000
1001
0000
0100
0000
1100
0000
,
0001
0100
0010
1000
0010
1000
0010
0100
,
0001
0100
0010
0000
0100
0010
0010
0000
,
0001
0100
0010
1000
0010
1000
0010
0100
,
1000
0010
0010
0010
0010
0000
0010
0010
,
;
