#TITLE:Seisen Spectale;
#SUBTITLE:Valkyrie Complex OP theme;
#ARTIST:ceui;
#TITLETRANSLIT:;
#SUBTITLETRANSLIT:;
#ARTISTTRANSLIT:;
#CREDIT:ALICE_;
#BANNER:Seisen Spectale.png;
#BACKGROUND:Seisen Spectale.jpg;
#LYRICSPATH:;
#CDTITLE:cdtitle.png;
#MUSIC:Seisen Spectale.mp3;
#OFFSET:0.745;
#SAMPLESTART:67.340;
#SAMPLELENGTH:12.000;
#SELECTABLE:YES;
#BPMS:0.000=153.000;
#STOPS:;
#BGCHANGES:5.250=Seisen Spectale.avi=1.000=0=0=1,
99999=-nosongbg-=1.000=0=0=0 // don't automatically add -songbackground-
;
// cache tags:
#FIRSTBEAT:8.000;
#LASTBEAT:308.500;
#SONGFILENAME:Songs/alice 4th complete step/Seisen Spectale/Seisen Spectale.sm;
#HASMUSIC:1;
#HASBANNER:1;
#MUSICLENGTH:124.921;
// end cache tags

//---------------dance-single - ----------------
#NOTES:
     dance-single:
     :
     Hard:
     8:
     0.497,0.586,0.288,0.328,0.044,358.000,36.000,41.000,0.000,0.000:
0000
0000
0000
0000
,
0000
0000
0000
0000
,
0101
0000
0001
1000
,
0100
0000
1000
0010
,
0200
0000
0302
0000
,
2003
0000
0000
0000
3200
0000
0000
0300
,
1001
0000
1100
0000
,
0011
0100
0010
0000
,
2002
0000
0000
0000
,
0000
0000
0000
3003
,
1001
0100
1000
0010
0100
1000
0100
0001
,
0001
0000
1000
0100
0010
0001
0100
0010
,
1000
0001
0100
0001
0010
1000
0010
0100
,
0100
1000
0001
0010
0001
1000
0010
0100
,
1001
0000
0010
0100
0010
0001
0100
1000
,
0010
0000
0100
1000
0010
0001
0010
0100
,
0001
1000
0100
0010
0000
1100
0000
0012
,
0000
1003
0100
0010
0001
0100
0010
1000
,
2001
0000
0000
0000
,
3010
0002
0000
2003
0000
3100
0010
0100
,
1001
0000
0000
0101
0000
0010
1000
0100
,
0000
1000
0010
0001
0000
0010
1000
0100
,
1002
0000
0000
0000
0000
2003
0000
0000
,
3000
0010
0000
0100
0000
0001
1000
0100
,
2200
0000
3300
0220
0330
0001
0101
0002
,
0000
0000
0103
2000
0000
0000
3000
0000
,
0110
0000
0001
1000
0000
0100
0010
0000
,
0001
1000
0100
1000
0010
0100
0001
0000
,
1001
0000
0100
0010
0000
1000
0001
0000
,
1000
0001
0100
0010
0001
1000
0100
0001
,
0011
0000
0100
1000
0000
0010
1001
0000
,
0100
1000
0100
0001
1000
0100
0010
0000
,
1100
0000
0010
0001
0000
0100
0001
1000
,
0000
0100
0010
0001
0001
1000
0010
0100
,
1001
0000
0101
0001
1000
0100
1000
0010
,
0100
0001
0100
0001
1000
0100
1000
0100
,
0010
0001
1000
0010
1000
0001
0100
0010
,
1000
0001
0100
1000
0100
0010
1000
0100
,
0001
0000
0000
0100
0000
1000
0000
0010
,
0000
0100
0010
0100
0000
0001
1000
0100
,
1001
0000
0011
0000
,
1100
0000
0000
0010
0000
0000
0100
0000
0000
0000
0001
0000
1000
0000
0100
0000
,
0020
0000
0000
0000
,
0230
0000
0000
0000
0000
0000
0000
0300
,
1001
0000
0000
0001
0100
0000
0010
0000
1000
0000
0100
0000
0010
0000
0001
0000
,
0100
0000
0000
1000
0100
0000
0001
0000
0010
0000
1000
0000
0010
0000
0001
0000
,
0100
0000
0000
0010
1000
0000
0100
0000
0000
0000
0010
0000
1001
0000
0100
0000
,
0010
0000
0000
0001
0100
0000
0001
0000
1000
0000
0100
0000
0001
0000
1000
0000
,
0020
0000
0130
1000
0010
0100
0002
0000
,
2003
0000
3001
0010
0100
0010
0001
0000
,
1100
0000
0000
0001
0100
0000
0101
0000
0000
0000
0010
0000
1001
0000
0100
0000
,
0100
0000
0000
0010
0000
0000
0100
0000
0001
0000
1000
0000
0100
0000
0010
0000
,
0110
0000
0000
0010
0100
0000
1000
0000
0001
0000
1000
0000
0010
0000
0100
0000
,
0001
0000
0000
0100
0010
0000
1000
0000
0010
0000
0100
0000
0001
0000
1000
0000
,
0100
0000
0000
0010
0001
0000
1000
0000
0000
0000
0010
0000
1000
0000
0001
0000
,
0100
0000
0000
0100
0010
0000
0100
0000
1000
0000
0100
0000
0001
0000
0010
0000
,
0002
0003
1000
0100
1000
0001
1000
0100
,
2000
3000
0001
0100
0001
1000
0001
0100
,
0020
0030
0100
1000
0100
0001
1000
0100
,
0020
0030
0100
0001
0100
1000
0001
0100
,
1010
0000
0100
0101
0000
0001
0020
0000
,
0000
0130
0100
0100
,
1000
0001
0010
1000
0000
0010
0000
1002
,
0000
0000
0100
0000
1000
0000
0023
0030
,
0220
0000
0000
0000
0000
0000
0000
0030
,
2300
0000
3002
0000
,
0203
0000
0320
0000
,
1030
0001
0100
0001
,
2000
0000
3002
0000
,
0013
0100
1000
0010
,
0200
0000
0000
0000
,
0302
0000
0000
0000
,
2000
0000
0000
0000
,
0000
0000
0000
0000
,
0000
0000
0000
0000
,
0000
0000
0000
0000
,
0000
0000
0000
0000
,
3003
0000
0000
0000
;

//---------------dance-single - ----------------
#NOTES:
     dance-single:
     :
     Challenge:
     15:
     0.882,1.000,1.000,0.568,0.512,514.000,178.000,71.000,0.000,21.000:
0000
0000
0000
0000
,
0000
0000
0000
0000
,
2002
0000
0000
3003
0011
0000
0100
0000
,
2020
0000
0000
3030
1100
0000
0010
0000
,
2020
3030
2002
3103
,
0202
0303
0011
0100
,
0220
0000
0000
0330
1001
0000
0010
0000
,
0101
1000
0010
0000
,
0220
0000
0000
0000
,
0000
0000
0000
0330
,
1010
0000
0001
1100
0001
0000
1010
0000
0100
0000
0110
0000
1001
0000
0010
0100
,
2002
0000
0000
0003
0100
0010
0001
0100
0001
0010
0001
0100
0010
0100
0001
3010
,
0101
0000
1000
0011
1000
0000
0101
0000
0010
0000
0110
0000
1001
0000
0100
0010
,
1002
0000
0010
1000
0010
0100
1000
0100
0010
1000
0100
1000
0010
0100
1000
0103
,
1001
0000
0100
1010
0100
0000
1001
0000
0010
0000
0101
0000
1010
0000
0010
0100
,
1001
0000
0010
0000
1001
0000
0101
1000
0010
0100
0001
0010
0001
1000
0010
0100
,
1001
0010
1100
0011
0100
1010
0001
2002
,
0100
0000
3103
0010
0001
1000
0010
0100
0001
0010
0001
0100
0001
0010
0100
1000
,
0002
0000
0000
0000
0000
0000
0000
0000
0000
0000
0003
0000
1000
0100
0010
0000
0000
0000
0000
0000
0000
0000
0000
0000
0000
0000
0000
0000
0000
0000
0000
0000
,
0000
0000
0010
0001
0100
0000
0000
0000
0000
0000
0000
0000
0010
0000
0000
0000
0000
0000
0000
0000
1000
0000
0000
0000
0001
0000
0000
0000
0100
0000
0000
0000
,
1001
0010
0100
0001
1000
0010
0100
0001
,
1000
0010
0110
1001
0000
0011
0100
1000
,
0100
0010
0000
0000
0000
0000
0000
0000
0000
0000
0000
0000
0000
0000
0000
0000
0000
0000
0000
0000
0001
0000
0000
0000
0000
0000
0000
0000
0000
0000
0000
0000
,
0000
0010
0000
0100
0000
1000
0100
0010
,
2002
0000
3003
0202
0303
1000
1010
0220
,
0000
0000
0000
2332
0000
0010
0100
3013
,
1100
0000
0101
1000
0010
1010
1001
0000
,
0101
0000
0010
1000
0001
0000
0100
0000
1000
0000
0011
0000
1001
0000
0010
0000
,
1100
0000
0010
1000
0001
0000
1000
0000
0010
0000
0101
0000
0011
0000
1000
0000
,
1001
0000
0010
0100
0010
0000
0101
0000
1100
0000
0001
0000
0100
0000
1010
0000
,
2002
3003
0010
0101
0100
1010
1001
0010
,
0100
0001
0010
0000
0000
0000
0000
0000
1000
0000
0000
0000
1100
0000
0000
0000
0010
0000
0000
0000
0101
0000
0000
0000
1001
0000
0000
0000
0100
0000
0000
0000
,
1010
0000
0001
0100
0010
0000
1100
0000
0010
0000
1001
0000
0100
0000
0012
0000
,
0000
0000
0103
1000
0100
0010
1000
0100
0001
0010
0001
0100
0010
1000
0001
0010
,
0101
0000
1000
0010
1100
0000
1000
0001
1100
0000
1000
0010
1100
0000
1000
0001
,
0110
0000
0001
1000
0011
0000
0001
0100
0011
0000
0001
1000
0011
0000
0001
0100
,
1010
0000
0100
1001
0100
0000
0010
1000
0101
0000
0010
1001
0010
0000
0100
0001
,
1010
0000
0001
0000
1100
0000
0011
0000
1000
0100
0010
0100
1001
0000
0010
0000
,
1100
0000
0010
0000
0001
0000
0200
0000
0000
0000
0320
0000
0000
0030
1001
0000
,
0000
0001
0100
0020
0000
0031
1000
0100
,
2020
0000
0000
0000
0000
0000
0000
0030
0002
0000
0000
0000
0000
0000
0000
0003
,
3120
0000
0000
1000
0000
0000
0001
0000
0000
0000
0100
0000
1000
0000
0130
0000
,
1001
1100
0110
0011
1100
0101
1010
0011
,
2202
0000
0000
0000
0000
0000
0000
0000
0320
0000
0000
0000
0000
0000
0000
3033
,
1001
0000
0011
1100
0000
0100
0011
1000
,
1010
0001
0010
0100
0010
1000
0100
0010
0001
1000
0010
0100
0001
1000
0010
1000
,
0101
0000
1100
0011
0000
0010
1100
0001
,
1010
0001
0010
0100
0001
0010
0100
1000
0010
0100
1000
0100
0011
1000
0010
0100
,
1001
0000
0001
1100
0010
1100
1001
0000
,
2000
0000
0000
3010
0101
0000
0010
0100
1000
0001
0100
0001
1010
0001
0100
0010
,
2100
0000
0000
3010
0101
0000
1001
0000
0000
0000
0100
0000
1010
0000
0100
0000
,
0012
0000
0000
1000
0113
0000
1000
0010
0001
1000
0100
0010
1000
0100
1000
0001
,
0110
0000
0000
0010
1001
0000
0010
0000
0100
0000
1010
0000
0101
0000
0000
0000
,
1001
0000
0000
1000
0110
0000
1000
0000
0010
0000
0101
0000
1010
0000
0000
0000
,
1001
0000
0000
0010
0101
0000
1100
0000
0000
0000
1010
0000
1001
0000
0022
0000
,
0033
0000
0000
0110
1001
0000
2200
0000
3300
0000
1000
0100
0011
0000
0100
0000
,
1011
0000
0001
0100
1010
0000
0001
0100
1010
0100
0001
0010
1001
0000
1010
0000
,
0101
0000
0100
0010
1001
0100
0010
1000
0100
1000
0010
0100
0011
1000
0001
0010
,
1101
0000
1000
0010
0101
0000
1000
0010
0101
0010
1000
0001
0110
0000
1100
0000
,
0011
0000
0100
0010
1001
0010
0100
0001
1010
0001
0100
1000
0001
0100
1000
0010
,
0101
0000
0000
0000
0000
0000
0000
0000
0000
0000
0000
0000
0100
0000
0000
0000
1010
0000
0000
0000
0000
0000
0000
0000
1101
0000
0000
0000
0000
0000
0000
0000
0010
0000
0000
0000
0000
0000
0000
0000
0101
0000
0000
0000
0000
0000
0000
0000
2222
3333
0000
0000
0000
0000
0000
0000
0000
0000
0000
0000
0000
0000
0000
0000
,
0000
0000
0100
0010
1001
0100
0010
0001
0110
1000
0100
0010
1100
0010
0001
0110
,
2002
0000
0000
0000
3003
0000
2200
0000
0000
0000
0000
3300
0000
0000
0202
0000
,
0000
0000
0000
0000
0000
0000
0000
0303
,
1221
0000
0000
0000
,
0332
0000
2003
0010
,
3201
0000
1301
0000
,
0010
2000
0100
3002
,
1100
0003
1000
0000
0011
0000
0000
0000
,
1001
0100
0010
1000
,
0201
0000
0000
0000
1000
0000
0000
0300
,
0220
0000
0000
0000
,
2332
0000
0000
0000
,
0000
0000
0000
0000
,
0000
0000
0000
0000
,
0000
0000
0000
0000
,
0000
0000
0000
0000
,
0000
3003
0000
0000
0000
0000
0000
0000
;

//---------------dance-single - ----------------
#NOTES:
     dance-single:
     :
     Medium:
     7:
     0.400,0.493,0.216,0.216,0.000,296.000,27.000,27.000,0.000,0.000:
0000
0000
0000
0000
,
0000
0000
0000
0000
,
0010
0000
0001
0001
,
0100
0000
1000
1000
,
0100
0000
0010
0000
,
0001
0000
1000
0000
,
0110
0000
0001
0000
,
1000
0001
0100
0000
,
0020
0000
0000
0000
,
0000
0000
0000
0030
,
1000
0100
1000
0100
1000
0100
1000
0100
,
0010
0101
0010
1100
,
0001
0100
0001
0100
0001
0100
0001
0100
,
0010
1100
0010
1001
,
0100
0010
1000
0001
0100
0010
1000
0001
,
0100
0001
0010
1000
,
2002
0000
3003
0100
0000
0010
0000
2000
,
0000
0000
0000
0002
0000
0000
3003
0000
,
0200
0000
0000
0000
,
0300
0010
1000
0001
0100
0010
1000
0000
,
0002
0000
0000
0000
0000
0000
0000
0003
,
0100
0001
1000
0100
1000
0010
0100
0001
,
2000
0000
0000
0000
,
3000
0010
0100
0001
1000
0100
0010
0001
,
0200
0000
0000
0310
0000
1000
0001
0200
,
0000
0000
0000
0002
0000
0000
0000
0303
,
1000
0000
0001
0100
0000
0100
0001
0000
,
1000
0001
0000
1000
0001
0100
0010
0000
,
0001
0000
1000
0100
0000
0100
1000
0000
,
0001
1000
0010
0100
0000
0001
1000
0000
,
0011
0000
0100
1000
0000
0001
0100
0000
,
0010
0000
1000
0001
0100
0001
1000
0000
,
0120
0000
0000
0100
0000
1000
0000
0130
,
0000
1000
0001
0100
0001
0010
0001
0100
,
0010
1010
0010
1010
,
0001
0101
1000
1100
,
0001
0011
0001
0011
,
1000
1100
0010
0101
,
2000
0000
0000
0000
3000
0010
0100
0001
,
0000
0010
0100
1000
0000
0010
0100
0000
,
2002
0000
0000
3000
0020
0000
0000
0030
,
2000
0000
0000
0003
0200
0000
0000
3300
,
0010
0001
1000
0100
0010
0001
1000
0100
,
0020
0000
0000
0000
0000
0000
0000
0030
,
0001
0100
0001
0100
0001
0100
0010
0000
,
1000
0100
0001
0100
1000
0100
0001
0000
,
0100
1000
0100
1000
0100
1000
0010
0000
,
0001
0100
1000
0100
0001
0100
1000
0000
,
0010
0100
0010
0100
0001
0010
0001
0000
,
0100
0010
0100
0010
1000
0100
1000
0000
,
0011
1000
1010
0001
,
0100
0000
0110
0000
1000
0001
0100
0000
,
0001
0010
0001
0010
0001
0010
0100
0000
,
1000
0010
0001
1000
0010
0001
0100
0000
,
1000
0010
1000
0010
1000
0010
0100
0000
,
0001
0100
1000
0001
0100
1000
0010
0000
,
0110
0100
0101
0001
,
1001
1000
0010
0100
,
1001
0001
0011
0010
,
1100
1000
0010
0100
,
1001
0000
0000
0100
0000
0010
2000
0000
,
0100
0100
0010
3100
,
0001
0100
0010
1000
0000
0001
0010
0100
,
0000
1000
0001
0100
,
0020
0000
0000
0000
,
0230
0000
0302
0000
,
2003
0000
3002
0000
,
0000
0000
0000
0000
,
1003
0000
0100
0000
,
0001
0010
1000
0010
,
0100
0000
0000
0000
,
0002
0000
0000
0000
,
2000
0000
0000
0000
,
0000
0000
0000
0000
,
0000
0000
0000
0000
,
0000
0000
0000
0000
,
0000
0000
0000
0000
,
3003
0000
0000
0000
;

//---------------dance-single - ----------------
#NOTES:
     dance-single:
     :
     Easy:
     4:
     0.265,0.326,0.184,0.184,0.000,186.000,23.000,23.000,0.000,0.000:
0000
0000
0000
0000
,
0000
0000
0000
0000
,
0000
0000
0000
0000
,
0000
0000
0000
0000
,
0000
0000
0000
0000
,
0000
0000
0000
0000
,
0000
0000
0000
0000
,
0000
0000
0000
0000
,
0000
0000
0000
0000
,
0000
0000
0000
0000
,
1000
0100
0010
0001
,
0100
0100
0010
0100
,
0001
0010
0100
1000
,
0010
0010
0100
0010
,
1000
0001
0100
1000
,
0001
0100
0010
1000
,
0001
0011
1000
1010
,
0100
0001
2000
0000
,
3100
0000
0000
0000
,
0010
0000
0000
0000
,
0001
0000
0000
0000
,
1000
0000
0000
0000
,
0110
0000
0000
0000
,
0001
0000
0000
0000
,
1000
0000
0000
0000
,
0020
0000
0000
0030
,
1000
0100
1000
0001
,
0100
0100
1001
0100
,
0001
0010
0001
1000
,
0010
0010
1001
0100
,
0001
0010
0001
0100
,
0010
1000
0001
1000
,
0100
0110
1000
0001
,
0100
1000
0100
0010
,
1000
1000
0100
0100
,
0001
0001
0100
0100
,
1000
0010
0001
0010
,
1000
0100
0010
0001
,
2000
0000
0000
0000
,
3020
0000
0000
0000
,
0032
0000
0000
0000
,
0203
0000
0320
0000
,
2030
0000
0000
0000
,
3001
0000
0001
1000
,
0101
0001
1000
0001
,
0100
0010
1000
0100
,
1001
1000
0001
1000
,
0010
0100
0001
1000
,
0010
0101
0010
1000
,
0100
0100
1010
0100
,
0001
1000
0010
0100
,
0020
0000
0130
0100
,
1001
1000
0010
1000
,
0100
0010
0001
0010
,
1001
0001
0100
0001
,
0100
0010
1000
0010
,
0100
0100
0100
0100
,
0101
1100
0001
1000
,
0010
0010
0010
0010
,
1010
0011
1000
0010
,
0200
0000
0300
0002
0000
0003
2000
0000
,
3000
0010
0010
0100
,
1001
0000
0110
0000
,
1100
0000
0011
0100
,
2002
0000
0000
0003
,
3020
0000
0230
0000
,
0302
0000
2003
0000
,
0000
3020
0000
0130
,
1001
0000
0010
0000
,
0100
1000
0010
0100
,
0020
0000
0000
0000
,
0230
0000
0000
0300
,
2002
0000
0000
0000
,
0000
0000
0000
0000
,
3003
0000
0000
0000
;
