#TITLE:Eternal Recurrence;
#SUBTITLE:Hoshizora no Memoria OP theme;
#ARTIST:Hashimoto Miyuki;
#TITLETRANSLIT:;
#SUBTITLETRANSLIT:;
#ARTISTTRANSLIT:;
#CREDIT:ALICE_;
#BANNER:Eternal Recurrence.png;
#BACKGROUND:Eternal Recurrence.jpg;
#LYRICSPATH:;
#CDTITLE:cdtitle.png;
#MUSIC:Eternal Recurrence.mp3;
#OFFSET:1.240;
#SAMPLESTART:60.820;
#SAMPLELENGTH:12.000;
#SELECTABLE:YES;
#BPMS:0.000=135.000;
#STOPS:;
#BGCHANGES:2.750=Eternal Recurrence.avi=1.000=1=0=1,
99999=-nosongbg-=1.000=0=0=0 // don't automatically add -songbackground-
;
// cache tags:
#FIRSTBEAT:8.000;
#LASTBEAT:265.000;
#SONGFILENAME:Songs/alice 4th complete step/Eternal Recurrence/Eternal Recurrence.sm;
#HASMUSIC:1;
#HASBANNER:1;
#MUSICLENGTH:118.055;
// end cache tags

//---------------dance-single - ----------------
#NOTES:
     dance-single:
     :
     Hard:
     7:
     0.548,0.534,0.263,0.093,0.013,411.000,31.000,11.000,0.000,0.000:
0000
0000
0000
0000
,
0000
0000
0000
0000
,
1001
0000
0100
0010
0001
0000
0100
0010
,
1000
0000
0100
0010
0001
0000
0100
0010
,
1000
0010
0100
0001
,
1100
0101
0110
1001
,
0001
0010
0001
0010
0100
1000
0100
1000
,
0010
1000
0010
1000
0001
0100
0001
0100
,
0010
1000
0001
1000
0100
1000
0010
0100
,
0001
0000
1000
0000
0001
0000
0101
0000
0010
0000
0000
0100
1000
0000
0100
0000
,
1001
0000
0100
0010
1000
0010
0100
0001
,
1000
0000
0100
0010
0100
1000
0001
0010
,
0100
0000
1000
0010
0100
0001
1000
0020
,
0000
0130
1000
0100
0001
0010
0001
1000
,
2100
0000
3010
0100
0001
0100
0010
1000
,
0001
0000
0010
0100
0010
0001
1000
0010
,
0101
0000
0001
0100
0010
1000
0001
0201
,
0000
0310
1000
0100
0010
0001
0100
0010
,
1000
0100
1000
0100
0010
0100
1000
0001
,
0100
0001
0100
0001
0100
1000
0100
0010
,
1000
0001
1000
0001
0100
0010
1000
0001
,
0100
1000
0100
0001
0010
1000
0010
0001
,
0100
0010
0100
0010
1000
0100
1000
0010
,
0100
0001
0100
0001
0010
0100
0010
0001
,
1000
0100
0010
0001
0100
0010
1000
1001
,
0010
0001
0100
0001
0000
1000
0010
0000
,
0100
0000
1000
0100
0001
0100
1000
0000
,
0010
0000
0001
0010
1000
0010
0001
0000
,
1000
0000
0100
0010
0001
0010
0100
0000
,
0001
0000
0100
0010
1000
0010
0100
0001
,
1000
0000
0010
0100
0001
0010
0001
0000
,
0100
0000
1000
0010
0100
1000
0100
0000
,
0001
0000
1100
0000
1000
0100
0101
0000
,
0010
1000
0001
1000
0100
1000
0010
0100
,
2002
0000
0000
0000
0000
0000
0000
3003
,
0100
1000
0100
1000
0100
0001
0010
0001
,
1000
0100
0010
0001
0100
0010
1000
0010
,
0100
1000
0100
0001
0010
1000
0010
0001
,
0100
0010
0110
0000
1001
1000
0100
0010
,
1000
0010
0001
0010
0100
1000
0001
0100
,
0010
1000
0001
1000
0100
1000
0010
0100
,
0001
0010
0001
0100
0010
1000
0010
1000
,
0101
0000
0010
2000
0000
3000
0100
0010
,
1001
0100
1000
0100
0010
1000
0010
1000
,
0010
0001
0100
0010
1000
0100
1000
0010
,
0100
1000
0100
0002
0000
0013
1000
0010
,
0000
0100
1000
0001
0010
0100
1000
0010
,
0100
0000
0101
0000
1000
0100
1000
0101
,
0000
1000
0010
1000
0001
0100
0010
0000
,
1000
0100
1000
0010
1000
0100
1000
0010
,
0100
1000
0100
0001
0010
0100
0010
0001
,
1000
0000
0010
0000
0100
1001
1000
2100
,
0000
3010
0001
0102
0000
0013
0100
0000
,
1001
0000
0100
1000
0010
0000
0100
0001
,
0010
0000
0100
1000
0010
0000
0100
0001
,
0010
0100
1000
0001
,
0011
1010
1001
0110
,
0100
1000
0100
1000
0001
0010
0001
0010
,
0001
0100
0001
0100
0010
1000
0010
0100
,
0001
0010
0100
0010
1000
0010
0001
0100
,
0010
0000
1000
0000
0001
0000
0101
0000
0010
0000
0000
0100
1000
0000
0100
0000
,
0010
0000
0001
0000
1000
0000
1100
0000
0010
0000
0000
0001
0100
0000
0010
0000
,
0220
0000
0000
0000
,
0330
0000
0000
0000
;

//---------------dance-single - Copied from----------------
#NOTES:
     dance-single:
     Copied from:
     Challenge:
     15:
     1.000,1.000,1.000,0.635,0.644,613.000,187.000,75.000,0.000,22.000:
0000
0000
0000
0000
,
0000
0000
0000
0000
,
1011
0000
0100
0000
,
1101
0000
0010
0000
,
1001
0010
0100
1000
,
0022
0033
0000
0000
0202
0303
0000
0000
2200
3300
0000
0000
2020
3030
0000
0000
,
1002
0000
0100
0100
0010
0000
0100
0103
1020
0000
0100
0100
0001
0000
0100
0130
,
2001
0000
0010
0010
0100
0000
0010
3010
0201
0010
1000
0000
1001
0000
0010
0310
,
0101
0000
1000
1000
0011
0000
0100
0100
1010
0000
0001
0000
1100
0000
0010
0000
,
1011
0000
0000
0000
0000
0000
1011
0000
0100
0000
0000
0100
1001
0000
0010
0000
,
1100
0000
0001
0000
0010
0000
1000
0100
0001
0000
0100
0000
0001
0000
0010
0000
,
0100
0000
1000
0000
0010
0000
0001
0100
1000
0000
0010
0000
0001
0000
0100
0000
,
2010
0000
0100
0000
0001
0000
0010
0001
3100
0000
0010
0000
1000
0000
0201
0000
,
0010
0000
1000
0000
0001
0000
1000
0010
0301
0000
1000
0000
0011
0000
0100
0000
,
1002
0000
0100
0000
1000
0000
0100
0103
0020
0000
0100
0000
1000
0000
0130
0000
,
2001
0000
0010
0000
0001
0000
0100
3100
1010
0000
0001
0000
0100
0000
0010
0000
,
1011
0100
1000
0001
0100
1010
0100
1011
,
1001
0000
1100
0000
1010
0000
1001
0000
0110
1000
0010
0100
0001
1000
0010
1000
,
0101
0000
1000
0000
0011
0000
0100
0100
1001
0000
0010
0000
1100
0000
0001
0001
,
0100
0010
1000
0000
1100
0000
1010
0000
0001
0100
0010
0000
0101
0000
0011
0000
,
1100
0000
0001
0000
1010
0000
0100
0001
0010
0000
0101
0000
1000
0000
1001
0000
,
0010
0000
1100
0000
0101
0000
0011
1000
0100
0001
0010
0000
1100
0000
0101
0000
,
1001
0000
0010
0000
0101
0000
1000
1000
0011
0000
0100
0000
1001
0000
0010
0000
,
0101
1000
0100
0000
1010
0000
0100
0000
0001
1100
0010
0000
1001
0000
0010
0000
,
0101
0000
1000
0000
0011
0000
0100
0100
1010
0000
0100
0000
1001
0000
0120
0000
,
1030
0000
0000
0000
0000
0000
0000
0000
0100
0000
0000
0000
0000
0000
0000
0000
0011
0000
0000
0000
0000
0000
0000
0000
0102
0000
0000
0000
0000
0000
0000
0000
1003
0000
0000
0000
1000
0000
0000
0000
0010
0000
0000
0000
0000
0000
0000
0000
2002
3003
0000
0000
0000
0000
0000
0000
0100
0000
0000
0000
0000
0000
0000
0000
,
1010
0000
0100
0000
1100
0000
0011
0001
0100
0000
1001
0000
0110
0000
0000
0000
,
0011
0000
0010
0000
0101
0000
1100
1000
0010
0000
1001
0000
0110
0000
0000
0000
,
1100
0000
0001
0000
0110
0000
0001
0001
1100
0000
0010
0000
0101
0000
0000
0000
,
2001
0000
0000
0000
0011
3000
0200
0000
0001
0010
0001
0300
2011
0000
0100
3000
,
1001
0000
0010
0000
0100
1010
0101
0000
,
1001
0000
0100
0000
0010
0101
1010
0100
,
1002
0000
0013
0000
0100
0011
1010
0100
,
1000
0100
0011
1000
0001
0100
0011
0100
0010
1000
0110
1000
0001
0100
1000
0100
,
2010
0000
0000
0000
0001
0000
3001
0000
0100
0000
0010
0000
1000
0100
0001
0000
0010
0000
0000
0000
0101
0000
1000
0000
0010
0000
0100
0000
0001
0000
0010
0000
,
1001
0000
0100
0100
0011
0000
0100
0000
1001
0000
0010
0000
1100
0000
0001
0000
,
1001
0000
0010
0000
1100
0000
0001
0000
1010
0100
0001
0000
1001
0000
0010
0000
,
0210
0301
1010
0101
2000
3011
0002
1103
,
0010
0000
0000
0000
0000
0000
0000
0000
0000
0000
0000
0000
0000
0000
0000
0000
0000
0000
0000
0000
0000
0000
0000
0000
0100
0000
0000
0000
0000
0000
0000
0000
1000
0000
0000
0000
0000
0000
0000
0000
0010
0000
0000
0000
0000
0000
0000
0000
0202
0000
0000
0000
0000
0000
0000
0000
0000
0000
0000
0000
0000
0000
0000
0000
0000
0000
0000
0000
0000
0000
0000
0000
0303
0000
0000
0000
0000
0000
0000
0000
0000
0000
0000
0000
0000
0000
0000
0000
0000
0000
0000
0000
0000
0000
0000
0000
1001
0000
0000
0000
0000
0000
0000
0000
0000
0000
0000
0000
0100
0000
0000
0000
0000
0000
0000
0000
0000
0000
0000
0000
1001
0000
0000
0000
0000
0000
0000
0000
0000
0000
0000
0000
0000
0000
0000
0000
0000
0000
0000
0000
0000
0000
0000
0000
0010
0000
0000
0000
0000
0000
0100
0000
0000
0000
0000
0000
1000
0000
0000
0000
0000
0000
0001
0000
0000
0000
0000
0000
0020
0000
0000
0000
0000
0000
0000
0000
0000
0000
0000
0000
0030
0000
0000
0000
0000
0000
0000
0000
0000
0000
0000
0000
,
0101
0000
1000
1000
0010
0000
0100
0100
1001
0000
0010
0000
1100
0000
0011
0000
,
1001
0000
0100
0100
0010
0000
0100
0000
1001
0100
0010
0001
1000
0010
0100
0000
,
1001
0010
0001
0010
1001
0100
0010
1000
0010
0100
0001
0010
0101
1000
0010
0100
,
2001
0100
0010
0001
0100
3001
0120
0000
1000
0001
0130
0000
1001
0001
1100
0000
,
0110
0001
1000
0001
0100
0010
1000
0001
0101
1000
0010
1000
0011
0100
0001
1000
,
0101
0010
0100
0010
1001
0100
0001
0010
0101
1010
0100
0010
1001
1000
0100
0000
,
2010
3002
1203
0310
1100
0001
1010
0100
,
0110
0000
0001
0010
1001
0100
0010
1000
0101
0011
1000
0100
1001
0010
0100
1000
,
0011
0000
0100
0100
1010
0000
0100
0100
1001
0000
0120
0000
1030
0000
0012
0000
,
0103
1000
0100
0001
1010
0100
0010
0001
0110
1001
0100
0010
1001
0100
1000
0010
,
1001
0000
0100
0000
0101
0000
1100
0010
0001
0100
0011
0000
0110
0000
2001
0000
,
3010
0000
0101
0001
1000
0000
0101
0001
0010
1000
0100
0010
1001
0100
0010
0001
,
1002
0100
1000
0010
0100
1000
0010
0103
0001
1000
0110
0000
0001
0000
2102
0000
,
0000
0000
3003
1021
0100
0031
2000
3100
,
1011
1000
0001
1000
0020
0100
1030
0000
,
1101
1000
0001
1000
0020
0100
0031
0100
,
1001
0000
0010
0000
1010
0000
0100
0000
1100
1000
0010
0000
1010
0000
0100
0000
,
0022
0033
0000
0000
0202
0303
0000
0000
2200
3300
0000
0000
2020
3030
0000
0000
,
1002
0000
0100
0100
0010
0000
0100
0103
1020
0000
0100
0100
0001
0000
0100
0130
,
2001
0000
0010
0010
0100
0000
0010
3010
0201
0010
1000
0000
1001
0000
0010
0300
,
0002
0000
1000
1003
0020
0000
1000
1030
0200
0000
1000
1300
0010
0000
0100
0100
,
2012
3003
0000
0000
0000
0000
0000
0000
0010
0000
0000
0000
0000
0000
0000
0000
0100
0000
0000
0000
0000
0000
0000
0000
2012
3003
0000
0000
0000
0000
0000
0000
0100
0000
0000
0000
0000
0000
0000
0000
0000
0000
0000
0000
0010
0000
0000
0000
1001
0000
0000
0000
0000
0000
0000
0000
0100
0000
0000
0000
0000
0000
0000
0000
,
2102
3003
0000
0000
0000
0000
0000
0000
1000
0000
0000
0000
0000
0000
0000
0000
0001
0000
0000
0000
0000
0000
0000
0000
2102
3003
0000
0000
0000
0000
0000
0000
0010
0000
0000
0000
0000
0000
0000
0000
0100
0000
0000
0000
0002
0000
0000
0000
1000
0000
0000
0000
0000
0000
0000
0000
0010
0000
0000
0000
0003
0000
0000
0000
,
2220
0330
0000
0000
0000
0000
0000
0000
0000
0000
0000
0000
0000
0000
0000
0000
0001
0000
0000
0000
0000
0000
0000
0000
0100
0000
0000
0000
0000
0000
0000
0000
0010
0000
0000
0000
0000
0000
0000
0000
0001
0000
0000
0000
0000
0000
0000
0000
0010
0000
0000
0000
0100
0000
0000
0000
0000
0000
0000
0000
0100
0000
0000
0000
,
0010
0000
0100
0000
0001
0010
0000
0010
0001
0000
0100
0000
0010
0001
0000
0001
,
3010
0000
0001
0000
1000
0010
0000
0010
1000
0000
0100
0000
0001
0010
0000
0010
,
0001
0000
0100
0000
1000
0010
0000
0010
1000
0000
0100
0000
0001
0010
0000
0010
,
0002
0003
0000
0000
;

//---------------dance-single - ----------------
#NOTES:
     dance-single:
     :
     Medium:
     6:
     0.505,0.507,0.508,0.373,0.000,313.000,60.000,44.000,0.000,0.000:
0000
0000
0000
0000
,
0000
0000
0000
0000
,
0102
1003
2100
3010
,
0210
0301
2001
3100
,
0011
0110
1100
1010
,
0110
1001
0110
1001
,
2100
3001
0102
1003
,
2010
3001
0012
0103
,
1010
1100
0101
0011
,
1001
0000
0000
1010
0000
0000
0020
0000
,
1030
0000
0001
0100
0010
1000
0010
0100
,
0001
0000
1000
0100
0010
0001
0010
0100
,
1000
0000
0001
0010
0000
0001
0100
0002
,
0000
0103
2000
0000
3001
0100
0001
0010
,
0100
0000
1000
0010
0001
0010
1000
0100
,
0010
0000
0001
0100
1000
0100
0001
0010
,
0100
0000
1000
0001
0000
0100
0010
1000
,
0001
0001
0100
0001
1000
1000
0010
1000
,
0100
0000
0110
0000
0100
1000
1100
0000
,
0010
0000
0110
0000
0100
0001
0101
0000
,
0010
0000
1100
0000
0010
0100
0101
0000
,
1000
0001
0100
0010
1000
0100
0010
0001
,
1000
0000
1001
0000
0100
0010
1010
0000
,
0001
0000
1001
0000
0100
0010
0011
0000
,
0100
1000
0001
0100
0001
1000
0010
0100
,
0001
0010
0100
2000
0000
3001
0200
0300
,
0110
0000
1001
0000
1000
0100
1000
0000
,
1001
0000
0101
0000
1000
0010
0100
0000
,
1001
0000
0110
0000
0001
0010
0001
0000
,
2100
0000
3000
0020
0000
0030
0200
0300
,
1001
0000
0001
0010
0001
0010
0100
0000
,
1100
0000
1000
0010
1000
0010
0100
0000
,
1001
0000
0100
0000
1001
0010
0100
0100
,
0000
1000
0100
1000
0001
0010
0001
0010
,
0200
0000
0000
0000
0000
0000
0000
0300
,
1000
0001
1000
0001
0100
0001
0100
0001
,
1000
0010
0100
0010
1000
0000
1000
0000
,
0001
0100
0001
0100
0001
1000
0001
1000
,
0010
0100
0010
0000
1000
0001
0100
0000
,
0001
0010
0001
0010
0100
1000
0100
1000
,
0001
1000
0001
1000
0100
1000
0010
0100
,
0002
0000
0100
0003
2000
0000
0100
3000
,
0220
0000
0330
0220
0000
0330
1000
0001
,
0100
0001
0100
0001
1000
0001
1000
0001
,
1000
0010
0100
0010
1000
0100
0010
0000
,
0001
0000
0100
1000
0000
0010
0000
1001
,
0000
0100
0010
1000
0010
0100
0001
0010
,
0100
0000
1000
0000
0001
0100
0000
0110
,
0000
1000
0001
0100
0001
1000
0100
0000
,
0200
1300
0020
0130
,
0002
0000
1003
0000
0010
0100
0010
0000
,
1100
0000
0101
0000
1000
0010
0100
0002
,
0000
0000
0003
2000
0000
0000
3000
0000
,
0120
0000
1030
0000
,
0210
0000
0301
0000
,
2001
3200
0320
0032
,
1003
0001
0100
0010
,
2100
3001
0102
1003
,
0210
0301
0021
0130
,
1002
0203
0320
2030
,
3001
0000
0000
0101
0000
0000
0000
0000
,
1000
0000
0000
1100
1000
0000
0001
0000
,
0220
0000
0000
0000
,
0330
0000
0000
0000
;
