#TITLE:Reach for the Stars;
#SUBTITLE:Sonic Colors;
#ARTIST:Jean Paul Makhlouf;
#TITLETRANSLIT:;
#SUBTITLETRANSLIT:;
#ARTISTTRANSLIT:;
#CREDIT:Owem;
#BANNER:../banner.png;
#BACKGROUND:../bg.png;
#LYRICSPATH:;
#CDTITLE:../cdtitleowem.png;
#MUSIC:Jean Paul Makhlouf - Reach for the Stars - Sonic Colors.ogg;
#OFFSET:-0.373;
#SAMPLESTART:128.035;
#SAMPLELENGTH:29.999;
#SELECTABLE:YES;
#BPMS:0.000=203.002;
#STOPS:;
#BGCHANGES:;
// cache tags:
#FIRSTBEAT:0.000;
#LASTBEAT:816.750;
#SONGFILENAME:Songs/Owem's Simfiles 08 (not release)/Reach for the Stars - [Owem]/Reach for the Stars.sm;
#HASMUSIC:1;
#HASBANNER:1;
#MUSICLENGTH:247.640;
// end cache tags

//---------------dance-single - 11/23/7-12/7-23/7-12----------------
#NOTES:
     dance-single:
     11/23/7-12/7-23/7-12:
     Challenge:
     18:
     1.000,1.000,0.166,0.323,1.000,2797.000,41.000,80.000,5.000,1.000:

1000
0100
0010
0001
0100
0010
1000
0001
0100
0001
1000
0100
0010
0100
1000
0001
,
0100
0001
1000
0010
0100
0001
0100
0010
1000
0001
0100
0001
0010
0100
1000
0001
,
0010
0001
0100
0010
1000
0001
0100
0010
1000
0001
0100
0001
1000
0100
1000
0010
,
0100
0001
1000
0100
0010
0001
1000
0100
1000
0001
0100
0010
1000
0001
0100
0001
,
0010
0100
1000
0001
0010
0001
1000
0100
0010
0001
0100
0001
1000
0100
0010
0001
,
1000
0010
1000
0001
0100
0010
1000
0010
0100
0001
1000
0100
1000
0001
1000
0010
,
0100
0001
0100
0010
1000
0001
0010
0001
0100
0010
1000
0001
0100
0010
1000
0001
,
0100
0001
0010
0100
1000
0100
0010
0001
1000
0100
1000
0001
1000
0010
0100
0001
,
1000
0100
0010
0001
0100
0001
1000
0100
0010
0100
1000
0001
0010
0001
0100
0010
,
1000
0001
0100
0010
0100
0001
1000
0100
1000
0001
0010
0001
0100
0010
1000
0001
,
0100
0001
1000
0100
0010
0001
0100
0001
0010
0100
1000
0001
0100
0000
M1M2
0000
,
0000
0000
1003
0200
0000
0310
0001
2000
,
3010
0100
0001
0100
0010
1000
0001
0100
0001
1000
0100
0010
0100
1000
0001
0010
,
0001
0100
0010
1000
0001
0100
0001
1000
0100
0010
0001
1000
0100
1000
0010
0100
,
0001
0100
0010
1000
0001
1000
0100
0010
0100
1000
0001
0010
0001
0100
0010
1000
,
0001
0100
0001
0010
0100
1000
0001
1000
0010
0100
0001
1000
0100
1000
0010
0100
,
0001
0100
0010
1000
0001
1000
0100
0010
0100
1000
0001
0010
0001
1000
0100
1000
,
0001
0100
0001
1000
0010
0100
0001
1000
0001
0100
0010
1000
0100
1000
0001
0010
,
0100
1000
0001
0100
0010
1000
0100
1000
0001
0010
0100
1000
0001
0100
0001
1000
,
0100
1000
0010
0100
0001
1000
0001
0010
0100
1000
0001
0100
0010
1000
0010
1000
,
0001
0100
0010
1000
0001
0100
0010
0100
0001
1000
0010
1000
0100
0010
0001
1000
,
0100
1000
0010
0100
0001
1000
0100
1000
0001
0010
0001
0100
0010
1000
0001
0100
,
0001
1000
0010
1000
0001
1000
0100
0010
0001
0100
0001
1000
0100
1000
0010
0100
,
0001
1000
0001
0100
0010
1000
0001
0010
0100
1000
0001
0010
0001
1000
0100
1000
,
0001
0100
0010
1000
0010
0100
0001
1000
0010
1000
0001
0100
0010
1000
0010
0100
,
0001
1000
0100
1000
0001
0010
0001
0100
0010
0100
0001
1000
0010
1000
0100
0010
,
0001
1000
0100
1000
0001
0100
0010
1000
0010
0100
0001
1000
0100
1000
0001
0100
,
0010
1000
0010
0100
0001
1000
0010
0100
0010
1000
0001
0100
0001
0100
0010
1000
,
0001
0100
0010
1000
0010
0100
0001
1000
0100
1000
0010
0100
0001
1000
0001
0100
,
0010
1000
0001
0100
0001
1000
0100
0010
0001
1000
0100
1000
0010
0100
0010
1000
,
0001
0100
0010
1000
0001
0100
0001
1000
0100
1000
0001
0010
0100
1000
0001
0010
,
0001
0100
0010
1000
0001
0100
0001
1000
0100
0010
0001
1000
0100
1000
0001
0100
,
0010
1000
0001
0100
0010
1000
0100
1000
0001
0100
0010
1000
0001
0100
0001
1000
,
0100
0010
0100
1000
0001
0100
0001
1000
0100
1000
0010
0100
0001
1000
0100
0010
,
0001
1000
0100
1000
0001
0100
0010
1000
0100
1000
0001
0010
0100
1000
0001
1000
,
0020
0000
0000
0000
0000
0000
0000
0030
0200
0000
0000
0000
0000
0000
0300
0000
,
0002
0000
1003
0010
0110
0000
0200
0301
,
1001
2000
0000
3020
0130
0001
0201
0000
,
0320
0000
1030
0001
1001
0000
1000
0100
,
0110
0020
0031
0100
0001
1000
1020
0000
,
0230
0000
0000
0000
0302
0000
1003
0000
1020
0000
0000
0030
0100
0000
0001
0000
,
0102
0000
0103
0000
0010
0000
1000
0000
0002
0000
0000
0003
0010
0000
0200
0000
,
2300
0000
3010
0100
0102
0000
1003
0010
,
0200
0000
0001
0000
0000
0000
0001
0000
0300
0000
0010
0000
0100
0001
0100
0001
,
1000
0100
0010
0100
1000
0001
0100
0001
1000
0010
0100
0001
0010
0001
1000
0100
,
1000
0001
0100
0010
1000
0001
0100
0010
0100
0001
1000
0100
0010
0100
1000
0001
,
0010
0100
1000
0001
1000
0100
0010
0001
1000
0100
1000
0001
0100
0010
1000
0001
,
0100
0001
1000
0100
1000
0010
0100
0001
1000
0010
1000
0001
0100
0010
1000
0001
,
0010
0001
0100
0010
1000
0001
0100
0010
1000
0001
1000
0100
0010
0001
1000
0100
,
1000
0001
0100
0001
1000
0010
0100
0010
1000
0001
0100
0001
0010
0100
1000
0001
,
0010
0001
0100
0010
1000
0001
0100
0001
0100
0010
1000
0100
1000
0001
0020
0000
,
0000
0000
0130
0000
2000
0000
3002
0000
0000
0000
0103
0000
0010
1000
0010
1000
,
0001
0100
0010
1000
0100
1000
0001
0100
0010
1000
0001
0100
0001
1000
0100
0010
,
0001
1000
0100
1000
0010
0100
0001
1000
0001
0100
0010
1000
0001
0100
0001
0010
,
0100
1000
0001
0010
0001
1000
0100
1000
0001
0100
0010
1000
0001
0100
0010
0100
,
0001
1000
0010
1000
0100
0010
0001
1000
0100
1000
0001
0100
0010
1000
0001
0100
,
0001
1000
0100
1000
0001
0010
0001
1000
0010
0100
0001
1000
0001
0100
0010
1000
,
0001
0100
0001
1000
0100
0010
0001
1000
0100
1000
0010
0100
0001
1000
0100
1000
,
0001
0100
0010
1000
0001
0100
0010
1000
0100
1000
0001
0100
0010
1000
0100
1000
,
0001
0100
0001
1000
0100
0010
0001
1000
0100
1000
0010
0100
0001
1000
0001
1000
,
0100
0010
0001
1000
0100
1000
0010
0100
0001
1000
0100
1000
0001
0100
0010
1000
,
0001
0100
0001
1000
0010
1000
0100
0010
0001
1000
0100
1000
0001
0100
0010
1000
,
0001
0100
0001
1000
0001
0100
0010
0100
0001
1000
0100
1000
0010
0100
0010
1000
,
0001
0100
0010
1000
0001
0010
0100
1000
0001
0010
0001
0100
0010
1000
0001
1000
,
0100
0010
0001
0100
0110
0010
1000
0001
,
0101
0100
0010
1000
0100
0010
0012
0000
,
2003
0000
3010
0100
0001
1000
0001
0020
,
0000
0000
0000
0000
0000
0000
0000
0000
0230
0000
0000
0000
1300
0001
1000
0001
,
0010
0100
1000
0100
0010
0001
1000
0001
0010
0100
1000
0100
0010
0001
1000
0001
,
0100
0001
1000
0010
1000
0001
0100
0001
1000
0100
1000
0010
1000
0001
1000
0001
,
0100
0010
0100
0001
1000
0001
0100
0010
1000
0001
0100
0001
1000
0100
0010
0001
,
0010
0100
1000
0001
1000
0100
0010
0001
1000
0100
1000
0001
0100
0010
1000
0010
,
0100
0001
0100
0010
1000
0001
1000
0100
0010
0001
0010
0100
1000
0001
1000
0001
,
0100
0010
0100
0010
1000
0001
1000
0100
1000
0001
0010
0001
0100
0001
1000
0010
,
1000
0100
0010
0001
1000
0100
1000
0001
0100
0010
1000
0010
0100
0001
1000
0100
,
0010
0001
0100
0001
1000
0010
0100
0001
,
1000
0100
0010
0001
1000
0100
1000
0001
0100
0010
1000
0001
0100
0001
0100
0010
,
1000
0001
0100
0010
0100
0001
1000
0100
1000
0001
0010
0001
1000
0100
0010
0001
,
1000
0100
1000
0001
0100
0010
0100
0001
1000
0010
1000
0001
1000
0100
0010
0001
,
1000
0100
1000
0001
0100
0010
1000
0001
0100
0010
0100
0001
1000
0100
0010
0001
,
1000
0100
1000
0001
0100
0010
1000
0001
0010
0100
1000
0001
0010
0001
1000
0100
,
1000
0001
0100
0010
1000
0001
0100
0010
1000
0001
0100
0001
1000
0100
1000
0001
,
0100
0010
1000
0001
0100
0001
1000
0100
0010
0100
1000
0001
0100
0001
1000
0100
,
1000
0010
0100
0001
1000
0100
1000
0001
0100
0010
0100
0001
1000
0010
1000
0010
,
0100
0001
1000
0100
1000
0010
0100
0001
1000
0100
1000
0001
0010
0100
1000
0001
,
0010
0001
1000
0100
1000
0001
0100
0010
1000
0001
0100
0010
1000
0010
0100
0001
,
1000
0100
1000
0001
0100
0010
0100
0001
1000
0100
1000
0001
0010
0100
1000
0001
,
0010
0001
1000
0100
0010
0100
1000
0001
0100
0001
1000
0010
0100
0001
0100
0010
,
1000
0001
1000
0100
0010
0100
1000
0001
0100
0001
1000
0100
1000
0001
0100
0010
,
1000
0001
0100
0001
0010
0100
1000
0001
0010
0001
0100
0010
1000
0001
0100
0010
,
0100
0001
1000
0010
1000
0001
1000
0100
0010
0001
1000
0100
1000
0001
0100
0010
,
0100
0001
1000
0100
1000
0001
0100
0010
0100
0001
1000
0010
1000
0010
0100
0001
,
1000
0100
1000
0001
0100
0010
1000
0001
0100
0010
0100
0001
1000
0100
1000
0001
,
0010
0100
1000
0001
1000
0100
0010
0001
1000
0100
1000
0010
0100
0001
0100
0010
,
1000
0001
1000
0100
0010
0001
1000
0100
1000
0010
0100
0001
0100
0010
1000
0100
,
1000
0001
0010
0001
1000
0100
0010
0001
1000
0100
1000
0001
0100
0010
1000
0001
,
0100
0001
0010
0100
1000
0001
0010
0001
0100
0010
1000
0001
0100
0010
0100
0001
,
1000
0100
0010
0100
1000
0001
0010
0100
1000
0001
0100
0001
1000
0010
0100
0001
,
0100
0010
1000
0001
0010
0001
1000
0100
1000
0001
0010
0100
1000
0001
0010
0001
,
0200
0000
0000
0000
0000
0000
0000
0300
0020
0000
0000
0000
0000
0000
0030
0000
,
2M1M
0000
3001
0100
0110
0000
0010
1000
,
1010
0010
0000
0200
0301
1000
0100
0000
,
0120
0000
0031
0100
0101
0000
0001
0010
,
0110
0200
0000
1300
0001
1000
0020
0000
,
0132
0000
1003
0100
0120
0000
0031
1000
,
0002
0000
0103
0000
0010
0000
1000
0000
0020
0000
0130
0000
0002
0000
2003
3000
,
1020
0000
0130
0001
2001
0000
3100
0020
,
0032
0000
0100
0000
0000
0000
0100
0000
0003
0000
0100
0000
0010
1000
0010
1000
,
0100
0010
0001
1000
0001
0100
0010
1000
0001
0100
0001
1000
0100
0010
0001
1000
,
0100
1000
0010
1000
0001
0100
0010
1000
0001
0100
0010
1000
0001
0100
0001
1000
,
0100
0010
0100
1000
0001
0010
0001
1000
0100
1000
0001
0100
0010
1000
0001
0100
,
0001
1000
0100
0010
0100
1000
0001
0010
0001
1000
0100
1000
0001
0100
0010
1000
,
0010
0100
0001
1000
0100
1000
0001
0100
0010
1000
0001
0100
0001
0010
0100
1000
,
0001
0010
0001
1000
0100
1000
0010
0100
0001
1000
0100
1000
0001
0100
0010
1000
,
0001
0100
0001
1000
0100
1000
0010
0100
0001
1000
0100
0010
0001
1000
0020
0000
,
0000
0000
0130
0000
0001
0000
2000
0000
0000
0000
3010
0000
0100
0001
0100
0001
,
1000
0100
0010
0001
1000
0100
1000
0010
0100
0001
1000
0100
1000
0010
0100
0001
,
0100
0010
1000
0001
1000
0100
0010
0100
1000
0001
0010
0001
1000
0001
0100
0010
,
0100
0001
0100
0010
1000
0001
1000
0100
0010
0001
0100
0001
1000
0010
1000
0001
,
0100
0010
0100
0001
1000
0100
1000
0001
1000
0100
0010
0100
1000
0001
0010
0001
,
0100
0001
1000
0010
0100
0001
1000
0001
0010
0100
1000
0001
0010
0001
0100
0010
,
1000
0001
0100
0001
1000
0100
1000
0010
0100
0001
1000
0100
1000
0001
0100
0010
,
1000
0001
0100
0010
0100
0001
1000
0010
0100
0001
1000
0100
1000
0001
0010
0001
,
0100
0010
1000
0001
1000
0100
0010
0001
1000
0010
0100
0010
1000
0001
1000
0001
,
0010
0100
1000
0001
1000
0100
0010
0001
1000
0100
1000
0010
0100
0001
1000
0001
,
0100
0010
0100
0001
1000
0100
1000
0010
0100
0001
1000
0001
0010
0100
1000
0001
,
0010
0001
0100
0010
1000
0001
0100
0001
1000
0100
1000
0010
0100
0001
1000
0100
,
1000
0010
0100
0001
0100
0010
1000
0001
0100
0001
0010
0100
1000
0001
1000
0010
,
0200
0000
0310
1000
1010
0010
0100
0001
,
0101
0100
0010
1000
0100
0010
0012
0000
,
2003
0000
3010
0100
0001
1000
0001
0020
,
0000
0000
0000
0000
0000
0000
0000
0000
0230
0000
0000
0000
1300
0001
1000
0001
,
0010
0100
1000
0100
0010
0001
1000
0001
0010
0100
1000
0100
0010
0001
1000
0001
,
0100
0001
1000
0010
1000
0001
0100
0001
1000
0100
1000
0010
0100
0001
1000
0001
,
0100
0010
0100
0001
1000
0001
0100
0010
1000
0001
0100
0001
1000
0100
0010
0001
,
0010
0100
1000
0001
1000
0100
0010
0001
1000
0100
1000
0001
0100
0010
1000
0010
,
0100
0001
0100
0010
1000
0001
1000
0100
0010
0001
0010
0100
1000
0001
0010
0001
,
0100
0001
0010
0100
1000
0001
0010
0100
1000
0001
0010
0001
0100
0001
1000
0010
,
1000
0100
0010
0001
1000
0100
1000
0001
0100
0010
1000
0010
0100
0001
1000
0100
,
0010
0001
0100
0010
1000
0010
0100
0001
1000
0100
0010
0100
1000
0001
1000
0001
,
0100
0010
1000
0001
0100
0001
1000
0100
0010
0001
0100
0001
1000
0100
1000
0010
,
0100
0001
1000
0100
1000
0001
0010
0001
0100
0010
1000
0001
0100
0010
0100
0001
,
1000
0010
1000
0100
0010
0001
1000
0100
1000
0001
0100
0010
1000
0001
0010
0001
,
0100
0010
1000
0001
0100
0001
1000
0100
0010
0100
1000
0001
0010
0001
1000
0100
,
1000
0001
0100
0010
1000
0001
0100
0010
0100
0001
1000
0100
1000
0010
0100
0001
,
0100
0010
1000
0001
0010
0001
0100
0010
1000
0001
0100
0001
1000
0100
0010
0001
,
0100
0010
1000
0001
0100
0001
1000
0100
0010
0100
1000
0001
0010
0001
1000
0010
,
1000
0001
0100
0010
0100
0001
1000
0100
1000
0001
1000
0010
0100
0001
0100
0010
,
1000
0001
0100
0001
0010
0100
1000
0001
0010
0001
0100
0010
0100
0001
1000
0010
,
1000
0100
0010
0001
1000
0100
1000
0001
0100
0010
1000
0001
0100
0001
1000
0100
,
0010
0001
0100
0001
1000
0100
0010
0001
0010
0100
1000
0001
1000
0100
0010
0001
,
1000
0100
1000
0001
0100
0010
0100
0001
1000
0100
1000
0010
0100
0001
1000
0001
,
0100
0010
0100
0001
1000
0100
0010
0001
1000
0100
1000
0001
0010
0001
0100
0010
,
1000
0001
0100
0010
0100
0001
1000
0010
1000
0001
0100
0001
0010
0100
1000
0001
,
0010
0001
0100
0010
1000
0010
0100
0001
1000
0010
1000
0001
0100
0010
1000
0001
,
0200
0000
0000
0000
0000
0000
0000
0000
0000
0000
0000
0000
0310
1000
0010
1000
,
0100
0010
0001
1000
0100
1000
0001
0100
0010
1000
0010
0100
0001
1000
0100
1000
,
0001
0010
0001
0100
0010
1000
0001
0100
0001
1000
0100
0010
0100
1000
0001
0010
,
0001
1000
0100
1000
0001
0100
0010
1000
0001
0100
0010
1000
0100
1000
0001
0010
,
0001
1000
0100
1000
0010
0100
0001
1000
0001
0100
0010
1000
0001
0100
0001
1000
,
0100
0010
0001
1000
0100
1000
0010
0100
0001
1000
0100
1000
0001
0010
0001
0100
,
0010
1000
0001
0100
0010
0100
0001
1000
0010
1000
0100
0010
0001
1000
0100
1000
,
0010
0100
0001
1000
0100
1000
0001
0010
0100
1000
0001
0100
0010
0000
2010
0000
,
0000
0000
3001
0000
0100
0000
0020
0000
0000
0000
0130
0000
0001
1000
0001
1000
,
0100
0010
0001
1000
0100
1000
0001
0100
0010
1000
0100
1000
0001
0010
0001
1000
,
0100
0010
0100
1000
0001
0100
0001
1000
0010
0100
0001
1000
0010
1000
0001
0100
,
0010
1000
0100
1000
0001
1000
0100
0010
0100
1000
0001
0010
0001
1000
0001
0100
,
0010
1000
0001
0100
0010
0100
0001
1000
0100
1000
0001
0100
0001
1000
0010
0100
,
0001
1000
0001
0100
0010
1000
0100
1000
0001
0010
0100
1000
0001
1000
0100
0010
,
0100
1000
0001
0100
0010
1000
0001
0100
0001
1000
0100
0010
0001
1000
0100
1000
,
0010
1000
0001
0100
0010
0100
0001
1000
0010
1000
0100
0010
0001
1000
0100
1000
,
0010
0100
0001
1000
0100
1000
0001
0010
0100
1000
0001
1000
0010
0100
0010
0100
,
0001
1000
0010
1000
0100
0010
0001
1000
0100
1000
0010
0100
0001
1000
0100
1000
,
0010
0100
0001
1000
0010
1000
0001
1000
0100
0010
0001
1000
0010
1000
0001
0010
,
0001
1000
0100
0010
0100
1000
0001
0100
0001
1000
0010
0100
0001
1000
0010
1000
,
0100
0010
0001
1000
0100
1000
0010
0100
0001
1000
0010
0100
0001
1000
0001
0010
,
0200
0000
1300
0001
1001
1000
0010
0100
,
0101
0000
0001
0000
1000
0000
0100
0000
0010
0000
0001
0000
0201
0000
0000
0300
,
0120
0000
1030
0001
0101
0100
0010
2010
,
0000
0000
3001
0000
0010
0000
0210
0000
0000
0000
1300
0000
0001
0100
0001
0100
,
0010
1000
0100
1000
0001
0010
0001
1000
0100
0010
0001
1000
0100
1000
0001
0100
,
0010
1000
0100
1000
0001
0010
0001
1000
0100
0010
0001
1000
0100
1000
0010
0100
,
0001
1000
0100
1000
0001
0100
0010
1000
0100
1000
0001
0010
0001
1000
0100
0010
,
0100
1000
0001
0010
0001
1000
0100
1000
0010
0100
0001
1000
0001
0100
0010
1000
,
0001
0100
0001
1000
0100
0010
0001
1000
0100
1000
0001
0100
0010
1000
0001
0010
,
0001
1000
0100
0010
0001
1000
0100
1000
0010
0100
0001
1000
0001
0100
0010
1000
,
0001
0100
0001
1000
0100
0010
0001
1000
0100
1000
0010
0100
0001
1000
0100
1000
,
0001
0010
0001
1000
0100
1000
0010
1000
0001
0100
0010
1000
0001
0100
0001
0100
,
0010
1000
0001
1000
0100
0010
0001
1000
0100
1000
0010
0100
0001
1000
0100
1000
,
0001
0100
0010
1000
0001
0010
0001
1000
0010
1000
0100
0010
0001
1000
0001
0100
,
0010
1000
0001
0100
0001
0010
0100
1000
0010
1000
0001
0100
0010
1000
0010
0100
,
0001
1000
0100
1000
0001
0010
0100
1000
0001
0010
0001
1000
0100
0010
0001
1000
,
0020
0000
0130
0001
1001
2000
3100
0010
,
0011
0001
1000
0010
0100
0010
1000
0001
,
0201
0000
0310
1000
1010
0010
0100
0102
,
0000
0000
0000
0000
0000
0000
0003
0000
2001
0000
0000
0000
3020
0000
0000
0030
,
0110
0100
0001
2000
0000
3100
0010
0002
,
0000
0000
0103
0020
0000
1030
0001
1000
,
0100
0010
0001
2000
0000
3010
0100
0002
,
0000
1003
0100
0020
0000
0031
1000
0001
,
0100
0010
1000
0020
0000
0130
0001
2000
,
0000
3100
0010
0002
0000
0103
0010
1000
,
0100
1000
0001
0200
0000
0310
1000
0020
,
0000
0130
0001
2000
0000
3100
0010
0002
,
0000
0003
0000
000M
0000
0000
0000
0000
0000
0000
0000
0000
0000
0000
0000
0000
;
