#TITLE:Dignity;
#SUBTITLE:;
#ARTIST:Crash;
#TITLETRANSLIT:;
#SUBTITLETRANSLIT:;
#ARTISTTRANSLIT:;
#CREDIT:;
#BANNER:dignity.png;
#BACKGROUND:dignity-bg.png;
#LYRICSPATH:;
#CDTITLE:!moogycdtitle.png;
#MUSIC:Dignity.mp3;
#OFFSET:-0.631;
#SAMPLESTART:31.289;
#SAMPLELENGTH:12.000;
#SELECTABLE:YES;
#BPMS:0.000=195.000;
#STOPS:87.000=0.080
;
#BGCHANGES:;
// cache tags:
#FIRSTBEAT:0.000;
#LASTBEAT:338.000;
#SONGFILENAME:Songs/Community Keyboard Megapack - Volume 1/(Moogy) Dignity/dignity.sm;
#HASMUSIC:1;
#HASBANNER:1;
#MUSICLENGTH:108.486;
// end cache tags

//---------------dance-single - ----------------
#NOTES:
     dance-single:
     :
     Challenge:
     12:
     1.000,1.000,1.000,0.000,0.544,717.000,375.000,0.000,0.000,0.000:  // measure 1
0001
0010
0100
1000
0100
0010
0001
0010
0100
1000
0100
0010
1001
0000
0110
0000
,  // measure 2
0110
0001
0010
0100
1010
0110
0011
0110
,  // measure 3
1100
0101
0110
1000
0011
0110
1001
0011
,  // measure 4
1100
0000
0110
0000
0101
0000
1000
0000
0011
0000
0110
0000
1001
0000
0110
0001
,  // measure 5
0010
0100
1000
0100
0011
0000
0100
0000
1100
0000
0110
0000
0011
0100
1000
0100
,  // measure 6
0010
0100
1000
0100
0010
0001
0010
0100
1000
0001
0010
0100
1010
0000
0101
0000
,  // measure 7
1001
0000
0010
0000
1010
0000
1100
0000
0110
0000
0011
0000
0110
0001
0010
0100
,  // measure 8
1000
0000
0001
0000
0110
0000
1100
0000
0110
0000
0011
0000
0110
1000
0001
1000
,  // measure 9
0001
0000
0010
0000
0110
0000
1100
0000
0110
0000
0101
0000
1001
0010
0100
0010
,  // measure 10
0100
0000
0100
0000
1001
0000
0011
0000
0110
0000
1100
0000
0110
0001
1000
0001
,  // measure 11
0110
0000
0110
0000
0110
0000
0011
0000
0110
0000
1100
0000
1001
0010
0100
1000
,  // measure 12
0011
0000
0011
0000
0011
0000
1100
0000
1010
0000
0110
0000
0101
0010
0100
0010
,  // measure 13
1100
0000
1100
0000
1100
0000
0011
0000
0101
0000
0110
0000
1010
0001
0100
0010
,  // measure 14
1000
0010
0100
0001
0010
0100
1000
0010
0100
0001
0100
0000
1001
0000
0110
0000
,  // measure 15
1001
0110
1001
0110
1001
0000
0011
1100
,  // measure 16
0011
1100
0011
1100
0011
0000
0101
1010
,  // measure 17
0101
1010
0101
1010
0101
0000
1100
0000
,  // measure 18
0110
0000
0110
0000
0011
0000
0011
0000
1100
0000
0000
0000
0110
0000
0001
0100
,  // measure 19
0011
0000
0100
0000
1000
0000
0011
0000
1001
0000
0000
0000
0110
0000
1000
0010
,  // measure 20
0101
0000
0010
0000
0001
0000
1001
0000
1001
0000
0000
0000
1100
0000
1000
0010
,  // measure 21
1100
0000
0010
0000
0001
0000
1100
0000
0011
0000
0000
0000
0011
0100
1000
0100
,  // measure 22
1000
0100
1000
0100
1000
0100
1000
0100
1000
0100
1000
0100
1001
0000
0000
0000
,  // measure 23
0000
0000
0000
0010
0000
1001
0000
0000
,  // measure 24
0000
0000
0000
0100
0000
1001
0000
0000
,  // measure 25
0000
0000
0000
0010
0000
1000
0100
0010
,  // measure 26
0001
0010
0100
0010
0100
1100
0010
1010
,  // measure 27
0100
0101
0010
0110
0010
0101
0010
0110
,  // measure 28
1000
0110
0001
0110
0001
0011
1000
0110
,  // measure 29
0010
0101
0010
1100
0010
0110
0001
0110
,  // measure 30
0100
0000
0011
0000
1100
0010
0001
0010
0100
1000
0110
0000
0011
0000
0000
0000
,  // measure 31
1100
0110
0000
1001
0110
0000
0000
0000
,  // measure 32
0000
0000
0000
0000
0000
0110
1001
0000
,  // measure 33
0110
0011
0000
0110
1001
1000
0100
0010
,  // measure 34
0001
0010
0100
1000
0100
0011
0100
1100
,  // measure 35
0100
0110
0010
0011
0010
0110
0000
0000
,  // measure 36
1001
0000
0000
0010
0000
0110
1000
0110
,  // measure 37
0001
0110
1000
0110
0001
0110
1000
0110
,  // measure 38
0001
0110
1000
0110
0001
0100
1000
0100
,  // measure 39
0010
0101
0010
1100
0010
1001
0000
0000
,  // measure 40
1001
0000
0000
0100
0000
0010
0100
1000
,  // measure 41
0100
0010
0001
0010
0100
1000
0100
0010
,  // measure 42
0001
0010
0100
1000
0001
0110
1000
0110
,  // measure 43
0010
0101
0100
1100
0001
1001
0000
0000
,  // measure 44
1001
0000
0000
0010
0000
1000
0001
0100
,  // measure 45
0010
1000
0001
0100
0001
1000
0010
0100
,  // measure 46
0001
0010
0100
1000
0100
0011
0110
0000
,  // measure 47
0011
0110
0000
1001
0110
0000
0110
1100
,  // measure 48
0000
0101
1010
0101
0110
1100
0011
0000
,  // measure 49
0110
1100
0000
0110
0011
0000
0101
1001
,  // measure 50
0110
0100
0001
0100
0010
1010
0000
0000
,  // measure 51
1001
0000
0000
0010
0000
0000
1001
0000
,  // measure 52
0000
0010
0100
1000
0100
0011
0000
0000
,  // measure 53
1001
0000
0000
0100
0000
0000
1001
0000
,  // measure 54
0000
0000
0001
0000
0100
0000
1000
0000
0100
0000
0011
0100
1000
0001
0010
0100
,  // measure 55
1000
0100
0010
1000
0100
0010
0001
0100
0001
0010
0100
1000
0001
1000
0100
0010
,  // measure 56
0001
0100
0001
0010
0100
1000
0010
0001
0100
0010
1000
0100
0010
0001
1000
0001
,  // measure 57
0010
0100
1000
0010
0100
1000
0001
0100
0010
1000
0011
0000
0110
0000
1100
0000
,  // measure 58
0110
0011
0011
0110
1100
0011
1100
0110
,  // measure 59
0011
1100
0011
1010
0101
0110
1001
0011
,  // measure 60
0110
1100
0110
1001
0011
0110
1100
0101
,  // measure 61
1010
0110
1001
0110
1100
0011
0110
0011
,  // measure 62
1100
0110
0101
0110
1010
1001
0110
1001
,  // measure 63
0110
0011
1100
0110
1001
0011
0110
1100
,  // measure 64
0110
0011
0110
1100
0011
1100
0011
1010
,  // measure 65
0101
1010
0101
0110
1001
0110
1001
0011
,  // measure 66
0110
1100
1100
0110
0011
0011
0110
1100
,  // measure 67
0110
0101
0011
1010
1100
0110
1001
0011
,  // measure 68
0101
0110
1010
1100
1100
1010
0110
0101
,  // measure 69
0011
0011
0110
1100
1100
0110
0011
0110
,  // measure 70
1001
0110
0011
1010
1100
0101
0110
1001
,  // measure 71
1100
0110
0011
1001
0011
0110
1100
1001
,  // measure 72
0110
0011
1100
0110
1100
0011
0110
1001
,  // measure 73
0011
0000
1100
0000
1010
0000
0101
0000
0110
0000
1001
0010
0100
0010
0100
0010
,  // measure 74
0100
0010
0100
0010
0100
0010
0100
0010
0100
0010
1001
0001
1000
0001
1000
0001
,  // measure 75
1000
0001
1000
0001
1100
0001
0010
0100
1000
0001
0110
0000
1100
0000
0110
0000
,  // measure 76
0011
0000
0110
0000
1100
0000
0110
0000
0011
0000
0110
1000
0001
1000
0110
0000
,  // measure 77
0011
0000
0110
0000
1100
0000
0110
0000
0011
0000
0110
1000
0001
1000
0110
0000
,  // measure 78
0011
0000
0110
0000
1100
0000
0110
0000
0011
0000
1100
0001
0010
0100
1000
0100
,  // measure 79
0010
0001
0010
0100
1000
0100
0010
0001
0010
0100
1000
0000
1001
0000
0110
0000
,  // measure 80
0011
0000
0110
0000
1100
0000
0110
0000
1001
0000
0110
0001
0010
0100
0011
0000
,  // measure 81
1100
0000
0110
0000
0101
0000
0011
0000
0110
0000
1010
0100
0010
0100
1001
0000
,  // measure 82
0110
0000
0011
0000
0101
0000
0110
0000
1010
0000
1000
0100
0010
0001
0010
0100
,  // measure 83
1000
0100
0010
0001
0010
0100
1010
0000
0101
0000
0001
0010
0100
1000
0100
0010
,  // measure 84
0001
0010
0100
1000
0100
0010
0001
0000
0000
0000
0110
0000
1001
0000
0000
0000
,  // measure 85
0110
1001
0000
0110
0110
0000
0000
0000
;
