#TITLE:Complecks Baby;
#SUBTITLE:;
#ARTIST:DJ Sharpnel;
#TITLETRANSLIT:;
#SUBTITLETRANSLIT:;
#ARTISTTRANSLIT:;
#CREDIT:Renard;
#BANNER:complecks.png;
#BACKGROUND:complecksBG.png;
#LYRICSPATH:;
#CDTITLE:;
#MUSIC:Complecks Baby.ogg;
#OFFSET:0.000;
#SAMPLESTART:26.905;
#SAMPLELENGTH:12.000;
#SELECTABLE:YES;
#BPMS:0.000=191.200;
#STOPS:;
#BGCHANGES:;
// cache tags:
#FIRSTBEAT:20.000;
#LASTBEAT:304.000;
#SONGFILENAME:Songs/Rodd's Revival/Complecks Baby (Rodd Steps)/Complecks Baby (Rodd Steps).sm;
#HASMUSIC:1;
#HASBANNER:1;
#MUSICLENGTH:100.403;
// end cache tags

//---------------dance-single - R. Farias----------------
#NOTES:
     dance-single:
     R. Farias:
     Challenge:
     10:
     0.804,0.870,0.269,0.488,0.090,487.000,27.000,49.000,38.000,0.000:

0000
0000
0000
0000
,
0000
0000
0000
0000
,
0000
0000
0000
0000
,
0000
0000
0000
0000
,
0000
0000
0000
0000
,
1000
0100
0010
0000
0010
0001
0100
0000
0100
0010
1000
0000
0100
0000
0010
0000
,
0100
1000
0001
0000
0100
0010
1000
0000
1000
0100
0010
0000
0001
0000
0100
0000
,
0010
1000
0100
1000
0001
0100
0010
1000
,
0100
0010
0001
0010
0100
1000
0001
0100
0010
1000
0100
1000
0100
0010
0100
0010
,
0200
0000
0000
0000
0320
0000
0031
0100
,
0010
0010
1000
1000
0100
0100
0010
0010
,
0001
0001
0100
0100
0010
0010
1000
1000
,
0100
0010
0001
0010
0100
1000
0001
0100
,
0010
0100
0001
1000
0100
0010
0100
1000
,
0001
0001
0100
0100
1000
1000
0100
0100
,
0010
0010
1000
1000
0100
0100
0001
0001
,
0100
0100
0010
0010
0001
0100
0010
1000
,
0100
M11M
MM11
M1M1
,
0100
0010
1000
0100
0010
0100
1000
0002
,
0000
0103
0010
0100
0001
1000
0100
0010
,
0100
1000
0001
0100
0010
0100
0001
1000
,
0200
0320
0230
0320
0031
1000
0001
0100
,
0010
0100
0001
1000
0100
0010
0100
2000
,
0000
3001
0100
0010
0100
0001
1000
0100
,
1000
0001
0100
0010
1000
0010
1000
0100
,
1000
0100
1000
0000
11MM
0000
0000
0000
0100
0010
0100
0000
M11M
0000
0000
0000
,
MM11
0001
0100
0010
0100
0001
1000
0100
,
0010
0100
1000
0001
0200
0000
0320
0000
,
1030
0100
0010
0100
1000
0001
0100
0010
,
0100
0001
1000
0100
0020
0000
0032
0000
,
0103
0010
1000
0100
0010
0001
0010
0100
,
1000
0001
0100
0010
2000
0000
3200
0000
,
0310
0001
0010
0001
0100
0001
0100
0010
,
0100
0010
1000
0010
2000
0000
3002
0000
,
0103
0010
1000
0200
0000
0310
0001
1000
,
0100
0010
0001
0100
0020
0000
2030
0000
,
3100
0010
0100
0020
0000
0031
0100
0010
,
1000
0100
0010
0100
2000
0000
3002
0000
,
0103
0010
1000
0100
0010
0100
1000
0001
,
0100
0010
0100
0001
2000
0000
3200
0000
,
0310
0100
1000
0001
0100
1000
0100
0010
,
4000
0400
0000
0000
0000
0000
0000
0000
0000
0000
3300
0000
,
22MM
3300
0000
0000
M21M
0300
0010
0001
,
0100
0100
0010
0010
1000
1000
0100
0100
,
0010
0001
0010
0100
1000
0001
0100
0010
,
1000
1000
0100
0100
0001
0001
0100
0100
,
0010
0001
0100
0010
1000
0100
0010
0100
,
1000
1000
0001
0001
0100
0100
0010
0010
,
0100
0001
1000
0100
0010
0001
0010
0100
,
0010
0010
0001
0001
0100
0100
0010
0010
,
1M1M
11MM
M11M
MM11
,
M1M1
0100
0010
1000
0100
0010
0001
0010
,
0100
0100
1000
1000
0001
0001
0100
0100
,
0010
1000
0010
1000
0100
0010
0100
1000
,
0001
0001
0100
0100
0010
0010
0100
0100
,
0001
1000
0010
0100
0010
1000
0100
0010
,
0001
0001
0100
0100
0010
0010
1000
1000
,
0004
4000
0000
0000
0000
0000
0000
0000
0000
0000
3003
0000
,
2002
0000
0000
3003
0101
0000
0110
0000
,
1010
1000
0100
0010
0001
0001
0100
0200
,
0000
0000
0320
2030
,
3100
0010
0001
0100
0010
0010
1000
2000
,
0000
0000
3100
0010
0100
0020
0000
0000
,
0031
0100
0010
1000
0001
0001
0100
0200
,
0000
0000
0320
0230
,
0301
1000
0100
0010
0001
0010
0100
1000
,
0002
0003
M1M1
0000
M11M
0000
1M1M
0000
,
11MM
0100
0010
0100
1000
0001
0100
0020
,
0000
1030
0100
0010
0100
1000
0001
0100
,
0020
0000
0130
0001
1000
0100
0010
0001
,
0200
0302
0203
0302
0103
0010
1000
0100
,
0010
0100
1000
0001
0100
0010
0100
0002
,
0000
0000
2003
3200
,
0310
0001
0100
0010
1000
0100
0010
0001
,
0011
MMMM
0101
0110
,
2020
0000
0000
0000
,
3030
0000
0000
0000
;
