#TITLE:PUPA;
#SUBTITLE:;
#ARTIST:Morimori Atsushi;
#TITLETRANSLIT:;
#SUBTITLETRANSLIT:;
#ARTISTTRANSLIT:;
#CREDIT:Bobbykaze, owenviau1 & Rparty;
#BANNER:../Banner.png;
#BACKGROUND:../BG.PNG;
#LYRICSPATH:;
#CDTITLE:../CDTitleRpartyAndBobby.png;
#MUSIC:PUPA.ogg;
#OFFSET:-0.942;
#SAMPLESTART:78.467;
#SAMPLELENGTH:12.000;
#SELECTABLE:YES;
#BPMS:0.000=202.000;
#STOPS:;
#BGCHANGES:;
// cache tags:
#FIRSTBEAT:4.000;
#LASTBEAT:417.000;
#SONGFILENAME:Songs/Index Fusion/PUPA - [bobbykaze, owenviau1 & rparty]/PUPA.sm;
#HASMUSIC:1;
#HASBANNER:1;
#MUSICLENGTH:128.365;
// end cache tags

//---------------dance-single - owenviau1----------------
#NOTES:
     dance-single:
     owenviau1:
     Medium:
     16:
     1.000,1.000,0.647,0.374,1.000,1117.000,83.000,48.000,105.000,1.000:
0000
0000
0000
0000
,
1000
0000
0001
0000
1100
0000
0100
0010
0001
0000
0101
0000
0100
0010
1000
0000
,
1020
0030
0000
0000
,
0001
0000
0100
0000
1010
0000
1000
0001
0010
0000
0110
0000
0100
1000
0001
0000
,
2001
3000
0000
0000
,
0100
0000
0010
0000
0011
0000
0001
1000
0010
0000
1010
0000
1000
0001
0100
0000
,
0120
0030
0000
0000
,
1000
0000
0100
0000
0011
0000
0001
1000
0100
0000
1100
0000
1000
0001
0100
0000
,
0102
0000
0000
0000
0000
0000
1003
0010
1000
0010
1000
0010
1000
0010
1000
0010
,
2000
0000
0000
3000
1001
0000
0001
0000
0100
0000
0010
1000
0010
0000
0100
0000
,
0001
0000
1000
0000
1010
0000
0010
0000
0100
0000
0001
1000
0001
0000
0010
0000
,
0100
0000
1000
0000
1001
0000
0001
0000
0100
0000
0110
0000
0010
1000
0001
0000
,
0100
0000
0010
0000
1010
0000
1010
0000
0000
0000
1001
0000
0001
1000
0001
0100
,
0010
0100
0001
1000
0100
0010
0001
1000
0010
1000
0001
0100
0010
0100
0001
1000
,
0100
1000
0010
0100
0001
1000
0001
0100
0010
1000
0001
0100
0001
0010
0100
1000
,
0001
0010
0001
1000
0100
0010
0001
1000
0010
1000
0001
0100
0001
0010
0100
1000
,
0002
0000
0000
0000
0000
0000
0203
0000
0000
0000
0000
0000
0000
0000
0000
0000
0000
0000
0310
0000
0000
1000
0000
0000
0010
0000
0000
0100
0000
0000
0001
0000
1000
0000
0001
0000
1000
0000
0000
0000
0100
0000
0000
0000
0010
0000
0000
0000
,
0001
0000
0000
0000
1000
0000
0000
0000
0001
0000
0000
0000
0100
0000
0000
0010
0000
0000
0100
0000
0000
0001
0000
0000
1000
0000
0000
0010
0000
0000
1000
0000
0000
0100
0000
0000
0010
0000
0000
0001
0000
0000
1000
0000
0000
0100
0000
0000
,
1000
0001
0100
0010
1000
0010
0100
0001
1000
0001
0010
0100
1000
0001
0010
0001
,
0100
0010
1000
0010
0100
0001
1000
0100
0010
0100
1000
0001
0100
0010
0100
0001
,
1000
0100
1000
0001
0100
0010
1000
0010
0100
0001
1000
0001
0010
0100
1000
0001
,
0010
0001
0100
0010
1000
0010
0100
0001
1000
0100
1000
0001
0100
0010
0100
0001
,
1000
0100
0010
0001
0100
0010
1000
0010
0100
0001
1000
0100
1000
0001
0010
0001
,
0100
0010
0100
0001
1000
0001
0100
0010
0100
0001
1000
0100
1000
0010
0100
0001
,
1000
0001
0010
0100
1000
0001
0010
0001
0100
0010
1000
0001
1000
0100
0000
0010
,
0001
0000
1000
0000
0010
0100
0010
1000
0001
0100
0001
0010
0100
1000
0001
0010
,
0001
0100
0010
1000
0010
0100
0001
1000
0100
1000
0010
0100
0001
1000
0100
1000
,
0001
0010
0001
0100
0010
0100
0001
1000
0100
0010
0001
0010
0100
1000
0001
0100
,
0001
1000
0010
0100
0001
1000
0100
1000
0010
0100
0001
1000
0100
1000
0001
0010
,
0100
0010
0001
1000
0010
1000
0001
0100
0010
1000
0010
0100
0001
1000
0100
1000
,
0001
0010
0100
1000
0001
0010
0001
0100
0010
1000
0010
0100
0001
1000
0001
0100
,
0010
0100
0001
1000
0020
0000
0030
0000
1010
0000
1010
0000
1000
0001
0200
0000
,
0300
0000
0020
0000
1030
0001
1000
0100
0010
0001
1000
0100
1000
0001
0100
0010
,
0100
0001
1000
0001
0010
0000
0100
0000
1000
0000
0100
0000
0010
0000
0001
0000
,
1000
0000
0010
0000
1000
0000
0001
0000
0100
0000
0010
0000
0000
0000
000M
000M
,
000M
0000
0000
0000
0000
0000
0000
0000
000M
0000
0000
0000
0000
0000
0000
0000
000M
0000
000M
0000
0000
0000
0000
0000
000M
0000
0000
000M
000M
0000
000M
0000
000M
0000
000M
0000
000M
0000
000M
0000
000M
0000
000M
0000
000M
000M
000M
000M
1M1M
0000
0000
0000
0000
0000
0000
0000
0000
0000
0000
0000
0000
0000
0000
0000
0000
0000
0000
0000
0000
0000
0000
0000
0010
0000
0000
0000
0000
0000
0000
0000
0000
0000
0000
0000
0000
0000
0000
0000
0000
0000
0000
0000
0000
0000
0000
0000
0100
0000
0000
0000
0000
0000
0000
0000
0000
0000
0000
0000
0000
0000
0000
0000
0000
0000
0000
0000
0000
0000
0000
0000
0001
0000
0000
0000
0000
0000
0000
0000
0000
0000
0000
0000
0000
0000
0000
0000
0000
0000
0000
0000
0000
0000
0000
0000
1000
0000
0000
0000
0000
0000
0000
0000
0000
0000
0000
0000
0000
0000
0000
0000
0000
0000
0000
0000
0000
0000
0000
0000
0001
0000
0000
0000
0000
0000
0000
0000
0000
0000
0000
0000
0000
0000
0000
0000
0000
0000
0000
0000
0000
0000
0000
0000
,
0010
0100
1000
0010
1000
0001
M1M1
M11M
,
0000
0000
0000
0000
0000
0000
000M
000M
000M
000M
000M
000M
1M1M
0000
0000
0000
0000
0000
1000
0000
0000
0000
0000
0000
0100
0000
0000
0000
0000
0000
0010
0000
0000
0000
0000
0000
0001
0000
0000
0000
0000
0000
1000
0000
0000
0000
0000
0000
,
0100
0000
0000
0000
0000
0000
0000
0000
0000
0000
0000
0000
0000
0000
0000
0000
0000
0000
0000
0000
0000
0000
0000
0000
1000
0000
0000
0000
0000
0000
0000
0000
0000
0000
0000
0000
0000
0000
0000
0000
0000
0000
0000
0000
0000
0000
0000
0000
0001
0000
0000
0000
0000
0000
0000
0000
0000
0000
0000
0000
0000
0000
0000
0000
0000
0000
0000
0000
0000
0000
0000
0000
0100
0000
0000
0000
0000
0000
0000
0000
0000
0000
0000
0000
0000
0000
0000
0000
0000
0000
0000
0000
0000
0000
0000
0000
0010
0000
0000
0000
0000
0000
0000
0000
0000
0000
0000
0000
0000
0000
0000
0000
0000
0000
0000
0000
0000
0000
0000
0000
0100
0000
0000
0000
0000
0000
0000
0000
0000
0000
0000
0000
0000
0000
0000
0000
0000
0000
0000
0000
0000
0000
0000
0000
0001
0000
00M0
0000
0M00
0000
2000
0000
0000
0000
0000
0000
0000
0000
0000
0000
0000
0000
0000
0000
0000
0000
0000
0000
0000
0000
0000
0000
0000
0000
0000
0000
0000
0000
0000
0000
0000
0000
0000
0000
0000
0000
0000
0000
0000
0000
0000
0000
,
00M0
00M0
00M0
00M0
00M0
00M0
00M0
00M0
31M1
0000
0000
0000
0001
0000
0000
0000
1000
0000
0000
0000
0100
0000
0000
0000
1000
0000
0000
0000
0001
0000
0000
0000
,
0100
0000
0010
0000
0100
0000
0001
0000
1000
0000
0100
0000
0011
0000
1001
00M0
,
0M00
M000
000M
0M00
1010
0000
0000
0110
0000
0000
0101
0000
0101
0000
0000
1010
,
0000
0000
1100
0000
1100
0000
0000
0110
0000
0000
0011
0000
0011
0000
0000
1001
,
0000
0000
1010
0000
1010
0000
0000
0110
0000
0000
0101
0000
0101
0000
0000
1001
,
0000
0000
1100
0000
1100
0000
0000
1010
0000
0000
0110
0000
0110
0000
0000
0101
,
0000
1001
1100
1100
0000
0110
0110
0000
,
0011
0011
0000
1001
1001
0000
1010
1010
,
0001
0000
0000
0010
0000
0000
0100
0000
0000
1000
0000
0000
0001
0000
0000
1000
0000
0000
0010
0000
0000
0100
0000
0000
0010
0000
0000
1000
0000
0000
0001
0000
0000
1000
0000
0000
0100
0000
0000
0010
0000
0000
0001
0000
1000
0000
0001
0000
,
0100
0010
0200
0000
0000
0300
0002
0003
2000
3000
0200
0300
0020
0032
2003
3000
,
0100
0000
0010
0000
0001
0000
1000
0000
0100
0000
0010
0000
0001
0000
0000
0000
0000
0000
0000
0000
0000
0000
0000
0000
1000
0000
0000
0000
0000
0000
010M
0000
0000
0000
0000
0000
0010
0000
0000
0000
0000
0000
M000
0000
0000
0001
0000
0000
,
0000
0000
1000
0000
001M
0000
0000
0100
0000
0000
001M
0000
1000
0000
0M00
0000
,
0000
0000
0001
0010
M100
0000
0000
0000
1000
0000
001M
0000
0100
0000
M000
0001
,
0000
0000
1000
0000
01M0
0000
0000
1000
0M00
0000
0010
0000
010M
0000
0000
0000
,
00M0
0000
0001
1000
0M01
0000
0000
0000
0100
0000
001M
0000
1000
0000
0M00
0001
,
0000
0000
0010
0000
010M
0000
0000
1000
0000
0000
00M1
0000
1000
0000
00M0
0000
,
0000
0000
0100
0010
M001
0000
0000
0000
1000
0000
001M
0000
0100
0000
M000
0001
,
0000
0000
1000
0000
0M01
0000
0010
0100
1000
0001
1000
0000
0010
0100
0010
1000
,
0001
0010
0100
1000
0001
0000
0000
0000
0010
0000
0100
0000
1000
0001
0000
0100
,
0001
0000
1000
0000
0010
0100
0000
0001
0100
0000
0010
0000
1000
0002
0000
0000
,
0000
0000
0013
0100
2000
0000
3000
0000
0010
0000
0100
0000
0001
1000
0000
0100
,
1000
0000
0010
0000
0100
0001
0000
1000
0001
0000
0010
0000
0200
0000
0000
0000
,
0300
0000
1000
0001
1000
0000
0100
0000
0010
0000
0001
0000
1000
0000
0010
0000
,
0100
0000
0001
1000
0001
0000
0010
0000
0100
0000
1000
0000
0001
0000
0100
0000
,
0010
0000
1000
0001
1000
0000
0100
0000
0010
0000
0001
0000
1000
0000
0010
0000
,
0100
0000
0000
0000
0000
0000
0001
0000
0000
0000
0000
0000
1000
0000
0100
0000
1000
0000
0100
0000
0000
0010
0000
0000
0002
0000
0000
0000
0000
0000
0003
0000
0000
0000
0000
0000
2002
0000
0000
0000
0000
0000
3003
0000
0000
0000
0000
0000
,
2020
0000
3030
0000
1000
0100
0010
0001
1000
0010
0100
0001
0100
0010
1000
0001
,
1000
0100
0010
0001
0100
0010
1000
0010
0100
0001
1000
0100
1000
0001
0010
0001
,
0100
0010
1000
0010
0100
0001
1000
0100
1000
0001
0010
0001
0100
0010
0100
0001
,
1000
0100
0010
0001
1000
0100
1000
0010
0100
0001
0100
0010
1000
0000
0001
0000
,
0010
0000
0100
1000
0001
0100
0010
0100
0001
1000
0010
1000
0100
0010
0001
1000
,
0001
0100
0010
1000
0010
0100
0001
1000
0100
0010
0001
1000
0100
1000
0001
0100
,
0010
1000
0010
0100
0001
1000
0100
1000
0001
0010
0100
1000
0010
1000
0001
0100
,
0010
0100
0001
1000
0100
0000
0000
0220
0330
0000
0022
0033
2002
0000
3003
0000
,
1000
0000
0000
0000
0010
0100
0001
1000
0001
0100
0010
1000
0010
0100
0001
1000
,
0100
1000
0010
0100
0001
1000
0100
1000
0001
0010
0100
0010
0001
1000
0100
1000
,
0010
0100
0001
0100
0010
1000
0001
1000
0010
0100
0010
1000
0100
1000
0001
0010
,
0100
1000
0001
0010
0001
0000
1000
0000
0010
0000
0100
0000
0001
1000
0000
0100
,
0010
0000
0000
0001
0000
0000
1000
0000
0100
0000
0010
0000
0001
0000
1000
0000
0001
0000
0100
0000
0010
0000
0100
0000
,
0001
0000
0000
0000
1000
0000
0000
0000
0010
0000
0000
0000
1000
0000
0000
0000
0100
0000
0000
0000
0010
0000
0000
0000
0001
0000
0000
0000
1000
0000
0000
0000
0100
0000
0000
0000
1000
0000
0000
0010
0000
0000
0100
0000
0000
0001
0000
0000
,
0100
0000
0000
0010
0000
0000
1000
0000
0000
0001
0000
0000
1000
0000
0000
0100
0000
0000
0010
0000
0000
0001
0000
0000
1000
0000
0000
0100
0000
0000
1000
0000
0000
0001
0000
0000
0100
0000
0000
0000
0000
0000
0010
0000
1000
0000
0010
0000
,
1000
0000
0000
0000
0000
0000
0001
0000
0100
0000
0001
0000
0100
0000
0000
0000
0000
0000
0000
0000
0000
0220
0000
0000
0330
0000
0000
0000
0000
0000
2020
0000
0000
3030
0000
0000
2002
0000
0000
0000
0000
0000
3003
0000
0000
0000
0000
0000
,
1000
0000
0000
0000
M10M
0000
0010
0000
0001
0000
1M0M
0010
1000
0000
0100
0000
,
MM10
0000
0001
0000
1000
0000
M01M
0000
0100
0000
0001
1000
0MM1
0000
0010
0000
,
01MM
0000
1000
0000
00M1
0100
0010
0100
0001
1000
0M10
1000
0100
0010
0001
1000
,
01M0
1000
0001
0100
0010
0100
00M1
1000
0100
1000
0010
0100
00M1
1000
0001
0010
,
010M
1000
0001
0100
00M1
0000
1000
0000
0100
0000
MM10
0001
1000
0000
0010
0000
,
M10M
0000
0001
0000
1000
0000
01MM
0000
1000
0000
0010
0100
M0M1
0000
1000
0000
,
MM01
0000
0010
0000
01M0
1000
0001
1000
0010
0100
M001
0100
0010
1000
0001
1000
,
001M
0000
0000
0100
0000
0000
0010
0000
0000
1000
0000
0000
0001
0000
0100
0000
0001
0000
0100
0000
0000
0010
0000
0000
2000
0000
0000
0000
0000
0000
3000
0000
0000
0000
0000
0000
2020
0000
0000
0000
0000
0000
3030
0000
0000
0000
0000
0000
,
0220
0000
0330
0000
0001
1000
0001
0100
0010
0100
0001
1000
0010
1000
0100
0010
,
0001
1000
0100
0010
0100
1000
0001
0100
0010
1000
0010
0100
0001
1000
0001
0100
,
0010
0100
0001
1000
0100
0010
0001
1000
0001
0100
0010
1000
0010
0100
0001
1000
,
0100
0000
0000
1000
0000
0000
0001
0000
0000
0010
0000
0000
0100
0000
0000
0000
1000
0000
0000
0000
0010
0000
0000
0000
0100
0000
0000
0000
0010
0000
0000
0000
1000
0000
0000
0000
0001
0000
0000
0000
0100
0000
0000
0000
0010
0000
0000
0000
,
1000
0000
0000
0000
0001
0000
0000
0000
0100
0000
0000
0000
0001
0000
0000
0010
0000
0000
0100
0000
0000
1000
0000
0000
0001
0000
0000
0100
0000
0000
0010
0000
0000
0100
0000
0000
0001
0000
0000
1000
0000
0000
0010
0000
0000
1000
0000
0000
,
0100
0010
0001
1000
0100
1000
0001
0100
0010
1000
0010
0100
0001
1000
0001
0010
,
0100
0000
0000
1000
0000
0000
0100
0000
0000
0010
0000
0000
0001
0000
0000
1000
0000
0000
0010
0000
0000
1000
0000
0000
0001
0000
0000
0100
0000
0000
0010
0000
0000
1000
0000
0000
0010
0000
0000
0100
0000
0000
0001
0000
1000
0000
0001
0000
,
1000
0000
0000
0010
0000
0000
0100
0000
0001
0000
0100
0000
0001
0000
0000
1000
0000
0000
0100
0000
0000
1000
0000
0000
0001
0000
0000
0010
0000
0000
0100
0000
0000
1000
0000
0000
0001
0000
0000
0100
0000
0000
0001
0000
0000
1000
0000
0000
,
0100
0010
0001
1000
001M
0000
0100
0001
1000
0000
1100
0000
0100
0010
0001
0000
,
2001
3000
0000
0000
,
0100
0000
0010
0000
0011
0000
0001
1000
0010
0000
1010
0000
1000
0001
0100
0000
,
0120
0030
0000
0000
,
1000
0000
0100
0000
0011
0000
0001
1000
0010
0000
1010
0000
1000
0001
0010
0000
,
0012
0003
0000
0000
,
0100
0000
0010
0000
1010
0000
1000
0001
0100
0000
0110
0000
0010
1000
0001
0000
,
2002
3003
0000
0000
;

//---------------dance-single - Bobbykaze----------------
#NOTES:
     dance-single:
     Bobbykaze:
     Hard:
     16:
     1.000,1.000,0.366,0.055,1.000,1228.000,47.000,7.000,0.000,0.000:

0000
0000
0000
0000
,
1000
0000
1000
0000
1001
0000
0100
0010
0001
0000
0110
0000
0010
0100
1000
0000
,
1001
0000
0000
0000
,
1000
0000
1000
0000
0011
0000
1000
0100
0010
0000
0011
0000
0001
0010
0100
0000
,
1100
0000
0000
0000
,
1000
0000
1000
0000
1100
0000
0001
0010
0001
0000
1100
0000
1000
0001
1000
0000
,
1001
0000
0000
0000
,
1000
0000
1000
0000
1001
0000
0100
0001
1000
0000
0110
0000
0001
1000
0010
0000
,
2001
0000
0000
0000
0000
0000
3001
0010
0100
1000
0001
0010
0100
1000
0001
0010
,
0200
0000
0000
0300
2010
0000
0000
0000
3001
0000
0001
1000
0010
0000
0100
0000
,
0000
0000
0010
0000
1000
0000
0100
0000
0010
0000
0001
1000
0010
0000
0100
0000
,
0001
0000
0010
0000
0100
0000
1000
0000
0001
0000
0100
0000
0010
1000
0100
0000
,
0010
0000
0001
0000
1001
0000
1001
0000
0000
0000
1001
0000
1000
0100
0010
0001
,
1000
0100
0010
0001
1100
0000
0000
0000
0001
0000
0100
0001
1000
0000
0010
0000
,
0000
0000
1000
0000
0010
0000
0100
0000
0001
0000
0100
0010
1000
0000
0001
0000
,
0100
0000
0010
0000
1000
0100
0010
0001
0010
0100
1000
0001
0100
0010
1000
0100
,
0010
0000
0000
0000
0000
0000
0011
0000
0000
0000
0000
0000
0000
0000
0000
0000
0000
0000
0001
0000
0000
0010
0000
0000
0100
0000
0000
1000
0000
0000
0002
0000
0000
0000
0000
0000
1003
0000
0000
0000
0100
0000
0000
0000
0010
0000
0000
0000
,
0001
0000
0000
0000
0100
0000
0000
0000
0010
0000
0000
0000
1000
0000
0000
0010
0000
0000
1000
0000
0000
0100
0000
0000
0010
0000
0000
0001
0000
0000
0010
0000
0000
0100
0000
0000
1000
0000
0000
0010
0000
0000
1000
0000
0000
0001
0000
0000
,
0100
0010
1000
0001
1000
0010
1000
0100
0010
0001
0010
0100
1000
0010
0100
0001
,
1000
0010
1000
0001
0100
0010
1000
0100
0010
0001
0010
0100
1000
0010
1000
0001
,
0100
0001
1000
0010
0100
0001
1000
0100
0010
0001
0010
0100
1000
0001
0100
0001
,
1000
0100
0010
0001
0100
0010
1000
0001
1000
0010
0100
0001
0010
0100
1000
0001
,
0100
0001
1000
0100
0010
0001
0010
0100
1000
0010
0100
0001
1000
0010
1000
0100
,
0010
0001
0100
0010
1000
0001
1000
0010
0100
0001
1000
0010
1000
0001
0100
0010
,
1000
0010
0100
0001
1000
0010
1000
0100
0010
0001
0010
0100
1000
0001
0100
0001
,
1000
0010
0100
0001
1000
0010
1000
0100
0010
0001
0010
0100
1000
0010
0100
0001
,
1000
0010
1000
0001
0100
0010
1000
0100
0010
0001
0010
0100
1000
0010
1000
0001
,
0100
0001
1000
0010
0100
0001
1000
0100
0010
0001
0010
0100
1000
0001
0100
0001
,
1000
0100
0010
0001
0100
0010
1000
0001
1000
0010
0100
0001
0010
0100
1000
0001
,
0100
0001
1000
0100
0010
0001
0010
0100
1000
0010
0100
0001
1000
0010
1000
0100
,
0010
0001
0100
0010
1000
0001
1000
0010
0100
0001
1000
0010
1000
0001
0100
0010
,
1000
0010
0100
0001
1000
0000
0000
0000
0010
0000
0100
0000
1000
0001
0100
0000
,
0000
0000
1000
0000
0001
0010
0100
1000
0010
0100
0001
1000
0010
1000
0100
0010
,
0001
0100
0001
1000
0001
0000
0100
0000
0010
0000
1000
0000
0001
0000
0100
0000
,
0001
1000
0100
0010
0001
0100
0000
0000
,
0000
0000
0101
0010
1000
0001
0100
0010
,
1000
0010
1000
0001
0100
0010
1100
0011
,
0000
0000
0101
0010
0100
1000
0100
0010
,
0001
0100
0010
1000
0100
0010
0002
0000
,
0000
0000
0000
0003
0110
0000
1000
0000
0100
0000
0010
0000
0001
0000
0100
0000
,
0001
1000
0010
0100
0001
1000
0011
1100
,
0000
0000
0000
0000
0001
0010
0100
1000
0010
0000
0100
0001
0010
0100
1000
0100
,
0010
0001
0100
0000
0010
0100
0001
0010
0100
1000
0100
0010
0001
0100
0010
1000
,
0001
0010
0100
1000
0100
0010
0001
0100
0010
0000
0100
0001
0010
0100
1000
0100
,
0010
0001
0100
0000
0010
0100
0001
0010
0100
1000
0100
0010
0001
0100
0010
1000
,
0001
0010
0100
1000
0010
0100
0001
1000
0001
0010
0100
1000
0010
1000
0001
0100
,
0010
1000
0100
0010
0001
0100
0001
1000
0010
0100
0001
1000
0001
0100
0010
1000
,
0001
1000
0010
0100
0001
0010
0100
1000
0100
0010
0001
0100
0010
1000
0100
0010
,
0100
1000
0020
0000
0030
0000
1000
0000
0010
0000
0100
0000
0001
0010
0001
0000
,
0001
0010
0100
1000
0010
0000
0000
0000
0100
0000
0010
0000
1000
0000
0000
0001
,
0000
0000
0100
0000
0010
0000
0000
1000
0000
0000
0100
0000
0010
0000
0000
0000
,
0000
0000
0001
0010
0100
0000
0000
0000
0100
0000
0010
0000
1000
0000
0000
0001
,
0000
0000
0100
0000
0010
0000
0000
1000
0000
0000
0001
0000
0100
0000
0000
0000
,
0000
0000
1000
0100
0010
0000
0000
0000
0010
0000
0100
0000
0001
0000
0000
1000
,
0000
0000
0100
0000
0010
0000
0000
0001
0000
0000
0100
0000
0010
0000
0000
0000
,
0000
0000
0010
0100
1000
0000
0000
0000
1000
0000
0100
0000
0010
0000
0000
0001
,
0000
0000
0100
0000
0010
0000
1000
0000
0010
0100
0001
0000
1000
0000
0001
0000
,
0010
0100
1000
0100
0010
0001
0010
0100
1000
0001
0100
0010
1000
0100
0010
0001
,
0100
0001
1000
0100
0010
0001
0100
0001
1000
0010
0100
0001
1000
0100
0010
0001
,
0000
0000
0010
0100
0001
0010
0100
1000
0001
0100
0010
1000
0100
0010
0001
0100
,
0010
1000
0100
0010
0001
0100
0001
1000
0010
0100
0001
1000
0100
0010
0001
0000
,
0000
0000
0100
0001
1000
0100
0010
0001
1000
0010
0100
0001
0010
0100
1000
0010
,
1000
0001
0010
0100
1000
0010
0100
0001
1000
0010
1000
0001
0010
0100
1000
0000
,
0001
1000
0010
0000
0100
0000
0001
0000
1000
0000
0100
0000
0010
0000
0001
0000
,
0100
0000
0010
0000
2000
0000
0000
3000
0010
0100
0000
0000
0010
1000
0000
0000
,
0001
0100
0000
0000
0001
0100
0010
1000
0001
1000
0100
0010
0001
0100
0001
1000
,
0010
1000
0001
0100
0001
0010
0100
1000
0100
0010
0001
1000
0010
1000
0001
0100
,
0010
1000
0001
0010
0100
1000
0010
0100
0001
1000
0001
1000
0100
0010
0001
0100
,
0010
1000
0001
1000
0001
0010
0100
0010
0001
0100
0001
1000
0100
0010
0001
0010
,
0100
1000
0001
0100
0001
1000
0010
0100
0001
0010
0100
1000
0100
0010
0001
1000
,
0001
0100
0010
1000
0001
0010
0100
0010
0001
1000
0001
0100
0010
1000
0001
0010
,
0100
1000
0100
0010
0001
0100
0010
1000
0001
1000
0100
0010
0001
0100
0001
1000
,
0010
0100
0001
0000
1010
0000
0000
0110
0000
0000
0101
0000
1010
0000
0000
0000
,
0001
0010
0100
1000
0001
0100
0010
1000
0001
1000
0100
0010
0001
0100
0001
1000
,
0010
1000
0001
0100
0001
0010
0100
1000
0100
0010
0001
1000
0010
1000
0001
0100
,
0010
1000
0001
0010
0100
1000
0010
0100
0001
1000
0001
1000
0100
0010
0001
0100
,
0010
1000
0001
1000
0001
0010
0100
0010
0001
0100
0001
1000
0100
0010
0001
0010
,
0100
1000
0001
0100
0001
1000
0010
0100
0001
0010
0100
1000
0100
0010
0001
1000
,
0001
0100
0010
1000
0001
0010
0100
0010
0001
1000
0001
0100
0010
1000
0001
0010
,
0100
1000
0100
0010
0001
0100
0010
1000
0001
1000
0100
0010
0001
0100
0001
1000
,
0010
0100
0001
0000
0110
0000
0000
1100
0000
0000
0101
0000
1010
0000
0000
0000
,
0001
0010
0100
1000
0010
1000
0001
0100
0001
0010
0100
1000
0010
0100
0001
1000
,
0001
0100
0010
1000
0100
0010
0001
0100
0010
1000
0001
0010
0100
1000
0100
0010
,
0001
0100
0010
1000
0001
0100
0010
1000
0100
0010
0001
1000
0100
1000
0001
0100
,
0001
0010
0100
1000
0001
1000
0001
0010
0100
1000
0010
0100
0001
0010
0100
1000
,
0100
1000
0001
0100
0001
1000
0010
0100
0001
1000
0100
0010
0100
1000
0010
0100
,
0001
1000
0010
1000
0001
0100
0001
0010
0100
1000
0010
1000
0001
0100
0010
1000
,
0001
1000
0010
0100
0001
0010
0100
1000
0010
1000
0010
0100
0001
0010
0100
1000
,
0100
0010
0001
1000
0010
1000
0001
0100
0010
0000
0000
0000
0110
0000
0000
0000
,
1100
0000
0000
0000
0001
0010
0100
1000
0100
0010
0100
1000
0100
0010
0001
0010
,
0100
1000
0010
0100
0001
1000
0100
0010
0001
0100
0010
1000
0001
0010
0100
1000
,
0100
0010
0001
0100
0001
1000
0010
0100
0001
1000
0001
0010
0100
1000
0010
0100
,
0001
0000
0000
1000
0000
0000
0010
0000
0000
1000
0000
0000
0001
0000
0000
0000
0010
0000
0000
0000
0100
0000
0000
0000
1000
0000
0000
0000
0100
0000
0000
0000
1000
0000
0000
0000
0001
0000
0000
0000
0010
0000
0000
0000
0001
0000
0000
0000
,
0010
0000
0000
0000
0100
0000
0000
0000
1000
0000
0000
0000
0001
0000
0000
0100
0000
0000
0010
0000
0000
1000
0000
0000
0010
0000
0000
1000
0000
0000
0001
0000
0000
0100
0000
0000
0001
0000
0000
1000
0000
0000
0100
0000
0000
0010
0000
0000
,
0001
1000
0001
0100
0001
1000
0010
1000
0100
0010
0001
0010
0100
1000
0001
0100
,
0001
1000
0010
0100
0001
0010
0100
1000
0100
0010
0001
0100
0010
1000
0100
0010
,
0001
0010
0100
1000
0010
0100
0001
1000
0010
1000
0001
0100
0010
1000
0100
0010
,
0001
1000
0010
0000
1001
0000
0001
0010
0100
0000
1100
0000
0100
0010
0001
0000
,
0011
0000
0000
0000
,
1000
0000
1000
0000
1010
0000
0100
0010
1000
0000
1001
0000
0001
0010
0100
0000
,
1100
0000
0000
0000
,
1000
0000
1000
0000
1100
0000
0001
0100
0010
0000
0110
0000
1000
0010
0100
0000
,
0101
0000
0000
0000
,
1000
0000
1000
0000
1001
0000
1000
0010
0100
0000
0101
0000
0001
0100
0010
0000
,
1001
0000
0000
0000
;

//---------------dance-single - Rparty----------------
#NOTES:
     dance-single:
     Rparty:
     Challenge:
     16:
     1.000,1.000,0.530,0.086,1.000,1122.000,68.000,11.000,20.000,10.000:
0000
0000
0000
0000
,
1000
0000
1000
0000
1001
0000
0100
0010
0100
0000
0110
0000
0010
0100
0010
0000
,
1001
0000
0000
0000
,
1000
0000
1000
0000
0011
0000
1000
0100
1000
0000
0011
0000
0001
0100
0001
0000
,
1100
0000
0000
0000
,
1000
0000
1000
0000
1100
0000
0001
0010
0001
0000
1100
0000
1000
0001
1000
0000
,
1001
0000
0000
0000
,
1000
0000
1000
0000
1001
0000
0100
0010
0100
0000
0110
0000
0010
0100
0010
0000
,
2001
0000
0000
0000
0000
0000
3001
0010
0100
1000
0001
0010
0100
1000
0001
0010
,
0200
0000
0000
0300
2010
0000
0000
0000
3001
0000
0001
1000
0010
0000
0100
0000
,
0000
0000
0010
0000
1000
0000
0100
0000
0010
0000
0001
1000
0010
0000
0100
0000
,
0001
0000
0010
0000
0100
0000
1000
0000
0001
0000
0100
0000
0010
1000
0100
0000
,
0010
0000
0001
0000
1001
0000
1001
0000
0000
0000
1001
0000
1000
0100
0010
0001
,
1000
0100
0010
0001
1100
0000
0000
0000
0001
0000
0100
0001
1000
0000
0010
0000
,
0000
0000
1000
0000
0010
0000
0100
0000
0001
0000
0100
0010
1000
0000
0001
0000
,
0100
0000
0010
0000
1000
0100
0010
0001
0010
0100
1000
0001
0100
0010
1000
0100
,
0010
0000
0000
0000
0000
0000
0011
0000
0000
0000
0000
0000
0000
0000
0000
0000
0000
0000
0001
0000
0000
0010
0000
0000
0100
0000
0000
1000
0000
0000
0002
0000
0000
0000
0000
0000
1003
0000
0000
0000
0100
0000
0000
0000
0010
0000
0000
0000
,
0001
0000
0000
0000
0100
0000
0000
0000
0010
0000
0000
0000
1000
0000
0000
0100
0000
0000
0010
0000
0000
0001
0000
0000
0100
0000
0000
0010
0000
0000
1000
0000
0000
0001
0000
0000
0100
0000
0000
0001
0000
0000
0010
0000
0000
0001
0000
0000
,
0100
0010
1000
0010
0100
0001
1000
0010
0100
0010
1000
0100
0010
0001
0010
0100
,
1000
0010
0100
0001
1000
0100
0010
0001
0010
0100
1000
0001
0100
0010
1000
0010
,
0100
0001
0010
0100
0010
0001
0100
0010
1000
0100
0010
0100
1000
0001
0100
0010
,
0100
0001
0010
0100
1000
0100
0010
0001
0100
0010
1000
0001
0100
0010
1000
0100
,
0010
0001
0010
0100
1000
0010
0100
0001
1000
0100
0010
0001
0010
0100
1000
0001
,
0100
0010
1000
0001
0010
0100
1000
0100
0010
0001
0100
0010
1000
0001
0100
0010
,
1000
0100
0010
0100
0010
0001
0010
0100
1000
0010
0100
0001
0100
0010
0100
0001
,
1000
0010
0100
0001
1000
0001
0010
0100
1000
0100
0010
0001
0100
0010
1000
0001
,
0100
0010
1000
0100
0010
0001
0010
0100
1000
0010
0100
0001
0010
0100
1000
0100
,
0010
0001
1000
0001
0100
0010
1000
0100
0010
0001
0100
0010
1000
0010
0100
0010
,
1000
0001
0100
0010
1000
0100
0010
0001
0010
0100
1000
0001
0100
0010
1000
0100
,
0010
0100
1000
0001
0010
0100
0010
0001
1000
0010
0100
0001
0010
0001
0100
0010
,
1000
0100
0010
0001
0010
0100
1000
0100
1000
0010
0100
0001
0010
0001
1000
0100
,
0010
0001
0010
0100
2000
0000
3000
0000
1001
0000
1001
0000
0001
0010
1100
0000
,
0000
0000
1001
0000
1001
0100
0010
0001
0010
0100
1000
0010
0100
0001
1000
0100
,
0010
0001
0010
0100
1000
0000
0001
0000
0100
0000
0010
0000
0100
0000
0001
0000
,
1000
0010
0100
0001
1000
0010
MMMM
0000
,
MMMM
0000
1001
0100
0010
0001
0100
0010
,
1000
0001
0010
0100
1000
0100
0011
1100
,
MMMM
0000
1001
0010
0100
1000
0001
0100
,
0010
0000
0000
0000
0000
0000
0000
0000
1000
0000
0000
0000
0000
0000
0000
0000
0100
0000
0000
0000
0000
0000
0000
0000
0010
0000
0000
0000
0000
0000
0000
0000
0001
0000
0000
0000
0000
0000
0000
0000
1000
0000
0000
0000
0000
0000
0000
0000
0001
0010
0200
0000
0000
0000
0000
0000
0000
0000
0000
0000
0000
0000
0000
0000
,
0000
0000
0000
0000
0000
0000
0000
0300
1001
0000
0000
0000
0100
0000
0000
0000
0010
0000
0000
0000
0001
0000
0000
0000
0100
0000
0000
0000
0010
0000
0000
0000
,
1000
0100
0010
0001
0010
0100
1100
0011
,
MMMM
0000
0000
0000
1000
0100
0010
0001
1000
0000
0001
0100
0010
1000
0001
0000
,
0100
0010
1000
0001
0100
0000
0010
1000
0100
0010
0001
0000
1000
0001
0100
0010
,
1000
0010
0100
0001
0010
0100
1000
0010
0100
0000
0001
0100
0010
1000
0001
0000
,
0100
0010
1000
0001
0100
0000
0001
0100
0010
1000
0001
0000
1000
0100
0010
0001
,
0010
0100
1000
0001
0100
0010
1000
0001
0100
0000
0001
0010
0100
1000
0001
0000
,
1000
0010
0100
0001
1000
0000
0010
0100
0001
1000
0001
0000
1000
0100
0010
0001
,
1000
0000
0001
0000
0100
0001
0100
0010
1000
0010
0100
0001
0010
0100
1000
0100
,
0010
0001
2000
0000
0000
3000
1000
0000
1000
0000
0100
0000
0010
0001
1000
0000
,
1000
0100
0010
0001
1000
0100
0010
0001
1000
0000
0000
0000
0000
0000
0000
0000
0001
0000
0000
0000
0010
0000
0000
0000
0100
0000
0000
0000
0000
0000
1000
0000
,
0000
0000
0010
0000
0100
0000
0000
0001
0000
0000
1000
0000
0001
0000
0000
0000
,
0000
0000
1000
0100
0010
0000
0000
0000
0001
0000
0100
0000
0010
0000
0000
1000
,
0000
0000
0001
0000
0100
0000
0000
0010
0000
0000
0100
0000
0001
0000
0000
0000
,
0000
0000
0010
0100
1000
0000
0000
0000
0010
0000
0100
0000
0001
0000
0000
1000
,
0000
0000
0010
0000
0100
0000
0000
0001
0000
0000
1000
0000
0100
0000
0000
0000
,
0000
0000
0010
0001
0100
0000
0000
0000
0010
0000
1000
0000
0100
0000
0000
0010
,
0000
0000
0001
0000
1000
0000
1000
0100
0010
0001
0010
0100
1000
0001
0010
0100
,
1000
0001
0100
0010
1000
0000
0000
0000
0001
0000
0100
0000
0010
0000
0000
1000
,
0000
0000
0001
0000
0100
0000
0000
0010
0000
0000
0100
0000
0002
0000
0000
0000
,
0003
0000
1000
0100
0011
0000
0000
0000
0100
0000
1000
0000
0001
0000
0000
0100
,
0000
0000
0010
0000
1000
0000
0000
0001
0000
0000
0010
0000
0200
0000
0000
0000
,
0300
0000
1000
0010
0101
0000
0000
0000
0010
0000
0100
0000
0001
0000
0000
1000
,
0010
0000
0100
0001
0100
0000
0000
0010
0000
0000
1000
0000
0002
0000
0000
0000
,
1003
0000
0001
0100
1010
0000
0100
0000
0010
0000
0001
0000
0100
0000
0010
0000
,
1000
0001
MMMM
0000
0011
0000
1100
0000
,
0011
0000
0000
0000
0001
0010
0100
1000
0001
0100
0010
1000
0100
0010
0001
0010
,
0100
1000
0001
0100
0010
0100
0001
0010
0100
1000
0100
0010
0001
0100
0010
1000
,
0001
0100
0010
1000
0100
0010
0001
0010
0100
1000
0001
0100
0010
1000
0010
0100
,
0001
0010
0001
0100
0010
1000
0100
0010
0001
0010
0100
1000
0100
1000
0010
0100
,
0001
0010
0001
1000
0010
0100
0001
1000
0001
0100
0010
1000
0100
0010
0001
0010
,
0100
1000
0001
0100
0010
0100
0001
0010
0001
0100
0010
1000
0100
0010
0001
0100
,
0010
1000
0100
1000
0001
0010
0100
0010
0001
1000
0100
0010
0100
1000
0001
0100
,
0010
1000
0001
0000
1001
0000
0000
1001
0000
0000
1100
0000
0011
0000
0000
0000
,
1000
0100
0010
0001
1000
0100
0010
0001
1000
0000
0010
0000
0100
0000
0001
0000
0100
0000
0010
0000
1000
0000
0001
0000
0100
0000
0010
0000
0100
0000
0001
0000
,
0100
0010
1000
0100
0010
0001
0010
0100
1000
0001
0100
0010
1000
0001
0010
0100
,
1000
0100
0010
0001
1000
0001
0010
0100
0010
0001
1000
0100
0010
0100
1000
0001
,
0100
0001
0100
0010
1000
0100
0010
0001
0010
0100
1000
0001
0100
0010
1000
0001
,
1000
0000
0000
0010
0000
0000
0100
0000
0000
0001
0000
0000
1000
0000
0000
0000
1000
0000
0000
0000
0010
0000
0000
0000
0100
0000
0000
0000
0001
0000
0000
0000
1000
0000
0000
0000
0010
0000
0000
0000
0010
0000
0000
0000
0100
0000
0000
0000
,
0001
0000
0000
0000
1000
0000
0000
0000
0001
0000
0000
0000
0100
0000
0000
0000
0100
0000
0000
0000
0001
0000
0000
0000
1000
0000
0000
0000
0010
0000
0000
0000
0100
0000
0000
0000
0001
0000
0000
0100
0000
0000
0010
0000
0000
1000
0000
0000
,
0001
0100
0010
1000
0001
1000
0001
1000
0001
1000
0001
1000
0001
0000
2000
0000
,
3010
0000
0100
0000
0101
0000
0000
0101
0000
0000
1010
0000
1100
0000
0000
0000
,
0001
0010
0100
1000
0001
0010
0100
1000
0001
0000
0000
0000
0000
0000
0000
0000
0000
0000
0000
0000
1011
0000
0000
0000
0000
0000
0000
0000
0000
0000
0000
0000
,
1101
0000
0000
1110
0000
0000
0111
0000
,
1101
0000
0000
0000
0001
0010
0100
1000
0001
0100
0010
1000
0100
0010
0001
0100
,
0010
0100
0001
0100
0010
1000
0010
0100
0010
1000
0100
0010
0001
0010
0100
1000
,
0001
0010
0100
1000
0001
0000
0000
0000
0000
0000
1110
0000
0000
0000
0000
0000
,
1011
0000
0000
0111
0000
0000
1101
0000
,
1110
0000
0000
0000
0001
0100
0010
1000
0010
0100
0001
1000
0100
0010
0001
0010
,
0100
1000
0001
0100
0010
0100
0010
0100
0001
0000
0000
0000
1100
0000
0000
0000
,
0011
0000
0000
0000
1000
0010
0100
0010
1000
0010
0100
0010
0100
0001
0100
0010
,
0100
0001
0100
0010
1000
0001
0010
0001
1000
0001
0010
0001
1000
0001
0100
0001
,
1000
0001
0100
0001
1000
0100
0010
0001
1000
0100
0010
0001
0100
0010
1000
0001
,
0100
0000
0000
0010
0000
0000
1000
0000
0000
0001
0000
0000
1000
0000
0000
0000
1000
0000
0000
0000
0010
0000
0000
0000
0010
0000
0000
0000
0100
0000
0000
0000
0100
0000
0000
0000
0010
0000
0000
0000
0010
0000
0000
0000
1000
0000
0000
0000
,
1000
0000
0000
0000
0001
0000
0000
0000
0001
0000
0000
0000
1000
0000
0000
0100
0000
0000
0010
0000
0000
0001
0000
0000
1000
0000
0000
0100
0000
0000
0010
0000
0000
0001
0000
0000
0010
0000
0000
0100
0000
0000
1000
0000
0000
0001
0000
0000
,
0010
0100
1000
0001
0100
0010
1000
0001
0100
0010
0100
0001
1000
0010
0100
0001
,
1000
0010
0100
0001
1000
0100
0010
0100
1000
0001
0010
0100
0010
0001
1000
0100
,
0010
0100
1000
0001
1000
0100
1000
0100
0010
0100
0010
0001
0010
0001
0010
0100
,
0010
0100
1000
0100
0011
0000
0001
0010
0100
0000
1100
0000
0100
0010
0001
0000
,
0011
0000
0000
0000
,
1000
0000
1000
0000
1010
0000
0100
0010
1000
0000
1001
0000
0001
0010
0100
0000
,
1100
0000
0000
0000
,
1000
0000
1000
0000
1100
0000
0001
0100
0010
0000
0110
0000
1000
0010
0100
0000
,
0101
0000
0000
0000
,
1000
0000
1000
0000
1001
0000
1000
0010
0100
0000
0101
0000
0001
0100
0010
0000
,
1001
0000
0000
0000
;

//---------------dance-single - Rparty EX----------------
#NOTES:
     dance-single:
     Rparty EX:
     Edit:
     22:
     1.000,1.000,0.522,0.086,1.000,1172.000,67.000,11.000,175.000,13.000:
0000
0000
0000
0000
,
1000
0000
1000
0000
1001
0000
0100
0010
0100
0000
0110
0000
0010
0100
0010
0000
,
1001
0000
0000
0000
,
1000
0000
1000
0000
0011
0000
1000
0100
1000
0000
0011
0000
0001
0100
0001
0000
,
1100
0000
0000
0000
,
1000
0000
1000
0000
1100
0000
0001
0010
0001
0000
1100
0000
1000
0001
1000
0000
,
1001
0000
0000
0000
,
1000
0000
1000
0000
1001
0000
0100
0010
0100
0000
0110
0000
0010
0100
0010
0000
,
2001
0000
0000
0000
0000
0000
3001
0010
0100
1000
0001
0010
0100
1000
0001
0010
,
0200
0000
0000
0300
2010
0000
0000
0000
3001
0000
0001
1000
0010
0000
0100
0000
,
0000
0000
0010
0000
1000
0000
0100
0000
0010
0000
0001
1000
0010
0000
0100
0000
,
0001
0000
0010
0000
0100
0000
1000
0000
0001
0000
0100
0000
0010
1000
0100
0000
,
0010
0000
0001
0000
1001
0000
1001
0000
0000
0000
1001
0000
1000
0100
0010
0001
,
1000
0100
0010
0001
1100
0000
0000
0000
0001
0000
0100
0001
1000
0000
0010
0000
,
0000
0000
1000
0000
0010
0000
0100
0000
0001
0000
0100
0010
1000
0000
0001
0000
,
0100
0000
0010
0000
1000
0100
0010
0001
0010
0100
1000
0001
0100
0010
1000
0100
,
0010
0000
0000
0000
0000
0000
0011
0000
0000
0000
0000
0000
0000
0000
0000
0000
0000
0000
0001
0000
0000
0010
0000
0000
0100
0000
0000
1000
0000
0000
0002
0000
0000
0000
0000
0000
1003
0000
0000
0000
0100
0000
0000
0000
0010
0000
0000
0000
,
0001
0000
0000
0000
0100
0000
0000
0000
0010
0000
0000
0000
1000
0000
0000
0100
0000
0000
0010
0000
0000
0001
0000
0000
0100
0000
0000
0010
0000
0000
1000
0000
0000
0001
0000
0000
0100
0000
0000
0001
0000
0000
0010
0000
0000
0001
0000
0000
,
0100
0010
1000
0010
0100
0001
1000
0010
0100
0010
1000
0100
0010
0001
0010
0100
,
1000
0010
0100
0001
1000
0100
0010
0001
0010
0100
1000
0001
0100
0010
1000
0010
,
0100
0001
0010
0100
0010
0001
0100
0010
1000
0100
0010
0100
1000
0001
0100
0010
,
0100
0001
0010
0100
1000
0100
0010
0001
0100
0010
1000
0001
0100
0010
1000
0100
,
0010
0001
0010
0100
1000
0010
0100
0001
1000
0100
0010
0001
0010
0100
1000
0001
,
0100
0010
1000
0001
0010
0100
1000
0100
0010
0001
0100
0010
1000
0001
0100
0010
,
1000
0100
0010
0100
0010
0001
0010
0100
1000
0010
0100
0001
0100
0010
0100
0001
,
1000
0010
0100
0001
1000
0001
0010
0100
1000
0100
0010
0001
0100
0010
1000
0001
,
0100
0010
1000
0100
0010
0001
0010
0100
1000
0010
0100
0001
0010
0100
1000
0100
,
0010
0001
1000
0001
0100
0010
1000
0100
0010
0001
0100
0010
1000
0010
0100
0010
,
1000
0001
0100
0010
1000
0100
0010
0001
0010
0100
1000
0001
0100
0010
1000
0100
,
0010
0100
1000
0001
0010
0100
0010
0001
1000
0010
0100
0001
0010
0001
0100
0010
,
1000
0100
0010
0001
0010
0100
1000
0100
1000
0010
0100
0001
0010
0001
1000
0100
,
0010
0001
0010
0100
2000
0000
3000
0000
1001
0000
1001
0000
0001
0010
1100
0000
,
0000
0000
1001
0000
1001
0100
0010
0001
0010
0100
1000
0010
0100
0001
1000
0100
,
0010
0001
0010
0100
1000
0000
0001
0000
0100
0000
0010
0000
0100
0000
0001
0000
,
1000
0010
0100
0001
1000
0010
MMMM
0000
,
MMMM
0000
1001
0100
0010
0001
0100
0010
,
1000
0001
0010
0100
1000
0100
0011
1100
,
MMMM
0000
1001
0010
0100
1000
0001
0100
,
0010
0000
0000
0000
0000
0000
0000
0000
1000
0000
0000
0000
0000
0000
0000
0000
0100
0000
0000
0000
0000
0000
0000
0000
0010
0000
0000
0000
0000
0000
0000
0000
0001
0000
0000
0000
0000
0000
0000
0000
1000
0000
0000
0000
0000
0000
0000
0000
0001
0010
0200
0000
0000
0000
0000
0000
0000
0000
0000
0000
0000
0000
0000
0000
,
0000
0000
0000
0000
0000
0000
0000
0300
1001
0000
0000
0000
0100
0000
0000
0000
0010
0000
0000
0000
0001
0000
0000
0000
0100
0000
0000
0000
0010
0000
0000
0000
,
1000
0100
0010
0001
0010
0100
1100
0011
,
MMMM
0000
0000
0000
1000
0100
0010
0001
1000
0000
0001
0100
0010
1000
0001
0000
,
0100
0010
1000
0001
0100
0000
0010
1000
0100
0010
0001
0000
1000
0001
0100
0010
,
1000
0010
0100
0001
0010
0100
1000
0010
0100
0000
0001
0100
0010
1000
0001
0000
,
0100
0010
1000
0001
0100
0000
0001
0100
0010
1000
0001
0000
1000
0100
0010
0001
,
0010
0100
1000
0001
0100
0010
1000
0001
0100
0000
0001
0010
0100
1000
0001
0000
,
1000
0010
0100
0001
1000
0000
0010
0100
0001
1000
0001
0000
1000
0100
0010
0001
,
1000
0000
0001
0000
0100
0001
0100
0010
1000
0010
0100
0001
0010
0100
1000
0100
,
0010
0001
2000
0000
0000
3000
1000
0000
1000
0000
0100
0000
0010
0001
1000
0000
,
1000
0100
0010
0001
1000
0100
0010
0001
1000
0000
0000
0000
0000
0000
0000
0000
0001
0000
0000
0000
0010
0000
0000
0000
0100
0000
0000
0000
1000
0000
0001
0000
,
0000
0000
0010
0000
0100
0000
0000
1000
0000
0000
0001
0000
0100
0000
0000
0010
,
0000
0000
1000
0100
0010
0000
0000
0000
0001
0000
1000
0001
0100
0000
0010
1000
,
0000
0000
0001
0000
0100
0000
0000
0010
0000
0000
0100
0000
0001
0000
0000
0000
,
0001
0000
0010
0100
1000
0000
0000
0000
0010
0000
0100
1000
0001
0000
0000
1000
,
0000
0000
0010
0000
0100
0000
0000
0001
0000
0000
1000
0000
0100
0000
0000
0010
,
0000
0000
0010
0001
0100
0000
0000
0000
0010
0000
1000
0001
0100
0000
0010
1000
,
0000
0000
0001
0000
1000
0000
1000
0100
0010
0001
0010
0100
1000
0001
0010
0100
,
1000
0001
0100
0010
1000
0000
0000
0000
0001
0000
0100
0000
0010
0000
1000
0100
,
0000
0000
0010
0000
0100
0000
0000
0010
0001
0000
1000
0000
0002
0000
0000
0000
,
0003
0000
1000
0100
0011
0000
0000
0000
0100
0000
1000
0000
0001
0000
0000
1000
,
0100
0000
0010
0000
0001
0000
0000
0100
0010
0000
0010
0000
0200
0000
0000
0000
,
0300
0000
1000
0010
0101
0000
0000
0000
0010
0000
0100
0000
0001
0000
1000
0100
,
0010
0000
0001
1000
0010
0000
0000
0010
0000
0000
1000
0000
0002
0000
0000
0000
,
1003
0000
0001
0100
1010
0000
0100
0000
0010
0000
0001
0000
0100
0000
0010
0000
,
1000
0000
0000
0000
0000
0000
0000
0000
0000
0000
0000
0000
0000
0000
0000
0000
0000
0000
0000
0000
0000
0000
0000
0000
0001
0000
0000
0000
0000
0000
0000
0000
0000
0000
0000
0000
0000
0000
0000
0000
0000
0000
0000
0000
0000
0000
0000
0000
2000
3000
0000
0000
0000
0000
MMMM
0000
0000
0000
0000
0000
0000
0000
0000
0000
0000
0000
0000
0000
0000
0000
0000
0000
0000
0000
0000
0000
0000
0000
0000
0000
0000
0000
0000
0000
0000
0000
0000
0000
0000
0000
0000
0000
0000
0000
0000
0000
0011
0000
0000
0000
0000
0000
0000
0000
0000
0000
0000
0000
0000
0000
0000
0000
0000
0000
0000
0000
0000
0000
0000
0000
0000
0000
0000
0000
0000
0000
0000
0000
0000
0000
0000
0000
0000
0000
0000
0000
0000
0000
0000
0000
0000
0000
0000
0000
1100
0000
0000
0000
0000
0000
0000
0000
0000
0000
0000
0000
0000
0000
0000
0000
0000
0000
0000
0000
0000
0000
0000
0000
0000
0000
0000
0000
0000
0000
0000
0000
0000
0000
0000
0000
0000
0000
0000
0000
0000
0000
0000
0000
0000
0000
0000
0000
,
0011
0000
0000
0000
0001
0010
0100
1000
0001
0100
0010
1000
0100
0010
0001
0010
,
0100
1000
0001
0100
0010
0100
0001
0010
0100
1000
0100
0010
0001
0100
0010
1000
,
0001
0100
0010
1000
0100
0010
0001
0010
0100
1000
0001
0100
0010
1000
0010
0100
,
0001
0010
0001
0100
0010
1000
0100
0010
0001
0010
0100
1000
0100
1000
0010
0100
,
0001
0010
0001
1000
0010
0100
0001
1000
0001
0100
0010
1000
0100
0010
0001
0010
,
0100
1000
0001
0100
0010
0100
0001
0010
0001
0100
0010
1000
0100
0010
0001
0100
,
0010
1000
0100
1000
0001
0010
0100
0010
0001
1000
0100
0010
0100
1000
0001
0100
,
0010
1000
0001
0000
1001
0000
0000
1001
0000
0000
1100
0000
0011
0000
0000
0000
,
1000
0100
0010
0001
1000
0100
0010
0001
1000
0000
0010
0000
0100
0000
0001
0000
0100
0000
0010
0000
1000
0000
0001
0000
0100
0000
0010
0000
0100
0000
0001
0000
,
0100
0010
1000
0100
0010
0001
0010
0100
1000
0001
0100
0010
1000
0001
0010
0100
,
1000
0100
0010
0001
1000
0001
0010
0100
0010
0001
1000
0100
0010
0100
1000
0001
,
0100
0001
0100
0010
1000
0100
0010
0001
0010
0100
1000
0001
0100
0010
1000
0001
,
1000
0000
0000
0010
0000
0000
0100
0000
0000
0001
0000
0000
1000
0000
0000
0000
1000
0000
0000
0000
0010
0000
0000
0000
0010
0000
0000
0000
0100
0000
0000
0000
0100
0000
0000
0000
0001
0000
0000
0000
0001
0000
0000
0000
1000
0000
0000
0000
,
1000
0000
0000
0000
0010
0000
0000
0000
0010
0000
0000
0000
0100
0000
0000
0000
0100
0000
0000
0000
0010
0000
0000
0000
0010
0000
0000
0000
1000
0000
0000
0000
1000
0000
0000
0000
0001
0000
0000
0100
0000
0000
0010
0000
0000
1000
0000
0000
,
0001
0000
0100
0000
0010
0000
1000
0000
0001
0000
1000
0000
0001
0000
1000
0000
0001
0000
1000
0000
0001
0000
1000
0000
0001
0000
0000
0000
1000
0100
0010
0001
,
1000
0000
0000
0000
1000
0100
0010
0001
1000
0000
0000
0000
0000
0000
0101
0000
0000
0000
0000
0000
1010
0000
0000
0000
1100
0000
0000
0000
0000
0000
0000
0000
,
0001
0010
0100
1000
0001
0010
0100
1000
0001
0000
0000
0000
1000
0000
0000
0000
0001
0000
0000
0000
1011
0000
0100
0000
0010
0000
0000
0000
0100
0000
0000
0000
,
1101
0000
0010
0000
0001
0000
1110
0000
0001
0000
0100
1000
0111
0000
0010
0000
,
1101
0000
1000
0000
0001
0010
0100
1000
0001
0100
0010
1000
0100
0010
0001
0100
,
0010
0000
0100
0000
0001
0000
1000
0010
0100
0000
0001
0000
0010
0000
0100
0000
1000
0000
0010
0000
0100
0000
0001
0000
1000
0000
0100
0000
0010
0000
0001
0000
,
0010
0100
1000
0001
0100
0000
0010
0000
0001
0000
1110
0001
1000
0000
0100
0000
,
1011
0000
0100
0000
1000
0000
0111
0000
1000
0000
0001
0010
1101
0000
0010
0000
,
1110
0000
1000
0000
0001
0100
0010
1000
0010
0100
0001
1000
0100
0010
0001
0010
,
0100
1000
0001
0100
0010
0100
0010
0100
0001
0000
0000
0000
1101
0000
0000
0000
,
1011
0000
0000
0000
100M
0010
0100
0010
1M00
0010
010M
0010
0100
0001
01M0
0010
,
M100
0001
01M0
0010
1M00
0001
M010
0001
10M0
0001
0M10
0001
10M0
0001
0100
0001
,
10M0
0001
M100
0001
10M0
0100
M010
0001
10M0
0100
M010
0001
M100
0010
1M00
0001
,
M100
0000
0000
0010
0000
0000
1M00
0000
0000
0001
0000
0000
100M
0000
0000
0000
100M
0000
0000
0000
0M10
0000
0000
0000
0M10
0000
0000
0000
01M0
0000
0000
0000
01M0
0000
0000
0000
0M10
0000
0000
0000
0M10
0000
0000
0000
100M
0000
0000
0000
,
100M
0000
0000
0000
M001
0000
0000
0000
M001
0000
0000
0000
100M
0000
0000
01M0
0000
0000
0M10
0000
0000
M001
0000
0000
100M
0000
0000
01M0
0000
0000
0M10
0000
0000
M001
0000
0000
0M10
0000
0000
01M0
0000
0000
100M
0000
0000
M001
0000
0000
,
0M10
01M0
100M
M001
01M0
0M10
100M
M001
01M0
0M10
01M0
M001
100M
0M10
01M0
M001
,
100M
0000
0M10
0000
01M0
0000
M001
0000
100M
0000
01M0
0000
0M10
0000
01M0
0000
100M
0000
M001
0000
0M10
0000
01M0
0000
0M10
0000
M001
0000
100M
0100
0010
0001
,
0M10
0000
01M0
0000
100M
0100
0M10
0001
1000
0000
01M0
0000
100M
0000
01M0
0000
0M10
0000
01M0
0000
0M10
0000
M001
0000
0M10
0000
M001
0000
0M10
0000
01M0
0000
,
0M10
01M0
100M
01M0
MM11
0000
0001
0010
0100
0000
1100
0000
0100
0010
0001
0000
,
0011
0000
0000
0000
0MM0
M00M
M00M
M00M
0MM0
M000
M000
M000
0000
0000
0000
0000
,
1000
0000
1000
0000
1010
0000
0100
0010
1000
0000
1001
0000
0001
0010
0100
0000
,
1100
0000
0000
0000
M00M
M00M
M00M
M00M
M00M
M00M
M00M
0MM0
0000
0000
0000
0000
,
1000
0000
1000
0000
1100
0000
0001
0100
0010
0000
0110
0000
1000
0010
0100
0000
,
0101
0000
0000
0000
0MM0
M00M
M00M
M00M
0MM0
M000
M000
M000
0000
0000
0000
0000
,
1MM0
M00M
1000
M00M
1001
M00M
1000
M01M
0100
MMMM
0101
M00M
0001
0100
0010
0000
,
1111
0000
0000
0000
;
