#TITLE:KINDER;
#SUBTITLE:;
#ARTIST:Mootz;
#TITLETRANSLIT:;
#SUBTITLETRANSLIT:;
#ARTISTTRANSLIT:;
#CREDIT:;
#BANNER:kinder bn.png;
#BACKGROUND:kinder bg.png;
#LYRICSPATH:;
#CDTITLE:;
#MUSIC:KINDER.ogg;
#OFFSET:-0.026;
#SAMPLESTART:52.870;
#SAMPLELENGTH:12.000;
#SELECTABLE:YES;
#DISPLAYBPM:215.000;
#BPMS:0.000=215.000,192.000=645.000,192.750=71.667,193.000=645.000,193.750=71.667,194.000=645.000,194.750=71.667,195.000=645.000,195.750=71.667,196.000=645.000,196.750=71.667,197.000=645.000,197.750=71.667,198.000=645.000,198.750=71.667,199.000=645.000,199.375=71.667,199.500=645.000,199.875=71.667,200.000=645.000,200.750=71.667,201.000=645.000,201.750=71.667,202.000=645.000,202.750=71.667,203.000=645.000,203.750=71.667,204.000=645.000,204.563=71.667,204.750=645.000,205.313=71.667,205.500=645.000,205.875=71.667,206.000=430.000,208.000=645.000,208.750=71.667,209.000=645.000,209.750=71.667,210.000=645.000,210.750=71.667,211.000=645.000,211.750=71.667,212.000=645.000,212.750=71.667,213.000=645.000,213.750=71.667,214.000=645.000,214.750=71.667,215.000=645.000,215.375=71.667,215.500=645.000,215.875=71.667,216.000=645.000,216.750=71.667,217.000=645.000,217.750=71.667,218.000=645.000,218.750=71.667,219.000=645.000,219.750=71.667,220.750=645.000,223.000=215.000,252.000=107.500,254.000=215.000,268.000=107.500,269.000=215.000,299.000=107.500,300.000=215.000,316.000=77.000;
#STOPS:206.000=0.140
,207.000=0.139
,316.000=1.116
;
#BGCHANGES:;
// cache tags:
#FIRSTBEAT:32.000;
#LASTBEAT:318.500;
#SONGFILENAME:Songs/SSSC Pack 2/KINDER - [Zimlord]/KINDER.sm;
#HASMUSIC:1;
#HASBANNER:1;
#MUSICLENGTH:93.805;
// end cache tags

//---------------dance-single - zimlord----------------
#NOTES:
     dance-single:
     zimlord:
     Challenge:
     15:
     1.000,1.000,0.863,0.682,1.000,590.000,81.000,64.000,91.000,0.000:

0000
0000
0000
0000
,
0000
0000
0000
0000
,
0000
0000
0000
0000
,
0000
0000
0000
0000
,
0000
0000
0000
0000
,
0000
0000
0000
0000
,
0000
0000
0000
0000
,
0000
0000
0000
0000
,
1100
0000
0000
1100
0000
0000
1100
0000
,
0000
0000
0000
0000
,
0000
0000
0000
0000
,
MMMM
0000
0000
0000
,
0101
0000
0000
0101
0000
0000
0101
0000
,
0000
0000
0000
0000
,
0000
0000
0000
0000
,
1MM1
0000
1000
0000
0100
0000
1000
0100
1000
0000
0001
0000
0010
0100
0010
0000
,
0001
0000
0000
0000
0101
0000
0000
0001
0100
0001
0100
0000
0101
0000
0000
0000
,
0001
0000
0000
0000
1001
0000
0000
1000
0100
1000
0100
0000
0110
0000
0000
0000
,
0010
0000
0000
0000
1001
0000
0000
1000
0001
1000
0001
0000
0011
0000
0000
0000
,
0010
0000
0000
0000
1100
0000
0000
0100
0010
0100
0010
0000
0011
0000
0000
0000
,
0001
0000
0000
0000
0101
0000
0000
0100
0010
0100
0001
0000
0101
0000
0000
0000
,
0100
0000
0000
0000
1010
0000
0000
0010
1000
0010
0100
0000
1001
0000
0000
0000
,
0001
0000
0000
0000
0011
0000
0000
0010
0001
0010
0100
0000
1100
0000
0000
0000
,
0100
0000
0000
0000
1001
0000
0000
1000
0010
1000
0001
0000
1001
0000
0000
0000
,
1000
0000
0000
0000
0101
0000
0000
0001
1000
0001
0010
0000
0011
0000
0000
0000
,
0001
0000
0000
0000
1001
0000
0000
1000
0100
1000
0010
0000
1010
0000
0000
0000
,
0010
0000
0000
0000
1001
0000
0000
0001
0010
0001
0100
0000
0101
0000
0000
0000
,
0001
0000
0000
0000
1010
0000
0000
1000
0100
1000
0001
0000
1001
0000
0000
0000
,
1000
0000
0000
0000
0011
0000
0000
0001
0100
0001
1000
0000
1001
0000
0000
0000
,
1000
0000
0000
0000
1100
0000
0000
0100
1000
0100
0010
0000
0011
0000
0000
0000
,
0001
0001
0010
0010
0100
0100
1000
1000
,
0011
0000
0001
0100
0010
0000
1010
0000
1000
0100
0010
0000
0011
0000
0001
0000
,
20M1
0000
3002
0M00
0203
0000
03M2
0000
,
2003
0000
0000
0000
3001
0010
0001
0010
0002
0000
0000
0000
02M3
0000
0000
0000
,
M302
0000
0023
000M
0230
0000
M320
0000
,
0032
0000
0000
0000
1003
0010
1000
0010
200M
0000
0000
0000
3M20
0000
0000
0000
,
023M
0000
0302
00M0
0023
0000
023M
0000
,
2300
0000
0000
0000
3100
0010
0100
0010
0200
0000
0000
0000
23M0
0000
0000
0000
,
3M02
0000
0203
M000
0302
0000
0M23
0000
,
0230
0000
0000
0000
0310
0001
0010
0001
0M20
0000
0000
0000
M230
0000
0000
0000
,
230M
0000
3020
0M00
0032
0000
M023
0000
,
0230
0000
0000
0000
0301
0010
0100
1000
0002
0000
0000
0000
M023
0000
0000
0000
,
023M
0000
0320
M000
2030
0000
3M20
0000
,
0032
0000
0000
0000
0103
0010
1000
0010
020M
0000
0000
0000
23M0
0000
0000
0000
,
3M02
0000
0023
M000
0230
0000
03M2
0000
,
0023
0000
0000
0000
0031
1000
0100
0010
0200
0000
0000
0000
M302
0000
0000
0000
,
2M03
0000
3020
M000
0230
0000
230M
0000
,
3020
0000
0000
0000
0130
0001
0100
0001
1000
0100
0010
0001
1000
0100
0010
0001
,
1000
1100
1010
0101
,
0011
0000
1100
0000
1001
0000
0001
0001
,
0101
1010
1100
0011
,
0110
0000
0000
0110
0000
0000
0110
0000
2MM2
0000
3003
0000
M22M
0000
0330
0000
,
1001
1100
1010
0101
,
0011
0000
0110
0000
1100
0000
1000
1000
,
1001
0101
1010
1100
,
1MM1
0000
0000
M00M
M00M
M00M
M00M
M00M
M00M
M00M
M00M
M00M
M00M
0000
0000
0000
,
0001
0000
0100
0000
0101
0000
0001
0000
1000
0000
1001
0000
0001
1000
0001
0100
,
0010
0000
1000
0000
1010
0000
0010
0000
1000
0000
1100
0000
0100
1000
0002
0000
,
0000
0000
0013
0100
1000
0000
0100
0000
0011
0000
0001
0100
0001
1000
0001
0000
,
1001
0000
1000
0100
0020
0000
0030
0000
0022
0000
0033
0000
0001
0000
1000
0000
,
1001
0000
0010
0000
1001
0000
0010
0000
1000
0000
0001
0000
1000
0100
0010
0001
,
1000
0000
0100
0000
0011
0000
0001
0100
0001
0000
1000
0001
1000
0000
0100
0000
,
0011
0001
0101
0100
1010
1000
1100
0100
,
1MM1
0000
0000
0000
0000
0000
0000
0000
0001
0100
0001
0100
0010
1000
0010
0100
,
0001
0000
0000
1000
0000
0000
0001
0000
0000
1000
0000
0000
0100
0000
0000
1000
0000
0000
0001
0000
0000
0100
0000
0000
0001
0000
0000
1000
0000
0000
0001
0000
1000
0000
0001
0000
1000
0000
0000
0001
0000
0000
1000
0000
0100
0000
1000
0000
,
0100
0000
0000
1000
0000
0000
0001
0000
0100
0000
0001
0000
0100
0000
0000
0010
0000
0000
1000
0000
0010
0000
1000
0000
0010
0000
0000
1000
0000
0000
0010
0000
0000
0100
0000
0000
0001
0000
0000
1000
0000
0000
0001
0000
0000
1000
0000
0000
,
0100
0010
0100
1000
0001
0010
0100
1000
0001
0100
0001
1000
0010
0100
0010
1000
,
0MM2
0000
0003
0000
1000
0001
1000
0100
0010
0001
0010
0001
1000
0100
0010
0100
,
1000
0000
0000
0001
0000
0000
1000
0000
0000
0001
0000
0000
0100
0000
0000
0010
0000
0000
0100
0000
0001
0000
0100
0000
0001
0000
0000
0100
0000
0000
0010
0000
1000
0000
0010
0000
1000
0000
0000
0001
0000
0000
1000
0000
0001
0000
1000
0000
,
0001
0000
0000
1000
0000
0000
0100
0000
0010
0000
0100
0000
0010
0000
0000
0100
0000
0000
1000
0000
0000
0001
0000
0000
1000
0000
0000
0100
0000
0000
0010
0000
0000
0001
0000
0000
1000
0000
0000
0100
0000
0000
1000
0000
0000
0100
0000
0000
,
0010
0000
0000
0001
0000
0000
0100
0000
0000
0001
0000
0000
1000
0000
0000
0010
0000
0000
1000
0000
0000
0001
0000
0000
0100
0000
0000
0010
0000
0000
0100
0000
0000
0001
0000
0000
1000
0000
0001
0000
1000
0000
0001
0000
1000
0000
0001
0000
,
1000
0000
0001
0000
1000
0000
0001
0000
1000
0000
0001
0000
1000
0000
0000
0001
0000
0000
1000
0000
0000
0100
0000
0000
0010
0000
0000
0001
0000
0000
0010
0000
0000
0001
0000
0000
1000
0000
0000
0100
0000
0000
1000
0000
0000
0100
0000
0000
,
0010
0000
0000
0001
0000
0000
0100
0000
0000
0001
0000
0000
1000
0000
0000
0010
0000
0000
1000
0000
0001
0000
1000
0000
0001
0000
0000
1000
0000
0000
0001
0000
0010
0000
0001
0000
0010
0000
0000
0001
0000
0000
0100
0000
0001
0000
0100
0000
,
0001
0000
0000
0100
0000
0000
0001
0000
1000
0000
0001
0000
1000
0000
0000
0100
0000
0000
0010
0000
0000
0001
0000
0000
1000
0000
0000
0001
0000
0000
1000
0000
0000
0001
0000
0000
0100
0000
0000
0010
0000
0000
0100
0000
0000
0010
0000
0000
,
1000
0001
0010
0100
1000
0100
0010
0001
1000
0001
1000
0001
MM20
0000
0030
0000
,
0001
1000
0001
1000
0010
0100
0010
1000
0001
0100
0001
1000
0100
1000
0001
0100
,
0001
0000
0000
1000
0000
0000
0001
0000
0100
0000
0001
0000
0100
0000
0000
0001
0000
0000
1000
0000
0001
0000
1000
0000
0001
0000
0000
1000
0000
0000
0010
0000
1000
0000
0010
0000
1000
0000
0000
0010
0000
0000
1000
0000
0001
0000
1000
0000
,
0001
1000
0001
1000
0010
0100
0010
0100
0001
0010
0100
1000
0001
0010
0001
0010
,
0100
0000
0000
1000
0000
0000
0100
0000
0000
0010
0000
0000
0001
0000
0000
1000
0000
0000
0001
0000
0000
1000
0000
0000
00M1
0000
1000
0M00
0001
0000
10M0
0000
0001
0M00
1000
0000
00M1
0000
1000
0M00
0001
0000
10M0
0000
0001
0M00
1000
0000
,
00M1
M000
0M00
0M00
000M
M000
00M0
0M00
0M00
000M
M000
0000
0000
0000
0000
0000
;
