#TITLE:Sahti-Waari;
#SUBTITLE:Battle Metal (2004);
#ARTIST:Turisas;
#TITLETRANSLIT:;
#SUBTITLETRANSLIT:;
#ARTISTTRANSLIT:;
#CREDIT:;
#BANNER:sahtiwaari.png;
#BACKGROUND:sahtiwaari-bg.png;
#LYRICSPATH:;
#CDTITLE:PF-cdtitle.png;
#MUSIC:Sahti-Waari.mp3;
#OFFSET:-0.131;
#SAMPLESTART:30.900;
#SAMPLELENGTH:13.500;
#SELECTABLE:YES;
#DISPLAYBPM:160.000;
#BPMS:0.000=160.000;
#STOPS:;
#BGCHANGES:;
// cache tags:
#FIRSTBEAT:4.000;
#LASTBEAT:385.000;
#SONGFILENAME:Songs/Astronomic Metal Collection/Sahti-Waari (GRAVLAX THE SHADOW FIEND)/sahtiwaari.sm;
#HASMUSIC:1;
#HASBANNER:1;
#MUSICLENGTH:148.349;
// end cache tags

//---------------dance-single - ----------------
#NOTES:
     dance-single:
     :
     Hard:
     11:
     1.000,1.000,1.000,0.384,1.000,1122.000,159.000,57.000,0.000,10.000:
0000
0000
0000
0000
,
1001
0000
0010
0100
0001
0000
0001
0010
0100
0000
1100
0000
0101
0000
0000
0000
,
1001
0000
0010
1000
0010
0000
0001
1000
0001
0100
0001
1000
0001
0100
0001
0010
,
1001
1001
1001
0010
0110
1000
0110
0001
,
1001
0000
0010
0100
0010
0000
0001
0010
0100
1000
0100
1000
0100
0010
0100
0010
,
1001
0000
0010
0100
0010
0000
1000
0100
0010
0000
1001
0000
1001
0000
0000
0000
,
1001
0000
1000
0010
1000
0000
0001
0010
0001
0010
0001
1000
0001
0010
0001
1000
,
0101
0101
0101
0010
1001
0100
0110
0010
,
1001
0000
1000
0100
0010
0000
0001
0100
0010
1000
0100
0001
0100
1000
0100
0001
,
0100
0000
0010
0100
0010
0000
1000
0001
0100
1000
0010
0001
0010
0000
0010
1000
,
0010
0000
0100
1000
0001
0000
1000
0100
0010
0001
0100
0010
0100
0001
0010
0100
,
1010
0000
1010
0000
1000
0000
0010
0000
1001
0000
0100
0010
0100
0000
1000
0001
,
1000
0000
0001
0010
0100
0000
1000
0001
0010
0001
1000
0100
0010
0100
0010
0100
,
0010
0000
0010
1000
0100
0000
0100
0001
0100
0001
1000
0001
1000
0000
0010
0100
,
0010
0000
0100
1000
0100
0000
0010
1000
0001
0010
1000
0100
1000
0010
1000
0100
,
0011
0000
0011
0000
0011
0000
1000
0000
0001
0000
0100
0010
0001
0000
0100
0010
,
0101
0000
0101
0000
1200
0000
0000
0000
0000
0000
0310
0000
0101
0000
1000
0010
,
0100
0000
0001
0000
0102
0000
0000
0000
0000
0000
1003
0000
0100
1000
0100
0000
,
0110
0000
1000
0000
0021
0000
0000
0000
0000
0000
0130
0000
0100
0000
1000
0100
,
0001
0000
2020
0000
0000
0000
3130
0000
0001
0100
0010
1000
0001
0100
0010
1000
,
0110
0000
0001
0000
2020
0000
0000
0000
0000
0000
3031
0000
0101
0000
1000
0001
,
1000
0000
0011
0000
0220
0000
0000
0000
0000
0000
1330
0000
0100
0010
1000
0000
,
0101
0000
0010
0000
1020
0000
0000
0000
0000
0000
1030
0000
0101
0000
1000
0100
,
0022
0000
0000
0033
0220
0000
0000
0330
2020
0000
0000
3030
0202
0000
0000
0303
,
1000
0100
0010
0001
0010
0100
1000
0010
1000
0100
0010
0001
0010
0001
0010
0001
,
1000
0010
0100
0010
0100
1000
0010
0001
0010
0100
1000
0100
1000
0010
0001
0010
,
0001
0010
0100
1000
0100
0010
0100
1000
0001
1000
0001
1000
0001
1000
0001
1000
,
0100
1000
0010
1000
0100
0001
0100
1000
0100
0010
0100
1000
0100
0010
0100
1000
,
0001
0100
0001
0100
0001
0010
0001
0010
0001
1000
0001
1000
0001
0100
0001
0100
,
0001
1000
0010
1000
0010
1000
0010
1000
0001
1000
0001
1000
0010
1000
0010
1000
,
0100
0001
0100
1000
0100
0001
0010
0100
1000
0010
1000
0010
1000
0010
1000
0010
,
0001
1000
0100
0010
0001
1000
0100
0010
0001
1000
0100
0010
0001
0010
0100
1000
,
0011
0000
1000
0100
0010
0000
0001
0010
0100
1000
0100
0010
0001
1000
0100
0010
,
1000
0000
0001
0010
0100
0000
0100
0001
1000
0001
1000
0001
0010
0000
0001
1000
,
0100
0000
0001
0100
1000
0000
1000
0001
0100
0010
1000
0001
0100
0010
1000
0001
,
0110
0000
1001
0000
0110
0000
0001
0000
0100
0010
0001
0100
0010
1000
0100
0010
,
0001
0000
1000
0100
0010
0000
0100
0010
1000
0100
0010
0001
1000
0010
0100
0001
,
1000
0000
0001
0100
0001
0000
1000
0100
0001
0100
1000
0100
1000
0000
0010
0001
,
1000
0000
1000
0001
0100
0000
1000
0001
0100
0010
0100
0001
1000
0100
0010
0001
,
1100
0000
1100
0000
1100
0000
0010
0000
0100
0000
0100
0010
0001
1000
0010
0100
,
0001
0000
0100
0010
0001
0000
0100
1000
0200
0000
0320
0000
2030
0000
3002
0000
,
1103
0000
0010
0000
0010
0000
0100
0010
0020
0000
0000
0030
1001
0000
0000
0000
,
1001
0000
0100
1000
0100
0000
0100
0001
0002
0000
0023
0000
0230
0000
2300
0000
,
3011
0000
0110
0000
1100
0000
1000
0001
1000
0000
1000
0001
1000
0100
0010
0001
,
1000
0000
0010
0100
1000
0000
1000
0100
1000
0001
0002
0000
2003
0000
3002
0000
,
1103
0000
1010
0000
1010
0000
0001
0010
0100
0100
1000
0000
0110
0000
1001
0000
,
1100
0000
0001
0100
0010
0000
1000
0100
0200
0000
2300
0000
3020
0000
0032
0000
,
1103
0000
0010
0000
0010
0000
0100
0001
1000
0000
0110
0000
0001
0000
0110
0000
,
1000
0000
0100
0000
1020
0000
0000
0000
0000
0000
0130
0000
1000
0000
0010
0100
,
1000
0000
0010
0000
0012
0000
0000
0000
0000
0000
0103
0000
0010
0100
0010
0000
,
1100
0000
0010
0000
1020
0000
0000
0000
0000
0000
0130
0000
1000
0000
0100
0010
,
0001
0000
2000
0000
0000
0000
3100
0000
0001
0010
0100
1000
0001
0010
0100
1000
,
0100
0000
0010
0000
0110
0000
0001
1000
0001
0000
0001
1000
0001
0000
0001
1000
,
0001
0000
1100
0000
0101
0000
1000
0100
1000
0000
1000
0100
1000
0000
1000
0100
,
1000
0000
0011
0000
0110
0000
0001
0010
0001
0000
0001
0010
0001
0000
0001
0010
,
1000
0010
1000
0010
0001
1000
0001
1000
0100
0010
0100
0010
1000
0001
1000
0001
,
1000
0100
0010
0001
0010
0100
1000
0001
1000
0001
0010
0100
1000
0100
0010
0001
,
1000
0001
0010
0001
1000
0001
1000
0100
1000
0001
0010
0100
1000
0100
0010
0100
,
1000
0100
1000
0100
0010
0100
0001
0100
0001
0010
0100
1000
0100
0010
0100
0010
,
0001
0010
0001
0010
0100
1000
0100
0010
0001
0010
0100
1000
0100
0010
1001
0000
,
2002
0000
0000
0000
0000
0000
3003
1001
,
0100
0010
0001
1000
0100
0010
0100
1000
0100
1000
0100
1000
0010
1000
0010
1000
,
0001
1000
0001
1000
0010
0100
0001
1000
0100
0010
0100
0010
0100
0010
0001
0010
,
0100
1000
0100
0001
1000
0001
1000
0010
1000
0100
1000
0010
0100
0010
0100
0010
,
1001
0000
0100
0001
1000
0000
0010
1000
0100
1000
0010
1000
0100
0010
0001
0010
,
0100
0000
1000
0100
0010
0000
0010
0001
0010
0100
0010
1000
0100
0000
1000
0001
,
1000
0000
0001
0100
0010
0000
0001
0100
0010
1000
0010
0100
0010
1000
0100
0010
,
0001
0000
1001
0000
1001
0000
1001
0000
0011
1000
0000
1000
0011
1000
0000
1000
,
0101
0000
0010
1000
0010
0000
0100
0001
1000
0010
0001
1000
0001
0010
1000
0001
,
0100
0000
1000
0001
0100
0000
1000
0001
0100
0001
0010
0001
0100
0000
0001
0001
,
0011
0000
0100
1000
0100
0000
1000
0001
0100
0001
1000
0010
1000
0001
1000
0010
,
1100
0000
0010
0000
0001
0000
0110
0000
1000
0001
0100
0010
1000
0001
0100
0010
,
1001
0000
0100
0010
0100
0000
1000
0100
2000
0000
3200
0000
0320
0000
0230
0000
,
0301
0000
0010
0000
1010
0000
0100
0001
2000
0000
0001
0000
0100
0000
0001
0000
,
3101
0000
1000
0100
0010
0000
0001
1000
0012
0000
0203
0000
0320
0000
2030
0000
,
3011
0000
0101
0000
0011
0000
0100
1000
0020
0000
0130
0000
2000
0000
3010
0000
,
1001
0000
1000
0010
0100
0000
0001
0100
0010
0000
1100
0000
0110
0000
0011
0000
,
1001
0000
0100
0000
0011
0000
1000
0001
0100
0000
0001
0000
1100
0000
0010
0000
,
1100
0000
0100
0010
1000
0000
0001
0100
0020
0000
0230
0000
0302
0000
2003
0000
,
3011
0000
0100
0000
1010
0000
0100
0010
0100
0000
0110
0000
0001
1000
0001
1000
,
1001
0000
0100
0010
0100
0000
1000
0100
0011
0100
1000
0100
0010
0001
0010
0100
,
1001
0000
0100
0010
0001
0000
0100
0010
0001
0010
0100
1000
0100
1000
0100
0010
,
1001
0000
0100
0010
1000
0000
0001
1000
1010
0010
0001
0010
0100
1000
0100
0000
,
1001
0000
0010
0000
0101
0000
0101
0000
0110
0100
1000
0000
0010
0100
0001
0000
,
1001
0000
1000
0100
0011
0000
0100
0010
1010
0001
0010
1000
0001
0100
0010
1000
,
1001
0000
0001
0100
0010
0000
0010
0100
0010
0000
0100
0010
0100
0001
0100
0010
,
1001
0000
0010
0100
0001
0000
0100
1000
0101
1000
0010
0001
1000
0010
0001
0100
,
0011
0000
0110
0000
0011
0000
0110
0000
1001
0100
0001
0000
1000
0100
1000
0000
,
1001
0010
0100
0010
1001
0001
0010
0100
0010
0001
0010
0100
0011
1000
0001
1000
,
0001
0100
1000
0100
1010
0001
0010
0100
0011
0000
0110
0000
1100
0000
0100
1000
,
0010
0001
0010
0001
1010
0100
1000
0100
0001
0100
1000
0100
1010
0001
0100
1000
,
0101
0000
0101
0000
0101
0000
1010
0000
0100
0100
0010
0000
0100
0100
0010
0000
,
1100
0000
0100
0010
1100
0000
0010
0100
1001
0000
0010
0001
1100
0000
0010
0001
,
1001
0000
0010
0100
0011
0000
0100
1000
0011
0000
1000
0100
0011
0000
0100
1000
,
0110
0000
0010
0001
0011
0000
0010
0100
0110
0000
1000
0010
1010
0000
0110
0110
,
0110
1001
0110
1001
2000
0000
0200
0000
,
0000
3300
0000
0000
;
