#TITLE:Operation Ground And Pound;
#SUBTITLE:Inhuman Rampage;
#ARTIST:Dragonforce;
#TITLETRANSLIT:;
#SUBTITLETRANSLIT:;
#ARTISTTRANSLIT:;
#CREDIT:;
#BANNER:operation ground and pound-bn.jpg;
#BACKGROUND:operation ground and pound-bg.jpg;
#LYRICSPATH:;
#CDTITLE:!TEEXcdtitle.png;
#MUSIC:DragonForce - Operation Ground And Pound.mp3;
#OFFSET:-0.327;
#SAMPLESTART:100.125;
#SAMPLELENGTH:12.000;
#SELECTABLE:YES;
#BPMS:0.000=120.000,76.000=60.000,82.000=200.000,834.000=100.000,864.000=200.000;
#STOPS:;
#BGCHANGES:;
// cache tags:
#FIRSTBEAT:0.000;
#LASTBEAT:1442.000;
#SONGFILENAME:Songs/CMDKDF Pack/Operation Ground and Pound (TEEX)/Operation Ground and Pound.sm;
#HASMUSIC:1;
#HASBANNER:1;
#MUSICLENGTH:464.744;
// end cache tags

//---------------dance-single - ----------------
#NOTES:
     dance-single:
     :
     Hard:
     13:
     1.000,1.000,1.000,0.443,0.988,3416.000,644.000,206.000,0.000,1.000:

0011
0100
1000
0001
0100
0000
0010
1000
0100
0010
0100
1000
0001
0010
0100
1000
,
0010
1000
0001
0010
0001
0000
0100
0010
1000
0100
1000
0010
0100
0010
1000
0100
,
1001
0010
0001
0100
0001
0000
1000
0001
0100
0001
1000
0010
1000
0001
0010
0001
,
0102
0000
0013
0100
2000
0000
3010
0100
0001
0100
0010
1000
0010
0100
0001
1000
,
0011
0010
0001
1000
0001
0000
1000
0001
1000
0010
1000
0010
1000
0001
1000
0010
,
0101
0100
0001
1000
0001
0000
0100
0001
0100
0001
1000
0001
0100
0001
1000
0001
,
0102
0000
0103
0010
2000
0000
3010
1000
0001
0010
0100
0010
0001
1000
0100
0010
,
1001
0000
1000
0001
0010
0000
1000
0100
0010
0100
1000
0010
0100
0010
1000
0001
,
0101
0000
1000
0010
0110
0000
0100
0001
0110
1000
0001
0100
0101
0000
1000
0001
,
1001
0000
1000
0010
0110
0100
0001
1000
0100
0010
0100
1000
0011
0100
1000
0001
,
0011
0000
0001
1000
1100
0000
0010
0100
0010
1000
0001
0100
0010
0100
0001
1000
,
0110
0000
0010
0100
1100
0000
0010
0100
1001
0010
1000
0100
0010
0001
0010
0100
,
1000
0000
0001
0010
0011
0000
0100
0010
0110
0010
0001
1000
0100
0000
1000
0001
,
0110
0000
0001
1000
0110
0100
1000
0001
1000
0000
0001
1000
0101
0000
0010
0000
,
1100
0010
1001
0100
0011
1000
0101
0010
,
1100
0000
0010
1000
0100
0000
0010
0001
0100
0010
1000
0100
0020
0000
0031
0000
,
2002
0000
0000
0000
0000
0000
0000
3003
,
2020
0000
0000
0000
0000
0000
0000
3030
,
0220
0000
0000
0000
0000
0000
0000
0330
,
1200
0000
0000
0001
0000
0000
0310
0000
0201
0000
0000
1000
0000
0000
0310
0000
2002
0000
0000
0000
0000
0000
0000
0000
0000
0000
0000
0000
0000
0000
0000
0000
,
0000
0000
0000
0000
3003
0000
0000
0000
1000
0100
1000
0100
1000
0100
0010
0001
,
0010
0001
0010
0001
1000
0010
0100
0001
1000
0010
0100
0001
1000
0000
0000
0000
,
1001
0000
1001
0000
1001
0000
0000
0000
0010
0000
0101
0000
1000
0100
1000
0100
,
1000
0010
1000
0010
0100
0001
0100
0001
0010
0001
0010
0001
1000
0010
0100
0001
,
0010
0100
1000
0100
0010
0001
1000
0100
0010
0001
0010
0100
1000
0010
0100
0001
,
0100
0000
0010
1000
0100
0000
0010
0001
0200
0000
0010
0000
0310
0000
0101
0000
,
1000
0000
0011
0000
0100
0000
2002
0000
3003
0000
1000
0100
1000
0100
1000
0100
,
1000
0100
0001
0100
0001
0100
0001
0100
0001
0100
0010
0001
0010
0001
0010
0001
,
0010
0001
1000
0010
1000
0010
1000
0010
1000
0010
0200
0000
0000
0000
1301
0000
,
0110
0000
2002
0000
3003
0000
0010
0001
1000
0100
1000
0010
0100
0010
0100
0001
,
0010
0100
1000
0010
0100
0010
1000
0010
0200
0000
0010
0000
0301
0000
1001
0000
,
1100
0101
1000
0011
1100
0011
1000
1010
,
0110
0000
0101
0000
0011
0000
1100
0000
0010
0100
0001
0000
0001
0000
1100
0000
,
1000
0000
1010
0000
1000
0001
0100
0000
0010
1000
0100
0000
0001
0000
0010
0000
,
1100
0100
0011
0001
0101
1100
0001
1100
,
1000
0000
0101
0000
0010
0000
1000
0100
1000
0000
1000
0000
0010
0000
0110
0000
,
0100
0000
0001
0000
1000
0000
0101
0000
0010
0100
1000
0100
0010
0001
0010
0100
,
1000
0001
0100
0001
0010
0100
0010
0100
1000
0001
1000
0010
0100
0010
1000
0001
,
1000
0010
1000
0010
0100
0001
1000
0000
1001
0000
0000
0000
1001
0000
0000
0000
,
0000
1010
0000
0101
1100
0000
0110
0000
,
0001
0010
0100
1000
0001
0000
0000
0000
1010
0100
0001
1000
0110
0000
0000
0000
,
0000
0000
0000
0011
0000
0000
0000
1010
0000
0000
0000
0110
0000
0000
0000
0102
0000
0000
0000
0000
0000
0000
0000
0000
,
1003
0000
0000
0000
0000
0000
0000
0000
1001
0000
0010
1000
0010
0000
0001
0000
,
0011
0000
0100
1000
0001
0000
1000
0000
0101
0000
0100
0001
1000
0000
1000
0000
,
1010
0000
0100
0001
0010
0000
0010
0000
1100
0000
0001
0000
1100
0000
0010
0000
,
0101
0000
1000
0000
0011
0000
0010
0001
0100
0000
0010
0000
0110
0000
0010
1000
,
0100
0010
1001
0000
1010
0110
0101
1001
,
0011
0110
1100
0001
1100
0110
0011
1001
,
0101
0110
1010
1000
1001
0100
1000
0001
,
0010
0000
1100
0000
0011
1001
1010
0110
,
0101
0000
1100
0000
0011
0000
0110
0000
1100
0000
0001
0010
0100
0000
0100
0000
,
0011
0000
0100
0000
0101
0000
1000
0100
0010
0000
0100
0000
1001
0000
0100
1000
,
0010
0010
0110
0100
1001
0110
1001
0100
,
0011
0000
1100
0000
0011
0000
1000
0100
0010
0000
0100
0000
1100
0000
0010
1000
,
0100
1000
2100
3001
1010
0101
1010
0100
,
0011
1100
0102
1003
0110
1010
0110
0101
,
1100
0000
1001
0000
0021
0000
0031
0000
0001
1000
0100
0010
0001
0100
0010
1000
,
0100
0010
0100
1000
0010
0100
0001
0010
0100
1000
0001
0010
0100
1000
0001
0100
,
0001
1000
0100
0010
0002
0000
0000
0000
0103
0010
1000
0001
0100
0010
1000
0001
,
0100
0000
0010
0000
0110
0000
1000
0000
0010
1000
0001
0100
0010
1000
0001
0100
,
0010
0000
0001
0000
0101
0000
0001
0000
1000
0100
0010
0001
1000
0100
0010
0100
,
1000
0000
0001
0000
0110
0000
0100
0000
0001
0100
0010
0100
0001
0010
0100
0000
,
1000
0000
0001
0000
1001
0000
0100
0000
0010
1000
0010
0100
0010
1000
0001
0010
,
0001
0000
0100
0000
0110
0000
0010
0000
1000
0100
1000
0010
0100
0010
1000
0100
,
1000
0000
0000
0001
0000
0000
1001
0000
0000
0001
0000
0000
0011
0000
0000
0000
0110
0000
0000
0000
1100
0000
0000
0000
,
1010
0000
0000
0000
0101
0000
0000
0000
0110
0000
0000
0000
1001
0000
0000
1001
0000
0000
1001
0000
0000
1001
0000
0000
,
0000
1001
0000
0001
1010
1000
0001
0101
,
0100
0001
1001
0100
0011
0010
0001
1000
,
1010
0100
1001
0001
0011
0100
1000
1001
,
0010
0100
1010
0100
1010
0100
0001
0010
,
1100
0010
0001
0010
1001
0100
0010
0110
,
1001
0010
0100
1000
0011
0010
0001
0100
,
0202
0000
0303
0000
1000
0000
1001
0000
0010
1000
0010
0000
0100
0000
1001
0000
,
0100
0001
0100
0000
1000
0000
0110
0000
0010
1000
0001
0000
0100
0001
0100
0001
,
0010
0100
0010
0100
1000
0000
0001
0000
0101
0000
0100
0000
0001
0000
1001
0000
,
0010
1000
1010
0100
1100
0100
1000
0001
,
0101
0010
1010
1000
0011
0100
1000
1100
,
0010
1000
1100
0001
0110
0100
0001
1100
,
0010
0100
0101
0001
1010
1010
1010
1010
,
0110
0110
0110
0110
0101
0101
0101
0101
,
1001
0000
1001
0000
0000
0000
0110
0000
0100
0001
0010
0100
1000
0001
0100
0001
,
0010
0100
1000
0010
0100
0010
1000
0001
0100
0010
0100
0010
1000
0001
0100
0010
,
2000
0000
0000
0000
3002
0000
0000
0000
0103
0010
1000
0100
0010
0001
0100
0010
,
0100
0010
1000
0000
0101
0000
1000
0000
1010
0000
0010
0000
1000
0000
1001
0000
,
0100
0001
0011
0100
0101
1000
1010
1001
,
0100
0001
1001
0100
1001
0010
1000
0010
,
0101
0000
1000
0000
0101
0000
0010
0000
0101
0000
0010
1000
0010
0000
0010
0000
,
1001
0000
0001
0010
0001
0000
0001
0000
1100
0000
1000
0100
1000
0000
1000
0000
,
0101
0000
0100
0001
0100
0000
0110
0000
0001
0100
0001
0100
0001
0100
0010
1000
,
0010
1000
0010
1000
0001
0010
0001
0010
0100
1000
0001
1000
0001
0100
0001
0010
,
0001
1000
0100
1000
0010
0100
0010
1000
0010
0000
0001
0010
0100
0000
0010
0000
,
0011
0000
1000
0100
0010
0000
0110
0000
1001
0000
0010
1000
0100
0000
1000
0000
,
0110
0000
0010
0100
0001
0000
1000
0000
1001
0000
0100
0001
1000
0000
0010
0000
,
0011
0000
0010
0001
1000
0000
0010
0000
1000
0100
1000
0100
1000
0000
0001
0100
,
0001
0100
0001
0000
0110
0000
0100
0000
0101
0000
0100
0000
0001
0000
1001
0000
,
0010
1000
1010
0100
1100
0100
1000
1001
,
0100
0001
0010
0100
1001
0100
0010
1100
,
0100
1000
0011
0001
0101
0100
0010
1100
,
0010
0000
1001
0000
1100
0000
1000
0000
0001
0010
0001
0000
1001
0000
0010
0001
,
0100
0000
0110
0000
0110
0000
0001
0000
1000
0001
0010
0001
0010
0001
1000
0001
,
0100
0001
0100
0001
1000
0001
0010
0001
0200
0000
0000
0000
0000
0000
0000
0000
,
0302
0000
0023
0030
,
1100
0000
0000
0000
0110
0000
0000
0000
0001
0010
0100
1000
0001
0100
0010
1000
,
0001
0010
0100
1000
0001
0000
0100
0000
0010
1000
0010
0100
0001
0100
0001
1000
,
0010
0100
0001
1000
0001
0000
0000
0000
1000
0010
0100
0010
0100
0010
1000
0100
,
0010
0100
0010
0100
1000
0010
0100
0010
1000
0100
1000
0100
1000
0000
0110
0000
,
0001
0010
0001
0010
0001
0000
0001
0000
1020
0000
0000
0000
0000
0000
0230
0000
,
0000
0000
0302
0000
0203
0000
0000
0302
,
0000
0000
0000
0000
0023
0000
0000
0000
0031
1000
0010
0100
0001
1000
0010
0100
,
0001
0100
0010
1000
0100
1000
0001
0010
0100
0000
0000
0000
0000
0000
0000
0000
,
1100
0000
0000
0000
0011
0011
0000
0101
,
0101
0000
0000
0000
0000
0000
0000
0000
0020
0000
1030
0100
1000
0000
1000
0010
,
1000
0000
0110
0000
0001
0000
0101
0000
1000
0000
0010
0100
0001
0100
0010
1000
,
0010
0100
0001
1000
0010
0100
0002
0000
0013
0100
1000
0100
0010
0001
1000
0001
,
1000
0100
2000
0000
3010
0000
0110
0000
0010
0000
1010
0000
1000
0000
0001
1000
,
0001
0100
0002
0000
0203
0000
0320
0000
2030
0000
3100
1000
0100
1000
0001
1000
,
0001
1000
0001
0010
0001
0010
0100
0010
0100
0010
0100
1000
0100
1000
0001
1000
,
0001
1000
0100
0010
0100
0010
0001
0100
0001
0100
0020
0000
0130
0000
0102
0000
,
2003
0000
3002
0000
0203
0000
0310
0000
0010
0000
0101
0000
1000
0000
0001
1000
,
0010
1000
0001
0000
0100
0000
1100
0000
0010
0000
0010
0000
0100
0000
0110
0000
,
0001
0001
1000
1001
1000
0110
0010
1100
,
0010
0011
0100
1001
0100
0110
0010
0110
,
0100
0001
1000
0000
0010
0000
1100
0000
0010
0001
0100
0000
0001
0000
0110
0000
,
0001
0010
0001
0000
1100
0000
0010
0000
0110
0000
0100
0000
0101
0000
1001
0000
,
1000
0101
0001
1000
0001
1100
0010
1100
,
0001
0000
0010
0100
0010
0100
1000
0000
1010
0000
0000
0000
0101
0000
1001
0000
,
0000
0000
1001
0000
0000
0000
1010
0000
1000
0100
0010
0001
1000
0100
0010
0100
,
1000
0010
0100
0001
0100
0001
0010
0000
0110
0000
0000
0000
0110
0000
0000
0000
,
0000
0011
0000
1100
0101
0000
0110
0000
,
1000
0100
0010
0001
1000
0000
0000
0000
1001
0100
0010
0100
1001
0000
0000
0000
,
0000
0110
0000
0101
2200
0000
0000
3300
,
1100
0000
1010
0000
1010
0010
0110
0001
,
0101
0001
1000
1010
1000
0101
0001
1100
,
0010
0100
0011
1000
0110
0001
0010
0110
,
0100
1000
1100
0010
0110
0100
0011
1000
,
1100
0000
1000
0100
1000
0000
0010
0000
0101
0000
0001
0000
1000
0000
1010
0000
,
0001
0010
0110
1000
1010
0100
1000
0101
,
0100
0010
1001
0100
1001
0010
0100
0101
,
0001
1000
1010
0001
1010
0100
1001
0110
,
1001
0000
0110
0000
0101
0000
1000
0000
0010
1000
0010
1000
0010
1000
0001
0100
,
0001
0100
0001
0100
0010
0100
0010
0100
0001
1000
0001
1000
0001
1000
0010
1000
,
0010
1000
0010
1000
0002
0000
0003
0000
0101
0000
0010
0000
1000
0000
0110
0000
,
0100
0000
0001
0000
1001
0000
0010
0000
1100
0000
0001
0100
0001
0000
1000
0000
,
0011
0010
0101
1000
1010
0010
1000
1001
,
0100
0001
1001
0100
1001
0001
0010
0011
,
1000
0000
0100
0000
1100
0000
1000
0000
0010
1000
0010
0000
0100
0000
0001
0000
,
1000
0000
1100
0000
1000
0001
1000
0000
0001
0010
0001
0100
0010
1000
0100
1000
,
0100
0010
0100
0010
0100
0000
0000
0000
1000
0100
0010
0001
1000
0100
0010
0001
,
1000
0000
0001
0000
0011
0000
0010
0000
0001
0010
0100
1000
0001
0010
0100
1000
,
0001
0000
0100
0000
1100
0000
1000
0000
0010
1000
0010
1000
0001
0100
0001
0100
,
0010
0000
0100
0000
1001
0000
0010
0000
1000
0100
1000
0001
0010
0001
0010
0100
,
1000
0000
0001
0000
0110
0000
0010
0000
0100
0001
0100
0001
0010
0100
0010
0100
,
1000
0000
0010
0000
1001
0000
0100
0000
0001
0100
0001
0010
0100
1000
0010
1000
,
0010
0000
0000
0100
0000
0000
0110
0000
0000
0010
0000
0000
1010
0000
0000
0000
0110
0000
0000
0000
0110
0000
0000
0000
,
0011
0000
0000
0000
1100
0000
0000
0000
1001
0000
0000
0000
0101
0000
0000
0101
0000
0000
0000
0000
0000
0101
0000
0000
,
0000
0000
1010
0000
0110
0000
1000
0000
0001
0010
0001
0000
0010
0000
0110
0000
,
0100
1000
1001
0100
0011
0100
0001
1000
,
0101
0000
1000
0000
0011
0000
0010
0000
0100
1000
0100
0000
1000
0000
0010
0000
,
0000
0000
0010
0000
0110
0000
0100
0000
0001
1000
0100
0000
0001
0010
0001
0010
,
0001
0000
0001
0000
1000
0000
0010
0000
0100
0001
0100
0001
1000
0100
1000
0100
,
1000
0001
1000
0001
0010
0100
0010
0100
1000
0001
1000
0010
1000
0001
1000
0100
,
1000
0001
1000
0100
1000
0001
0100
0001
0010
0001
1000
0001
0010
0100
1000
0001
,
0100
0001
0010
0100
1000
0001
0100
0000
0010
1000
0010
0100
0001
1000
0010
1000
,
0001
0100
0010
1000
0001
1000
0100
0000
1001
0000
0100
0000
0010
0000
1001
0000
,
0010
0100
1001
1000
1100
1000
0010
0100
,
0101
0001
1001
0001
0011
0100
1000
1100
,
0010
0001
0110
1000
0110
0001
0010
0110
,
0100
1000
1001
0100
0101
0101
0101
0101
,
1100
1100
1100
1100
1010
1010
1010
1010
,
1001
0000
0100
0000
0000
0000
1000
0000
0010
0100
0010
0100
0010
0100
0001
1000
,
0001
1000
0001
1000
0001
0000
0100
0000
0010
0000
0000
0000
1000
0001
0100
0010
,
1000
0000
0000
0000
0110
0000
0000
0000
0001
0100
0001
0100
0001
0010
0001
0010
,
0001
0100
0010
1000
1100
0100
0010
1001
,
0001
0100
1001
0010
1001
0100
0010
1001
,
0100
0000
0010
0000
1000
0100
1000
0000
0010
0000
0100
0000
0001
0010
0001
0000
,
1100
0000
0001
0000
1010
0000
0001
0000
1100
0000
0100
0010
0001
0000
0010
0000
,
0100
0000
0010
0001
0010
0000
0100
0000
1100
0000
1000
0000
0001
0000
1001
0000
,
0100
1000
0011
0100
0101
1000
0001
0101
,
0001
0000
1000
0000
0011
0000
0100
0000
1000
0010
1000
0000
0010
0000
0010
0000
,
0100
0001
0100
0000
0001
0000
0001
0000
1000
0000
0100
1000
0010
0000
0100
0000
,
0010
0000
0100
0001
0010
0000
0100
0000
1001
0000
0100
0000
0010
0000
1010
0000
,
0010
0100
0101
0001
0101
0100
0010
1010
,
1000
0000
0100
0000
0010
0100
0010
0001
0100
0001
0100
0001
0100
0010
1000
0001
,
1000
0001
0010
0000
0011
0000
0001
0000
0101
0000
0010
0000
1000
0000
1100
0000
,
0100
1000
1010
0010
0110
0100
0001
1001
,
0010
0100
1010
0100
1100
0100
1000
1001
,
0100
0010
1010
0001
0011
0100
1000
0101
,
0000
0000
0110
0000
0100
0000
0000
0000
1000
0100
1000
0010
0100
0010
0100
0001
,
0010
0001
0100
0010
1000
0001
1000
0001
0010
0100
0010
0100
1000
0100
0010
0100
,
1000
0010
0100
0001
0010
0001
0010
0100
0020
0000
0000
0000
0000
0000
0000
0000
,
0200
0030
2000
3300
,
0110
0000
0000
0000
0101
0000
0000
0000
1000
0010
1000
0010
1000
0010
1000
0010
,
1000
0001
1000
0001
1000
0001
1000
0001
0010
0001
0010
0001
0010
0001
0010
0001
,
0010
0100
0010
0100
0010
0100
0010
0100
1000
0001
0010
0001
0010
0001
1000
0001
,
0100
0001
0100
0001
0010
0001
1000
0001
0100
0010
0100
0010
0100
0010
0100
0010
,
1000
0010
1000
0010
1000
0010
1000
0010
0200
0000
0000
0000
0000
0000
0302
0000
,
0000
0000
2003
0000
3002
0000
0000
0023
,
0000
0000
0000
0000
0230
0000
0300
0000
0001
1000
0001
0010
0100
0010
0001
1000
,
0001
0010
0100
0010
0001
0100
0010
1000
0101
0000
0000
0000
0000
0000
0000
0000
,
1010
0000
0000
0000
0110
0110
0000
1001
,
1001
0000
0000
0000
0220
0300
1030
0001
,
1000
0001
2000
3020
1030
0001
1000
0001
,
1000
0001
0200
0301
1001
0001
0100
0001
,
0010
1000
0010
1000
0010
0100
0010
0100
,
1000
0100
0010
0001
0110
0100
1000
0010
,
0001
1000
0001
0010
1000
0001
1000
0100
,
0001
1000
0001
0100
1100
0001
0100
0010
,
0100
0010
0100
0001
0101
1100
0000
1001
,
0000
0000
0100
0000
0020
0000
0000
0000
2030
0000
3010
0100
0002
0000
2003
0000
,
3002
0000
0013
0100
2000
0000
3020
0000
0100
0000
0000
0100
0000
0000
0130
0001
,
0020
0000
0130
1000
0102
0000
0203
0000
0010
0000
0310
1000
0002
0000
2003
0000
,
3002
0000
0013
0100
2000
0000
0100
0000
3020
0000
0000
0230
0000
0000
0301
0010
,
1001
0000
1000
0010
0101
0000
0101
0000
2000
0000
3001
0010
0021
0000
0230
0000
,
0320
0000
0031
0010
1200
0000
2300
0000
3002
0000
0000
0023
0000
0000
0130
0000
,
2001
0000
3010
0100
0201
0000
0301
0000
0002
0000
0013
0100
1200
0000
1300
0000
,
2000
0000
3010
0100
1020
0000
0230
0000
0320
0000
0130
0001
0011
0000
0100
0000
,
1000
0100
1000
0001
0100
0001
1000
0100
1000
0001
0100
0001
1000
0100
1000
0001
,
1000
0001
1100
0101
1100
0001
1000
0001
,
0101
1100
0101
1000
0001
1000
0001
1100
,
0101
1100
0101
1000
0001
1000
0010
0101
,
1100
0101
1100
0001
0100
0001
1000
0101
,
1100
0101
1100
0001
1000
0001
0010
0011
,
1010
0011
1010
0100
0010
0100
0010
1010
,
0011
1010
0011
0100
1000
0001
1000
0101
,
1001
0100
0010
1000
0100
1000
0010
0100
,
1010
0101
1010
0101
0001
0010
0100
1000
,
0011
1100
0011
1100
0001
0010
0100
1000
,
1100
0011
1010
0101
1000
0010
0100
0001
,
0101
1010
0011
1100
0100
0010
0001
0100
,
0110
1010
0110
0101
1000
0001
1000
0010
,
0101
1001
0011
0110
0100
1000
0001
1000
,
1100
0101
1010
1100
0001
0010
0100
1000
,
0011
0101
0011
0101
0010
1000
0100
1000
,
1010
1001
0000
1001
0000
1001
0000
0100
,
0101
1000
1010
1000
1010
0010
1010
1000
,
1001
0100
0010
0100
1001
0000
1001
0000
1001
0000
1001
0000
1001
0000
1001
0000
,
2200
0000
0000
3300
,
0001
0010
0001
0010
0001
0010
0001
0010
1000
0010
1000
0010
1000
0010
1000
0010
,
0001
0100
0001
0100
0001
0100
0001
0100
0010
1000
0010
1000
0100
1000
0100
1000
,
0010
0100
0010
0100
0010
1000
0100
1000
0010
0100
0001
0010
0001
0100
0010
1000
,
0001
0000
1000
0000
0001
0000
1000
0100
0010
0000
0010
0000
0100
0000
0001
0010
,
0100
0000
0100
0000
1000
0000
0001
0100
0001
0100
0010
1000
0010
1000
0001
0100
,
0001
0100
0010
1000
0010
1000
0001
0000
0001
0000
1001
0000
1001
0000
1000
0000
,
0010
0100
0010
0100
0010
0100
0001
0100
0001
0100
0001
0100
0010
0100
0010
0100
,
0010
1000
0010
1000
0001
0010
0001
0010
0001
0010
0100
1000
0100
1000
0100
0000
,
0110
0000
0001
0010
0100
0000
0001
0000
0011
0000
1000
0100
0010
0000
0010
0000
,
1100
0000
0010
1000
0100
0000
1000
0000
1010
0000
0100
0010
1000
0000
0001
0000
,
0110
0000
0100
0001
0010
0000
0100
0000
0011
0000
0010
0001
0100
0000
0001
0000
,
0011
0000
1000
0001
0100
0000
1000
0000
0101
0000
0010
1000
0100
0000
0001
0000
,
1000
0010
0100
0001
1000
0010
0100
0001
1000
0100
0010
0001
1000
0100
0010
0001
,
0100
0001
1000
0010
0100
0001
1000
0010
1000
0100
0020
0000
0032
0000
0003
0000
,
2000
0000
0000
0000
3001
0010
0001
0000
0110
0000
1100
0000
0001
1000
0001
0000
,
0110
0000
0100
0010
0100
0010
0100
0010
0100
0010
0100
0010
0100
0010
0100
0010
,
1001
0010
1000
0100
1001
0010
0001
0100
,
1001
0100
0010
0100
1002
0000
0020
0033
,
1100
1001
1100
1001
0011
0110
0011
0110
,
1010
1001
1010
1001
0101
1001
0101
0110
,
1001
0100
0010
0000
1000
0000
0010
0000
1100
0010
0001
0000
0100
0000
1000
0000
,
1010
0100
0001
0000
0100
0000
0010
0000
2100
0000
0000
0000
0002
0000
3003
0000
,
0001
0100
0001
0100
0010
0000
0010
0000
1000
0010
1000
0010
0100
0000
0100
0000
,
1001
0000
1001
0000
1001
0110
1001
0000
,
1000
0000
0010
0000
0100
0001
0010
0000
0100
0000
0010
0000
0100
0010
0001
0000
,
1000
0000
0100
0000
0010
0100
1000
0000
0010
0000
0100
0000
0010
1000
0100
0000
,
1000
0000
0001
0100
0001
0100
0001
0100
0001
0100
0001
0100
0001
0100
0020
0000
,
2030
0000
3001
0000
0100
1000
0010
0000
0100
0000
0010
0000
0100
0001
0010
0000
,
0100
0000
0110
0000
0010
0001
0100
0000
1000
0000
1001
0000
0010
1000
0100
0000
,
0001
1001
0100
0020
0000
0000
0000
0000
,
0031
1000
0010
0100
0001
0010
0100
1000
0100
0010
0001
0100
0010
1000
0100
1000
,
0010
0100
0001
0100
0010
1000
0010
1000
0001
1000
0001
1000
0001
0100
0001
0100
,
0001
0100
0010
0000
1000
0100
0010
0000
1000
0000
0100
0000
0001
0010
0100
0000
,
1010
0000
0101
0000
0001
1000
0100
0000
0010
0000
1001
0000
0010
0001
1000
0000
,
0001
0000
1100
0000
0010
1000
0100
0000
0001
0000
1100
0000
0001
1000
0010
0000
,
0001
0000
0011
0000
0100
0000
1000
0010
1000
0001
0010
0001
1000
0010
1000
0001
,
0010
0001
2000
0000
3010
0100
0010
0100
0001
0000
0001
0000
0010
0100
0010
0100
,
1000
0010
0100
0010
1000
0100
0010
0100
1000
0010
0100
0010
1000
0100
0010
0100
,
1000
0101
0010
0101
,
1000
0010
1000
0010
1000
0000
1000
0000
0001
0100
0001
0100
0001
0000
0001
0000
,
0020
0000
0000
2030
0000
0000
3020
0000
,
0032
0000
0000
0203
0000
0000
2300
0000
,
3200
0000
0000
0302
0000
0000
0023
0000
,
0230
0000
0000
0000
,
2300
0000
0000
3020
0000
0000
2030
0000
,
3002
0000
0000
0023
0000
0000
0032
0000
,
1003
0010
1000
0010
0100
0001
0100
0001
0010
0100
0010
0100
1000
0010
0100
0001
,
0010
0000
0001
1100
0000
0010
0101
0001
,
2000
0000
0000
3020
0000
0000
0032
0000
,
0023
0000
0000
2030
0000
0000
3002
0000
,
0203
0000
0000
0302
0000
0000
0023
0000
,
0230
0000
0000
0000
,
2300
0000
0000
3200
0000
0000
2300
0000
,
3020
0000
0000
0230
0000
0000
0302
0000
,
0023
0000
0000
0032
0203
0000
0000
0000
,
0301
1000
0001
1000
0010
1000
0001
1000
0001
0100
0001
1000
0001
1000
0100
1000
,
0001
0010
0100
0010
0100
0010
0100
0010
0100
1000
0100
1000
0100
1000
0100
1000
,
0001
0100
0001
0100
0001
0100
0001
0100
0010
1000
0010
1000
0010
1000
0010
1000
,
0001
0000
1000
0000
0001
0100
0001
0000
1000
0000
0001
0000
0010
0100
0010
0000
,
0001
0000
1000
0000
0100
0010
0100
0000
1000
0000
0001
0000
1000
0010
1000
0000
,
0001
0000
0100
0000
1000
0100
1000
0000
0002
0000
2000
0000
3003
0000
0011
0000
,
0101
1010
0101
2200
0000
0000
0000
0000
,
3300
1001
0101
0011
,
1010
0210
0000
0302
,
0023
0000
0230
2300
0000
0000
0000
3000
,
1000
0010
1000
0010
1000
0010
1000
0001
1000
0100
1000
0100
1000
0100
1000
0001
,
0100
0010
1000
0001
0100
0010
1000
0100
0010
0001
0100
0010
1000
0100
0010
0001
,
0100
0010
1000
0001
0100
0010
1000
0001
0100
0010
1000
0001
0010
0100
1000
0001
,
0010
0100
1000
0001
0100
0010
0100
0001
0100
0010
0100
0001
1000
0010
2000
0000
,
3002
0000
1003
0010
1000
0010
1000
0010
1000
0010
0100
0010
0200
0000
0000
0000
,
0302
0023
2030
3002
2003
3020
0032
2003
,
3002
0203
2300
3002
2003
3200
0302
2003
,
3020
0000
0100
0130
0002
0000
2003
3020
,
2030
0000
3200
0000
0320
0000
0032
0000
1003
0100
0010
0100
0010
0100
0010
0100
,
1000
0010
0100
0010
0100
0010
0100
0010
1000
0010
0100
0001
1000
0010
0100
0001
,
1000
0100
0010
0001
1000
0100
0010
0001
0010
0100
1000
0001
0020
0000
0000
0000
,
0031
0100
0010
1000
0001
0010
0100
1000
0001
0100
0010
0100
0001
1000
0100
0010
,
0100
1000
0010
0100
0010
1000
0001
0010
0200
0000
0300
0000
0012
0000
0000
0000
,
2000
0000
0000
0000
0000
0003
3010
0000
,
0102
0000
1000
2003
0000
0000
3020
0030
,
0201
0000
0001
0302
0000
0000
0000
0000
,
0000
0003
2000
3020
,
0130
0000
0000
0100
0001
0000
0000
0001
0010
0000
0000
0010
0100
0000
0000
0100
,
1000
0000
0000
1000
0010
0000
0000
0010
0100
0000
0000
0100
0001
0000
0000
0001
,
0010
0100
0010
0100
0010
0100
1000
0010
0100
0010
0100
0010
1000
0100
0010
0100
,
1000
0010
0100
0001
0010
0001
0010
0001
0010
0000
0000
0000
1100
0000
0000
0000
,
0101
1000
0010
0100
0010
0001
0101
1000
,
1010
0010
1000
1001
0100
0001
1001
1000
,
1100
0010
0100
0011
0100
0001
1010
0100
,
0101
1000
0001
1000
0011
1000
1100
0010
,
1010
0000
0100
0001
0100
0000
1000
0000
0001
0000
1000
0100
1000
0000
0010
0000
,
0110
0100
0001
1001
0010
1000
1001
0100
,
0001
0010
0001
0010
0001
0010
0100
1000
0100
1000
0100
1000
0001
0010
0100
1000
,
0001
0100
0010
0100
0010
0100
0010
0100
0010
0000
0000
0000
1001
0000
0000
0000
,
0100
0000
1100
0000
0100
1000
0001
0000
0010
0000
0100
0000
1100
0000
1000
0000
,
1001
0001
0010
0011
0001
0100
0101
0100
,
0110
0000
0010
0000
1000
0000
1001
0000
0100
0000
0001
0000
0010
0000
0100
1000
,
0100
1000
0010
0000
0100
0000
0001
0010
0001
0010
0100
0000
1001
0000
0100
0000
,
1001
0010
0100
1001
0100
0010
1001
0010
,
1001
0100
0001
1010
0100
1000
1010
0100
,
1100
0001
0010
0110
0100
0010
0011
0001
,
0101
0100
0001
1100
1000
0001
1010
0010
,
0210
0000
0001
0001
0000
0000
0310
0000
,
0120
0000
1000
1000
0000
0000
0130
0000
,
0001
1000
0001
1000
0001
1000
0001
1000
0010
0100
0010
0100
0010
0100
0010
0100
,
0001
0010
0001
0010
0001
0010
0001
0010
0100
0000
0000
0000
1100
0000
0000
0000
,
1000
0100
0010
0100
0010
0100
1000
0010
0100
0001
0010
0001
0100
0010
1000
0100
,
1000
0100
0010
0100
1000
0001
0010
0100
0010
0001
1000
0001
0010
0100
0010
0000
,
0101
1000
0010
0110
0010
1000
1100
1000
,
0001
0100
0001
0100
0001
0000
0001
0000
1000
0010
1000
0010
1000
0000
1000
0000
,
0020
0000
0000
0230
0000
0000
0302
0003
,
0120
0000
0000
0230
0000
0000
2300
0000
,
3001
0100
0010
0100
0001
0010
0100
0010
0001
0100
0010
0100
0001
0010
0100
1000
,
0010
0101
1010
0101
,
1000
0100
0010
0001
1000
0100
0010
0001
1000
0100
0010
0001
1000
0100
0010
0001
,
1000
1100
0001
1100
,
0010
1100
0010
0101
,
1000
1001
0100
0101
,
0010
0101
1000
1001
,
0001
0010
0100
1000
0001
0010
0100
1000
0001
0010
0100
1000
0001
0010
0100
1000
,
0001
0010
0100
1000
0001
0010
0100
0010
0001
0100
0010
0100
0001
0010
0100
1000
,
0011
0000
0110
0000
,
1010
0101
1010
0101
2020
0000
0000
0000
,
0000
0000
3030
0000
;
