#TITLE:Guayoteo;
#SUBTITLE:(feat. Tony Touch);
#ARTIST:Jowell & Randy;
#TITLETRANSLIT:;
#SUBTITLETRANSLIT:;
#ARTISTTRANSLIT:;
#CREDIT:;
#BANNER:banner.PNG;
#BACKGROUND:Hardcore Symphony-bg.png;
#LYRICSPATH:;
#CDTITLE:;
#MUSIC:Guayoteo Remix.ogg;
#OFFSET:-0.038;
#SAMPLESTART:11.000;
#SAMPLELENGTH:21.140;
#SELECTABLE:YES;
#BPMS:0.000=179.500,56.000=180.000,492.000=90.000,496.000=180.000,528.000=90.000,536.000=180.000,580.000=90.000,584.000=180.000,708.000=90.000,712.000=180.000;
#STOPS:56.000=1.000
,58.000=0.320
,96.000=0.680
,150.000=1.020
,163.000=1.000
,572.000=1.320
,652.000=0.166
,652.500=0.166
,653.000=0.166
,653.500=0.166
,682.000=0.169
,682.500=0.167
,683.000=0.165
,683.500=0.175
,786.000=0.600
,786.250=0.900
,786.500=0.160
,787.000=0.840
,787.500=0.180
;
#BGCHANGES:;
// cache tags:
#FIRSTBEAT:16.000;
#LASTBEAT:824.000;
#SONGFILENAME:Songs/Reggaeton and more/Guayoteo (Tony Touch Mix)/Guayoteo Tony Touch Mix.sm;
#HASMUSIC:1;
#HASBANNER:1;
#MUSICLENGTH:292.044;
// end cache tags

//---------------dance-double - M.Emirzian----------------
#NOTES:
     dance-double:
     M.Emirzian:
     Easy:
     4:
     0.080,0.112,0.027,0.048,0.000,142.000,8.000,14.000,0.000,0.000:





00000000
00000000
00000000
00000000
,
00000000
00000000
00000000
00000000
,
00000000
00000000
00000000
00000000
,
00000000
00000000
00000000
00000000
,
00010000
00000000
00000000
00000000
,
10000000
00000000
00000000
00000000
,
01000000
00000000
00000000
00000000
,
00100000
00010000
10000000
01000000
,
10000000
00000000
00010000
00000000
,
01000000
00001000
00010000
00000010
,
00001000
00000000
00000001
00000000
,
00000010
00000001
00001000
00000010
,
00000100
00000000
00000001
00000000
,
00001000
00000100
00010000
00001000
,
01000000
00000000
00010000
00000000
,
10000000
00100000
01000000
00010000
,
00100000
00000000
00001000
00000000
,
00000000
00000000
00010000
00000000
,
00000000
00000000
00000100
00000000
,
00000000
00000000
00001000
00000000
,
00000000
00000000
00000001
00000000
,
00000000
00000000
00001000
00000000
,
00000000
00000000
00000100
00000000
,
00000000
00000000
00010000
00000000
,
00001000
00000000
01000000
00000000
,
00010000
10000000
01000000
00000000
,
00220000
00000000
00000000
00330000
,
00202000
00000000
00000000
00303000
,
00010000
00000000
00001000
00000000
,
01000000
00001000
00010000
00000000
,
00020020
00000000
00000000
00030030
,
00002020
00000000
00000000
00003030
,
00000100
00000000
00000001
00000000
,
00001000
00000100
00000010
00000000
,
00000022
00000000
00000000
00000033
,
00002200
00000000
00000000
00003300
,
00010000
00000000
00000100
00000000
,
00010000
00001000
01000000
00000000
,
02020000
00000000
00000000
03030000
,
00100000
10000000
01000000
00100000
,
00010000
00000000
00000000
00000000
,
10000000
00000000
00000000
00000000
,
00001000
00000000
00000000
00000000
,
00010000
00000000
00000000
00000000
,
00000001
00000000
00000000
00000000
,
00000100
00000000
00000000
00000000
,
00000010
00000000
00000000
00000000
,
00010000
00000000
00000000
00000000
,
01000000
00000000
00000000
00000000
,
10000000
00000000
00000000
00000000
,
00001000
00000000
00000000
00000000
,
00010000
00000000
00000000
00000000
,
00000010
00000000
00000000
00000000
,
00001000
00000000
00000000
00000000
,
00000001
00000000
00000000
00000000
,
00001000
00000100
00000010
00000001
,
00001000
00000000
00000010
00000000
,
00001000
00000100
00010000
00001000
,
01000000
00000000
00100000
00000000
,
10000000
01000000
00100000
00010000
,
10000000
00000000
00100000
00000000
,
01000000
00001000
00010000
00000010
,
00001000
00000000
00000001
00000000
,
00000010
00000100
00001000
00000001
,
00000100
00000000
00000010
00000000
,
00001000
00000100
00010000
00001000
,
01000000
00000000
00100000
00000000
,
10000000
00010000
10000000
01000000
,
00100000
00000000
00010000
00000000
,
01000000
00001000
00010000
00000100
,
00001000
00000000
00000010
00000000
,
00000100
00000001
00000100
00000010
,
00001000
00000100
00010000
00011000
;

//---------------dance-double - M.Emirzian----------------
#NOTES:
     dance-double:
     M.Emirzian:
     Medium:
     6:
     0.097,0.137,0.027,0.000,0.000,191.000,8.000,0.000,0.000,0.000:





00000000
00000000
00000000
00000000
,
00000000
00000000
00000000
00000000
,
00000000
00000000
00000000
00000000
,
00000000
00000000
00000000
00000000
,
00010000
01000000
00010000
10000000
,
01000000
00100000
00000000
00000000
00010000
00000000
01000000
00000000
,
00001000
00010000
00001000
00100000
,
00001000
00010000
00011000
00010100
,
00000100
00001000
00000100
00000000
,
00000010
00000100
00000010
00000000
00000100
00000000
00001000
00000000
,
00000001
00000000
00000100
00000000
,
00000010
00001000
00000010
00000000
00001000
00000000
00000100
00000000
,
00010000
00001000
00010000
00000000
,
00001000
01000000
00001000
00000000
01000000
00000000
00010000
00000000
,
00100000
00000000
00010000
00000000
,
01000000
00100000
01000000
00000000
00010000
00000000
10000000
00000000
,
01000000
00100000
00000000
00000000
00000000
00010000
00000000
00000000
,
00000000
01000000
00000000
00000000
00000000
00001000
00000000
00000000
,
00000000
00010000
00000000
00000000
00000000
00000100
00000000
00000000
,
00000000
00001000
00000000
00000000
00000000
00000010
00000000
00000000
,
00000000
00001000
00000000
00000000
00000000
00000100
00000000
00000000
,
00000000
00000010
00000000
00000000
00000000
00000001
00000000
00000000
,
00000000
00000100
00000000
00000000
00000000
00000010
00000000
00000000
,
00000000
00010000
00000000
00000000
00000000
00001000
00000000
00000000
,
01000000
00000000
00010000
00000000
,
00100000
00010000
00100000
00000000
,
01000000
10000000
10000000
00000000
,
00010000
01000000
01000000
00000000
,
00001000
00000000
00010000
00000000
,
00000100
00001000
00000100
00000000
,
00000010
00000001
00000001
00000000
,
00001000
00000100
00000100
00000000
,
00010000
00000000
00001000
00000000
,
01000000
00010000
00010000
00000000
,
00100000
00001000
00001000
00000000
,
01000000
00010000
00010000
00000000
,
10000000
00000000
01000000
00000000
,
00100000
00010000
00010000
00000000
,
01000000
00000000
00001000
00000000
,
00010000
00000100
00001100
00001001
,
00001000
00000000
00000000
00000000
,
00000010
00000000
00000000
00000000
,
00010000
00000000
00000000
00000000
,
00001000
00000000
00000000
00000000
,
01000000
00000000
00000000
00000000
,
00010000
00000000
00000000
00000000
,
10000000
00000000
00000000
00000000
,
01000000
00000000
00000000
00000000
,
00010000
00000000
00000000
00000000
,
00001000
00000000
00000000
00000000
,
00000100
00000000
00000000
00000000
,
00000001
00000000
00000000
00000000
,
00000010
00000000
00000000
00000000
,
00000100
00000000
00000000
00000000
,
00001000
00000000
00000001
00000000
,
00000100
00000010
00001010
00010010
,
00010000
00001000
00010000
00000000
,
00000100
00010000
00001000
00000000
01000000
00000000
00010000
00000000
,
10000000
00000000
01000000
00000000
,
00100000
00010000
00100000
00000000
00010000
00000000
01000000
00000000
,
00001000
00010000
00001000
00000000
,
00010000
00000100
00010000
00000000
00000100
00000000
00001000
00000000
,
00000001
00000000
00000010
00000000
,
00000100
00001000
00000100
00000000
00000010
00000000
00000001
00000000
,
00001000
00000010
00000100
00000000
,
00000001
00001000
00000001
00000000
00000100
00000000
00000010
00000000
,
00001000
00000000
00000100
00000000
,
00010000
00001000
00010000
00000000
00000100
00000000
00010000
00000000
,
00001000
01000000
00010000
00000000
,
10000000
01000000
10000000
00000000
00010000
00000000
01000000
00000000
,
00100000
00000000
10000000
00000000
,
01000000
00100000
01000000
00000000
00100000
00000000
00010000
00000000
,
01000000
00001000
00011000
00010100
;

//---------------dance-double - M.Emirzian----------------
#NOTES:
     dance-double:
     M.Emirzian:
     Hard:
     9:
     0.185,0.199,0.096,0.014,0.000,346.000,28.000,4.000,0.000,0.000:





00000000
00000000
00000000
00000000
,
00000000
00000000
00000000
00000000
,
00000000
00000000
00000000
00000000
,
00000000
00000000
00000000
00000000
,
00000200
00000302
00002003
00003200
,
00000310
00000001
00000000
00000100
00000010
00001000
00000100
00010000
,
00001000
00010000
00100000
01000000
,
10010000
01100000
11000000
00110000
,
01000000
00100000
10000000
00010000
,
00100000
01000000
00000000
10000000
00010000
01000000
00001000
00010000
,
00001000
00000100
00001000
00010000
,
00000100
00000010
00000000
00000100
00001000
00000001
00000100
00001000
,
00000100
00000001
00001000
00000100
,
00000010
00000100
00000000
00010000
00001000
01000000
00100000
01000000
,
00010000
00100000
01000000
10000000
,
00010000
00100000
00000000
00010000
01000000
00100000
10000000
01000000
,
00100000
00010000
00000000
01000000
00000000
00100000
00000000
10100000
,
00000000
01000000
00000000
00100000
00000000
00010000
00000000
01001000
,
00000000
00010000
00000000
00100000
00000000
00010000
00000000
00011000
,
00000000
00000010
00000000
00000100
00000000
00001000
00000000
00001001
,
00000000
00000010
00000000
00000100
00000000
00000001
00000000
00001010
,
00000000
00000100
00000000
00010000
00000000
00001000
00000000
01001000
,
00000000
00100000
00000000
00010000
00000000
00001000
00000000
01100000
,
00000000
00010000
00000000
01000000
00000000
10000000
00000000
01000000
,
00010000
00000000
10000000
01000000
00010000
00000000
01000000
10000000
,
00100000
10000000
01000000
00010000
00001000
00000000
01000000
00000000
,
00100000
00010000
00001000
00000000
00000010
00000000
00001000
00000000
,
00010000
00100000
00010000
00000000
00001000
00000010
00001000
00010000
,
00000100
00000000
00000010
00000100
00001000
00000000
00000001
00000100
,
00001000
00000100
00000001
00000010
00000001
00000000
00000100
00000000
,
00000010
00001000
00000100
00000000
00010000
00000000
00100000
00000000
,
00010000
00001000
00000100
00000000
00001000
00010000
01000000
00010000
,
00001000
00000000
01000000
00100000
00010000
00000000
00100000
10000000
,
00100000
00010000
01000000
00010000
00100000
00000000
10000000
00000000
,
01000000
00100000
00001000
00000000
00010000
00000000
01000000
00000000
,
00010000
00001000
00000010
00000000
00001000
00010000
00100000
00010000
,
00001000
00000000
00000010
00000100
00001000
00000000
00000010
00000100
,
00000001
00000010
00001000
00000010
00000001
00000000
00001000
00000000
,
00000010
00000100
00000001
00000100
00000010
00001000
00000100
00000000
,
00001010
00010100
00011000
01001000
,
00010000
01000000
00100000
10000000
,
01000000
00100000
00000000
00000000
10010000
00000000
00000000
00000000
,
00100000
01000000
00010000
00100000
,
00001000
00010000
00000000
00000000
00010100
00000000
00000000
00000000
,
00010000
00001000
00000010
00001000
,
00010000
00000100
00000000
00000000
00001100
00000000
00000000
00000000
,
00000001
00000100
00000010
00001000
,
00000100
00000010
00000000
00000000
00001100
00000000
00000000
00000000
,
00000010
00010000
00001000
01000000
,
00010000
00100000
00000000
00000000
11000000
00000000
00000000
00000000
,
00010000
01000000
00001000
00010000
,
00000100
00001000
00000000
00000000
00001010
00000000
00000000
00000000
,
00000001
00000010
00001000
00000000
00010000
00100000
10000000
00000000
,
01000000
00010000
00001000
00000000
00000100
00000001
00000010
00000000
,
00001000
00010000
00100000
00000000
00010000
00000000
00000010
00000000
,
00000110
00001001
00000010
00000101
,
00000010
00001000
00000100
00010000
,
00001000
01000000
00000000
00001000
00010000
00100000
00010000
00001000
,
01000000
00100000
10000000
01000000
,
00100000
00010000
00000000
00100000
10000000
00100000
00010000
01000000
,
00010000
00100000
00001000
00010000
,
00000100
00001000
00000000
00000010
00000001
00000010
00001000
00000100
,
00001000
00000001
00000010
00000100
,
00001000
00000001
00000000
00000100
00001000
00010000
00100000
10000000
,
01000000
00100000
01000000
10000000
,
00100000
00010000
00000000
00100000
10000000
01000000
00010000
00001000
,
00000100
00000001
00001000
00000100
,
00000010
00000100
00000000
00001000
00000001
00000010
00000001
00000100
,
00001000
00000100
00000001
00001000
,
00000100
00010000
00000000
00001000
00010000
01000000
00010000
00001000
,
01000000
00100000
01000000
00010000
,
10000000
01000000
00000000
00100000
00010000
01000000
00001000
00010000
,
00101000
00011000
00010100
00000110
;

//---------------dance-double - M.Emirzian----------------
#NOTES:
     dance-double:
     M.Emirzian:
     Challenge:
     10:
     0.248,0.311,0.274,0.000,0.060,426.000,80.000,0.000,0.000,0.000:





00000000
00000000
00000000
00000000
,
00000000
00000000
00000000
00000000
,
00000000
00000000
00000000
00000000
,
00000000
00000000
00000000
00000000
,
00000100
00001100
00010100
00011000
,
00010000
00000100
00000000
00010000
00001000
01000000
00100000
01000000
,
00010000
01010000
10100000
11000000
,
10010000
01001000
00011000
00010010
,
00001000
00001100
00000011
00001001
,
00000010
00001010
00000000
00000100
00010000
00001000
01000000
00001000
,
00010000
00011000
01000100
00011000
,
01000000
00110000
00000000
00010000
01000000
00100000
10000000
01000000
,
00100000
00110000
01001000
01000100
,
00001000
00011000
00000000
00000100
00010000
00001000
00000100
00000001
,
00001000
00001100
00000110
00000011
,
00000001
00001000
00000001
00001000
00000100
00001000
00000100
00010000
00001000
00010000
00001000
01000000
00010000
01000000
00010000
00000000
,
10000000
01000000
00000000
00100000
00000000
01010000
00000000
01001000
,
00000000
00100000
00000000
00010000
00000000
00100010
00000000
00011000
,
00000000
00000100
00000000
00010000
00000000
00010100
00000000
00010001
,
00000000
00000010
00000000
00000100
00000000
00001010
00000000
00100010
,
00000000
00000010
00000000
00010000
00000000
00011000
00000000
10001000
,
00000000
01000000
00000000
00100000
00000000
01010000
00000000
01000100
,
00000000
00010000
00000000
00001000
00000000
00010010
00000000
00100010
,
00000000
00010000
00000000
00001000
00000000
00010001
00000000
00011000
,
00010000
00000000
00000100
00001000
00000001
00000000
00000010
00001000
,
00000100
00000010
00000100
00001000
00000001
00000000
00000110
00000000
,
00001000
00000000
00000100
00010000
00001000
00000000
00000010
00000000
00001000
00000000
00010000
00000000
00000100
00000000
00010000
00000000
,
00001000
00000000
01000000
00001000
00010000
00000000
01000000
00000000
10000000
00000000
01000000
00000000
00100000
00000000
00010000
00000000
,
01000000
00000000
00100000
10000000
01000000
00000000
00100000
00001000
,
00010000
00100000
10000000
01000000
00100000
00000000
00110000
00000000
,
00010000
00000000
01000000
00100000
10000000
00000000
01000000
00000000
00010000
00000000
00001000
00000000
00000010
00000000
00000001
00000000
,
00001000
00000000
00000010
00000100
00000001
00000000
00001000
00000000
00000100
00000000
00000010
00000000
00000100
00000000
00001000
00000000
,
00000001
00000000
00000010
00001000
00000100
00000000
00010000
00001000
,
00000100
00000001
00001000
00000100
00010000
00000000
00011000
00000000
,
00000100
00000000
00010000
00001000
01000000
00000000
00100000
00000000
00010000
00000000
00001000
00000000
00000100
00000000
00001000
00000000
,
00010000
00000000
00100000
01000000
00010000
00000000
00100000
00000000
10000000
00000000
00100000
00000000
00010000
00000000
10000000
00000000
,
00100000
00000000
00100000
01000000
00010000
00000000
10000000
00100000
,
00010000
00001000
00000010
00000001
00001000
00000000
00000101
00000000
,
00000010
00000000
00001000
00000100
00000010
00000000
00000001
00000000
00000010
00000000
00000100
00000000
00001000
00000000
00000001
00000000
,
00000100
00000010
00001000
00000010
00001000
00000100
00010000
00001000
00010000
00001000
00100000
00010000
00100000
00010000
10000000
00000000
,
01000000
00100000
00010000
10000000
,
01000000
00010000
00000000
01000000
10000000
01000000
00100000
00010000
,
01000000
10000000
01000000
00010000
,
10000000
00100000
00000000
01000000
00010000
10000000
01000000
00010000
,
00001000
00000100
00000001
00000010
,
00000100
00001000
00000000
00000100
00000010
00000100
00001000
00000001
,
00000100
00000010
00010000
00001000
,
00000100
00001000
00000000
00010000
00100000
00010000
00001000
01000000
,
00010000
00100000
01000000
10000000
,
00010000
10000000
00000000
00100000
00010000
00001000
00000010
00000001
,
00000100
00000001
00001000
00000100
,
00000010
00000100
00000000
00001000
00000001
00000100
00001000
00010000
,
00100000
10000000
01000000
00010000
,
00000100
00010000
00000000
00001000
01000000
00010000
00100000
01000000
,
10000000
00010000
01000000
00100000
,
10000000
01000000
10000000
01000000
00100000
00010000
00100000
00001000
00010000
00001000
00010000
00000010
00001000
00000010
00001000
00000000
,
00000001
00001100
00001001
00000011
,
00001000
00001100
00000000
00000010
00010000
00001000
01000000
00010000
,
00100000
00101000
00100010
00011000
,
00100000
00110000
00000000
01000000
10000000
00010000
01000000
00100000
,
10000000
11000000
10010000
00110000
,
00010000
01001000
00000000
00001000
01000000
00001000
00010000
00000100
,
00010000
01000100
00011000
00010001
,
00001000
00001100
00000000
00000001
00000100
00000010
00001000
00000100
,
00010000
00001010
00011000
10001000
,
01000000
01010000
00000000
00100000
10000000
00100000
01000000
00010000
,
10000000
01001000
00011000
00010010
,
00001000
00011000
00000000
01000000
00001000
00010000
00000100
00001000
,
00000010
00010010
00100010
00011000
,
00000100
00011000
00000000
00000010
00001000
00000100
00000010
00000001
,
00001000
00001010
00001001
00000101
,
00001000
00000100
00001000
00000100
00010000
00001000
00010000
00001000
01000000
00010000
10000000
00100000
01000000
00010000
10000000
00000000
,
11000000
00110000
00100010
00011000
;

//---------------dance-single - ----------------
#NOTES:
     dance-single:
     :
     Challenge:
     11:
     0.688,0.882,0.839,0.171,0.116,1111.000,245.000,50.000,0.000,12.000:

0000
0000
0000
0000
,
0000
0000
0000
0000
,
0000
0000
0000
0000
,
0000
0000
0000
0000
,
0000
0000
0000
0000
,
0000
0000
0000
0000
,
0000
0000
0000
0000
,
0000
0000
0000
0000
,
1001
1010
0000
0101
0000
1001
0000
0000
,
1001
0000
0000
0000
0000
0000
0000
0000
0000
0000
0000
0000
0000
0000
0000
0000
0000
0000
0000
0000
1000
0000
0000
0000
0000
0100
0000
0000
0000
0000
0000
0000
,
0010
0000
0000
0000
0000
0001
0000
0000
0000
0000
0000
0000
1000
0000
0000
0000
0000
0010
0000
0000
0000
0000
0000
0000
0100
0000
0000
0000
0000
0001
0000
0000
,
0000
0000
0000
0000
0010
0000
0000
0000
0000
0100
0000
0000
0000
0000
0000
0000
0000
0000
0000
0000
0000
0000
0000
0000
0000
0000
0000
0000
0000
0000
0000
0000
,
1000
0100
0010
0001
1000
0100
0010
0100
,
1000
0001
0100
0010
1000
0100
0010
0001
,
1001
1000
0001
0000
,
1001
0000
1000
0100
0020
0000
0000
0030
,
0101
0000
0000
1100
0000
0000
1010
0000
0001
0000
0100
0000
,
0000
0000
0000
0000
0000
1100
0000
0011
,
0000
0110
0000
1001
0000
0101
0000
1010
,
0000
0000
0000
0000
1000
0100
0001
0000
,
1001
0000
0000
0000
0000
0000
0000
0000
1000
0000
0000
0000
0010
0000
0000
0000
0001
0000
0000
0000
0000
0100
0000
0000
0000
0000
0000
0000
0001
0000
0000
0000
,
0100
0000
0000
0000
0010
0000
0000
0000
1000
0000
0000
0000
0000
0100
0000
0000
0000
0010
0000
0000
0000
0000
0001
0000
0000
0000
0000
0000
0010
0000
0000
0000
,
0000
0100
0000
0000
0000
0000
1000
0000
0000
0000
0001
0000
0000
0000
0000
0000
1000
0000
0000
0000
0000
0001
0000
0000
0000
0000
0000
0000
1000
0000
0000
0000
,
1001
0100
0010
0001
1000
0010
0100
0001
,
1001
0000
2010
0000
3001
0000
0000
1000
,
0100
0010
0001
0010
0100
1000
0100
0010
,
1001
0001
0101
0100
2002
0000
0000
0000
,
0000
3003
2200
3311
,
0202
0000
1313
0000
1001
0001
1000
0100
,
0010
0001
0010
0100
0000
1000
0000
1001
,
0000
0000
0000
0000
0000
0000
1000
0000
0100
0000
0000
0010
0000
0000
0001
0000
,
0100
0000
0000
0010
0000
0000
1000
0000
0100
0000
0000
0001
0000
0000
0100
0000
,
0000
1001
0000
0000
0000
1000
0100
0010
,
0001
0000
0100
0010
1000
0000
1001
0110
,
0000
0000
1000
0010
0001
1000
0100
0001
,
0001
0010
1000
1000
0001
0100
1000
0100
,
0010
0100
1000
0010
0100
0001
0010
0100
,
1000
0100
0010
0001
1001
1000
0100
1000
,
1010
0010
0100
0001
0101
0010
1010
0100
,
1100
0000
2002
0000
0000
3003
1001
0000
,
0100
0010
0001
0010
0100
1000
1100
0000
,
1001
0000
0000
0000
1000
1000
1000
1000
,
0001
0001
0001
0001
0000
0011
0000
1001
,
1100
0100
0010
0001
0010
0100
1000
0010
,
0101
0010
0100
1000
0100
0001
1000
0010
,
1001
0000
1000
0010
0100
0000
0001
0010
,
0100
0010
0001
0010
0100
0000
1100
0000
,
0011
0001
0010
0000
0101
0000
1000
0100
,
0010
0000
0100
0000
1000
0000
0100
0000
0110
0000
0000
0000
0000
0000
1000
0100
,
1100
0000
0110
0010
0101
1001
0000
1100
,
1001
0000
0000
0001
0000
0000
0100
0000
0000
0010
0000
0000
0100
0000
0000
0001
0000
0000
1001
0000
0000
1000
0001
0000
,
0000
1001
0000
0000
0001
0001
0001
0001
,
1010
0000
0100
0101
0000
0000
0000
0000
,
1000
0010
0001
0000
1000
1000
1000
1000
,
1000
0000
0010
0001
0000
0000
0000
0000
,
0001
0100
1000
0000
1000
0001
0001
0001
,
0001
0000
0100
0001
0000
0000
0000
0000
,
1000
0100
0001
0000
1000
1000
1000
1000
,
1000
0000
0100
0001
0000
0000
2000
0000
,
0200
0000
0001
3300
1000
0100
0010
0001
,
1001
0000
0011
1001
0000
0000
0000
0000
,
0010
0000
1000
0000
0000
0000
1000
0000
0010
0000
0100
0001
0100
0000
0001
0000
,
0010
0100
1000
0000
0000
1000
0010
0100
,
0001
0100
0010
1000
0100
0001
1000
0010
,
0001
0100
0010
1000
2002
0000
0010
3003
,
0000
1000
1000
0000
0000
0000
0000
1000
,
1001
0000
0001
0100
1010
0000
1001
0000
,
1001
0000
0000
0000
1000
0000
0000
1010
0000
0000
0010
0000
0100
0000
0010
0000
1000
0000
0000
0000
1001
0000
0000
0000
,
1001
1000
0100
0010
0100
0000
1100
0000
,
1100
0100
0110
0010
0011
0000
1001
0000
,
1000
0001
0000
0001
0010
0100
1000
1100
,
0000
0011
0000
0000
1000
0010
0100
0001
,
1001
0000
0000
0000
1100
0000
0011
0000
0000
0000
1010
0000
0101
0000
1000
0100
,
0010
0000
1100
0001
0101
1001
0000
1000
,
1001
0001
0101
0100
0101
0010
1000
0100
,
0010
0001
0000
0000
1000
1000
0001
0001
,
0110
0000
1000
1001
0000
0000
2000
0000
,
0001
3000
0000
0000
1000
0010
0100
0010
,
1000
0000
0010
0100
0000
0000
2000
0000
,
0010
3000
0000
0000
0001
0001
0001
0001
,
1000
0000
1000
1000
0000
0000
0220
0000
,
1331
0000
0000
0000
0001
0010
0100
1000
,
1001
0000
1100
0110
0000
0000
0022
0000
,
1133
0000
0000
0000
1000
0100
0010
0100
,
1001
0000
1000
0010
1010
1000
0010
0100
,
0000
0101
0000
0000
0000
0000
1000
0010
,
0100
0001
0100
0010
1000
0100
0010
0011
,
0000
0000
1001
0000
0000
0000
0101
0000
0010
0000
0000
1000
0000
0000
1100
0000
,
0000
1000
0100
0010
0100
1000
0000
0000
,
2200
0000
3300
1000
0100
0001
0100
1000
,
1010
0000
0100
0110
0000
1001
0000
0110
,
2002
0000
0000
0000
0000
0000
0000
3003
,
2000
0000
0200
0000
0020
0000
0002
3333
,
1100
0000
1000
0010
0100
0001
0000
0000
,
1000
0100
1000
0010
0100
0001
0010
0100
,
0000
1000
0001
1000
0100
0010
0001
1001
,
0000
1000
0010
0100
0010
1000
0000
0000
,
1001
1000
0100
0010
0011
0001
0100
0010
,
1010
1000
1001
0000
1100
0110
0000
0000
,
2002
0000
0000
0000
0000
0000
0000
3003
,
1100
0011
0101
1010
,
1000
0100
0010
0100
1000
0010
0001
1000
,
0100
0001
0010
0100
1000
0100
0010
0100
,
1000
0100
0001
0100
0001
0100
0010
0100
,
0010
0100
1000
0100
1000
0100
1000
0010
,
0001
0010
0001
0010
0100
0010
0100
0010
,
1000
0010
1000
0010
1000
0010
0001
0100
,
0010
1000
0100
0010
0100
1000
0001
0100
,
1100
0000
0100
0000
0010
0000
0011
0000
1001
0000
1010
0000
,
0110
0000
1001
0000
1000
0010
0100
0010
,
1010
0000
0000
0101
1000
0100
0010
0100
,
1000
0000
1010
0000
0100
0001
0010
0100
,
1100
0000
0000
0011
0000
0000
1000
0101
,
0000
0000
0000
0000
0001
0100
1000
0100
,
0001
0000
0000
0000
0000
0000
0010
0000
0000
0100
0000
0000
0000
0000
0000
1000
0000
0000
0100
0010
0000
0000
0000
0000
,
1001
0100
0010
0000
1001
0010
0100
1000
,
1100
0000
1000
0001
1001
1000
0100
0010
,
0001
0000
0100
1000
1001
0000
0100
0001
,
1001
1000
0100
0010
0001
0000
0000
0000
,
1000
1000
1000
0000
0101
0000
0001
0010
,
0100
1000
0100
0010
0001
0000
0000
1000
,
0010
0000
0101
0001
0100
0010
1000
0100
,
0110
0001
0010
0100
1000
0010
0000
1000
,
1001
0000
0000
0000
1000
0100
0010
0001
0010
0100
1000
1001
0000
1001
0000
1001
,
1001
1000
0100
0000
0001
0100
0010
1000
,
0100
0000
0010
0001
0000
0000
0000
0000
,
1010
1000
1001
0000
0001
0100
0001
0100
,
0001
0000
1100
0100
0000
0000
0000
0000
,
1000
0010
1010
0000
1000
0010
0100
0001
,
0011
0000
1000
0010
0000
0000
1100
0000
,
1001
0000
0101
0000
1000
0100
0010
0001
,
0010
0000
0100
1000
0000
0000
0000
1000
,
0100
0010
0001
0000
1001
0000
0000
1000
0100
0010
0001
0010
0100
1000
1001
0000
,
0110
0000
0000
0000
0000
0000
2000
0000
0002
0000
0000
0100
0000
0000
3013
0000
,
1001
1000
0001
0000
1000
0100
0010
0001
,
0010
0100
1000
1001
0001
0100
1001
0000
,
1001
0000
0000
1000
0000
0100
0010
0000
0010
0100
0000
0000
,
1001
0000
0000
1000
0000
0010
0100
0000
0100
0001
0000
0000
,
1001
0000
1000
0100
0010
0000
0011
0000
,
1001
0001
0100
0010
1000
0000
1001
0000
,
0110
0000
1000
0010
1000
0000
1100
0000
,
0000
1000
1000
1000
1000
0000
0101
0000
,
1000
0000
0100
0010
0100
0000
1000
0000
,
2002
3003
0000
0000
1000
0000
0000
0000
0100
0000
0000
0000
0010
0000
0000
0000
0001
0000
0000
0000
0000
0000
0000
0000
0000
0000
0000
0000
0000
0000
0000
0000
,
1001
0001
0100
0010
0100
0001
1001
0000
,
1100
0000
0000
0000
0010
0000
0000
0000
0202
0000
0000
0000
0300
0000
0010
0000
1000
0000
0000
0000
1000
0000
1000
0000
0000
0000
1000
0000
0000
0100
0000
0000
,
1000
0003
0000
0000
0000
0000
0000
0000
1000
0000
0000
0000
0000
0000
0000
0000
1100
0000
0000
0000
0000
0000
0000
0000
0100
0000
0000
0000
0000
0000
0000
0000
,
0110
0010
0011
0000
,
1100
0000
0100
0010
0001
0000
0001
0010
,
0100
1100
0011
0000
,
0101
0000
0001
0100
0010
0000
1000
0010
,
0100
0000
0001
0100
0010
1000
0010
0100
,
0101
0000
0000
1100
0000
0000
1001
0000
,
1001
1000
0100
0010
1001
0000
0000
0000
,
2002
0000
0000
0000
0000
0000
0000
3003
,
2200
0000
3311
0000
2002
0000
0110
3003
,
1001
0000
1001
0000
1000
0100
0010
0001
,
0010
0100
1000
0001
0010
0100
0010
0001
,
0100
1000
0001
0010
1000
0010
0001
0100
,
1000
0010
0100
0010
1000
0100
0010
0100
,
1000
0001
0010
0100
0010
0001
1000
0100
,
0010
0100
1000
0100
0010
0001
0100
1000
,
2002
0000
0000
0000
0000
0000
0000
3003
,
1001
1100
0110
0011
1001
1000
0010
0001
,
0100
1000
0100
0010
0001
0010
1000
0100
,
0001
0100
0010
1000
0010
0001
0100
1000
,
0100
0010
0100
1000
0100
0010
0001
0010
,
0100
0010
0001
0100
0010
0100
0001
0100
,
0010
1000
0010
0100
0001
0100
0010
1000
,
0010
0100
0010
1000
2020
0000
0000
0000
,
0000
0000
0000
3030
1001
0110
1100
0011
,
1001
0000
0000
0000
1000
0100
0010
0001
,
1001
0000
0011
1100
0000
0000
0000
0000
,
0000
0000
0000
0000
1000
0100
0010
0100
,
1000
0000
0001
0100
0000
0000
0000
0000
,
0000
0000
0000
0000
1000
0100
1000
0010
,
0100
0000
0001
0010
0000
0000
0000
0100
,
0000
1000
0000
0000
0000
0000
0000
0000
0000
0000
0000
0000
0000
0100
0000
0000
0000
0000
0000
0000
0000
0000
0000
0000
0000
0010
0000
0000
0000
0000
0000
0000
0000
0000
0000
0000
0000
0100
0000
0000
0000
0000
0000
0000
0000
0000
0000
0000
0000
1000
0000
0000
0000
0000
0000
0000
0000
0000
0000
0000
0000
0000
0000
0000
0000
0000
0000
0100
0000
0000
0000
0000
0000
0000
0000
0000
0000
0000
0000
0000
0000
0000
0000
0000
0000
0010
0000
0000
0000
0000
0000
0000
0000
0000
0000
0000
0000
0001
0000
0000
0000
0000
0000
0000
0000
0000
0000
0000
0000
0000
0000
0000
0000
0000
0000
0001
0000
0000
0000
0000
0000
0000
0000
0000
0000
0000
0000
0100
0000
0000
0000
0000
0000
0000
0000
0000
0000
0000
0000
0000
0000
0000
0000
0000
0000
0010
0000
0000
0000
0000
0000
0000
0000
0000
0000
0000
0000
0000
0000
0000
0000
0000
0000
1000
0000
0000
0000
0000
0000
0000
0000
0000
0000
0000
0000
0000
0000
0000
0000
0000
0000
1001
0000
0000
0000
0000
0000
0000
0000
0000
0000
0000
,
0000
0000
0000
0000
1000
0100
1000
0010
,
0100
0000
0101
1010
0000
1000
0100
0010
,
0001
1001
0000
0000
0001
0100
0010
1000
,
1100
0000
0110
0011
0000
1000
0001
0100
,
0010
1001
0000
0000
1000
0100
0100
0010
,
0010
0000
0001
1001
0000
1000
1000
0010
,
0100
0001
0000
0001
0100
0100
0010
1000
,
1000
0000
0100
0100
0000
0000
0000
1000
,
1001
0001
0100
0000
1001
0000
0000
0000
,
1000
0100
0010
0100
1000
0001
0010
0100
,
1001
0000
0000
0000
1000
0100
0010
0000
,
0110
0000
0000
0000
0001
0100
0010
0000
,
0110
0000
0000
0000
1000
0010
0100
0000
,
0110
0000
0000
0000
0001
0010
0100
0000
,
0110
0000
0000
0000
1000
0001
0100
0000
,
0101
0000
0000
0000
0001
1000
0100
0000
,
1100
0000
1000
0100
0010
0000
0011
0000
,
1001
0000
0000
0000
,
1000
0000
0100
0000
0010
0000
0001
0000
1001
0110
0011
0000
1100
0000
1010
0000
,
0101
0000
0000
0000
1000
1000
1000
0000
,
1001
0000
0000
0000
0001
0001
0001
0000
,
1001
0000
0000
0000
0100
0100
0100
0000
,
0110
0000
0000
0000
0010
0010
0010
0000
,
0110
0000
0000
0000
1000
0100
1000
0000
,
1100
0000
0000
0000
0001
0010
0001
0000
,
0011
0000
1000
0100
0010
0000
0002
0000
,
2000
0000
0000
0000
0000
0000
0000
3003
,
1000
0100
0010
0001
2002
0000
0000
0000
,
3003
0000
0000
0000
;
