#TITLE:Booster's Tower;
#SUBTITLE:(Trance Mix);
#ARTIST:Strike911;
#TITLETRANSLIT:;
#SUBTITLETRANSLIT:;
#ARTISTTRANSLIT:;
#CREDIT:;
#BANNER:tower.png;
#BACKGROUND:tower-bg.png;
#LYRICSPATH:;
#CDTITLE:;
#MUSIC:Booster's Tower (Trance Remix).ogg;
#OFFSET:-0.097;
#SAMPLESTART:13.853;
#SAMPLELENGTH:13.900;
#SELECTABLE:YES;
#BPMS:0.000=140.065;
#STOPS:;
#BGCHANGES:;
// cache tags:
#FIRSTBEAT:16.000;
#LASTBEAT:227.500;
#SONGFILENAME:Songs/Rodd's Rad Christmas Pack/Booster's Tower (Rodd Steps)/Booster's Tower (Trance Remix).sm;
#HASMUSIC:1;
#HASBANNER:1;
#MUSICLENGTH:98.382;
// end cache tags

//---------------dance-single - R. Farias----------------
#NOTES:
     dance-single:
     R. Farias:
     Challenge:
     10:
     0.873,0.954,0.000,0.213,1.000,580.000,0.000,21.000,8.000,0.000:

0000
0000
0000
0000
,
0000
0000
0000
0000
,
0000
0000
0000
0000
,
0000
0000
0000
0000
,
0001
0100
0000
0010
1000
0000
0100
0010
0000
0100
0000
1000
0001
0000
0100
0010
,
0000
1000
0000
0100
0010
0000
0100
1000
0000
0001
0000
1000
0001
0000
0100
0010
,
1000
0100
0010
0001
0010
0100
1000
0001
0100
0010
1000
0100
1000
0010
0100
0001
,
0010
0001
1000
0010
0100
0001
1000
0010
0100
0001
1000
0100
0010
0001
1000
0001
,
1000
0100
0000
0010
0001
0000
0100
0010
0000
1000
0000
0100
0010
0000
0100
1000
,
0000
0001
0000
1000
0001
0000
0100
0010
0000
0100
0000
0001
1000
0000
0100
0010
,
0000
0100
0000
0010
0100
0000
1000
0001
0000
1000
0000
0001
1000
0000
0001
0100
,
0000
0010
0000
1000
0001
0000
1000
0200
0000
0300
0010
0000
0001
0000
1000
0000
,
0001
0100
0000
0010
1000
0000
0100
0010
0000
0001
0000
0010
0100
0000
1000
0001
,
0000
0100
0000
0010
1000
0000
0100
0010
0000
0100
0000
1000
0001
0000
0100
0010
,
0000
0001
0000
0010
1000
0000
0100
0010
0000
0001
0000
0100
0010
0000
1000
0100
,
0000
0001
0000
0100
0010
0000
0001
0100
0000
0000
0010
0000
0010
0000
0010
0000
,
1000
0100
0000
0100
0010
0000
0001
0100
0000
0010
0000
1000
0001
0000
1000
0100
,
0000
0010
0000
0001
0100
0000
0010
1000
0000
0001
0000
1000
0100
0000
1000
0001
,
0000
0100
0000
0010
1000
0000
0100
0010
0000
0100
0000
0010
0001
0000
0001
0100
,
0000
0010
0000
1000
0001
0000
1000
0001
0000
0000
0100
0000
0100
0000
0100
0000
,
0010
1000
0000
1000
0001
0000
1000
0100
0000
0010
0000
0100
1000
0000
0001
0100
,
0000
0010
0000
0100
0001
0000
1000
0100
0000
0010
0000
0100
1000
0000
0001
0100
,
0010
1000
0001
0100
0010
1000
0001
0100
0010
1000
0100
0010
0001
0010
0100
1000
,
0100
0010
0001
0100
0010
1000
0100
1000
0010
0100
0001
1000
0100
0010
0001
1000
,
0001
0000
0100
0000
0000
0010
0000
0000
1000
0000
0001
0000
0000
1000
0100
0000
,
0010
0000
0000
0001
0000
0000
0100
0000
0000
0000
0010
0000
0000
1000
0001
0000
,
1000
0000
0000
0100
0000
0000
1000
0000
0000
0000
0001
0000
0000
0100
0010
0000
,
0100
0001
1000
0000
0000
0100
0000
0100
0010
0000
0001
0100
0000
0001
0100
0000
,
0010
0000
1000
0000
0001
0000
1000
0000
0100
0010
0100
0000
0010
0000
0001
0000
,
0000
0100
0000
0010
1000
0000
0001
0000
,
1000
0000
0100
0000
0000
0010
0000
0000
0001
0000
0000
0100
0000
0010
0000
0100
,
0001
M000
000M
0M00
00M0
M000
00M0
0M00
,
100M
0000
0100
0000
0000
0010
0000
0000
0100
0000
0000
0010
0000
0001
1000
0000
,
0001
0000
0000
0100
0000
0000
0010
0000
0000
0000
1000
0000
0000
0001
1000
0000
,
0100
0000
0000
0100
0000
0000
0010
0000
0000
0000
0100
0000
0000
0000
1000
0000
,
0001
0100
0010
0000
0000
0100
0000
0001
1000
0000
0000
0001
0000
0000
0100
0000
,
0010
1000
0100
0010
0001
0010
0100
1000
,
0001
0100
1000
0100
0001
1000
0001
1000
,
0100
0010
0001
0100
0010
0100
0001
1000
0100
0010
0100
1000
0001
0100
0010
1000
,
0001
0100
0010
0100
0001
1000
0100
0010
0001
1000
0100
0010
0001
0010
0100
1000
,
0001
0000
0001
0100
0010
1000
0001
0100
0010
0100
0002
0000
1003
0100
0010
0001
,
0200
0000
0000
0000
0000
0000
0310
0000
1000
0000
0010
0000
1000
0000
0000
0100
0000
0000
0010
0000
0000
0001
0000
0000
0100
0000
0000
0010
0000
0000
0100
0000
0000
0001
0000
0000
2000
0000
0000
0000
0000
0000
3100
0000
0000
0010
0000
0000
,
0001
0100
0020
0030
0020
0000
0130
0001
2000
3000
2000
0000
3100
0020
0000
0030
,
0001
0100
0020
0030
0020
0000
1030
0200
0300
0200
0300
0010
0001
1000
0200
0000
,
0310
0000
0001
0100
0020
0000
0130
0001
1000
0100
0010
0001
0100
0010
1000
0000
,
0002
0000
1003
0100
0010
0001
0100
0010
1000
0100
0010
0100
1000
0001
0100
0010
,
2000
0000
0000
3000
0000
0000
0001
0000
1000
0000
0001
0000
1000
0000
0000
0100
0000
0000
0010
0000
0000
0100
0000
0000
1000
0000
0000
0001
0000
0000
0100
0000
0000
0010
0000
0000
2000
0000
0000
3000
0000
0000
0100
0000
0000
0010
0000
0000
,
0002
0000
0000
0003
0000
0000
0001
0000
0000
0100
0000
0000
0010
0000
0000
1000
0000
0000
0010
0000
0100
0000
0001
0000
1000
0000
0000
0100
0000
0000
0020
0000
0000
0000
0000
0000
0000
0000
0000
0000
0000
0000
0000
0000
0000
0000
0000
0000
,
0031
0100
0010
1000
0001
0100
0010
0100
0001
1000
0100
0010
0001
0010
0100
1000
,
0001
0100
0010
1000
0100
1000
0010
0100
0001
0010
0001
1000
0010
0100
0001
1000
,
0100
1000
0001
0100
0001
1000
0100
1000
0010
0100
0010
1000
0100
1000
0010
0100
,
0001
0010
0001
1000
0010
0100
0001
1000
0100
0010
0001
1000
0100
0010
0001
0010
,
0100
0010
0001
0010
0100
1000
0001
0010
0100
1000
0001
0100
0010
1000
0100
1000
,
0010
0100
0001
1000
0001
1000
0100
0010
0100
1000
0001
1000
0001
0100
0010
0100
,
0001
1000
0100
0010
0001
0010
0100
0010
0001
0010
0100
1000
0100
0010
0100
1000
,
0001
0100
0010
1000
0100
0010
0001
0010
0100
1000
0100
0010
0001
0100
0010
1000
,
0200
0000
0000
0000
0000
0000
0000
0300
;
