#TITLE:Water Horizon;
#SUBTITLE:;
#ARTIST:Seiryu;
#TITLETRANSLIT:;
#SUBTITLETRANSLIT:;
#ARTISTTRANSLIT:;
#CREDIT:;
#BANNER:BN.png;
#BACKGROUND:BG.png;
#LYRICSPATH:;
#CDTITLE:../CDTitleKIRBY.png;
#MUSIC:Seiryu - Water Horizon.ogg;
#OFFSET:-0.121;
#SAMPLESTART:15.200;
#SAMPLELENGTH:20.000;
#SELECTABLE:YES;
#BPMS:0.000=191.000;
#STOPS:;
#BGCHANGES:;
// cache tags:
#FIRSTBEAT:8.000;
#LASTBEAT:388.000;
#SONGFILENAME:Songs/Index Gradation/Water Horizon - [Kirby5464]/Water Horizon.sm;
#HASMUSIC:1;
#HASBANNER:1;
#MUSICLENGTH:122.856;
// end cache tags

//---------------dance-single - ----------------
#NOTES:
     dance-single:
     :
     Challenge:
     15:
     1.000,1.000,0.122,0.106,1.000,863.000,15.000,13.000,1.000,0.000:
0000
0000
0000
0000
,
0000
0000
0000
0000
,
0001
0100
0001
0000
0000
0000
0000
0000
,
0000
0000
0000
0000
,
1000
0010
0100
0001
0010
0100
1000
0001
,
0100
0001
1000
0100
1000
0001
0010
0001
,
1000
0010
0100
0010
1000
0001
0010
0100
,
0010
0001
1000
0100
1000
0001
0100
0010
,
1000
0100
0010
0001
1000
0100
1000
0001
,
0010
0001
1000
0010
0100
0001
0010
0100
,
1000
0001
0100
0010
1000
0100
1000
0001
0010
0100
0010
0001
1000
0010
0100
0001
,
1000
0100
0010
0001
0010
0100
1000
0001
0100
0010
1000
0001
0010
0000
0000
0100
0000
0000
1000
0000
0000
0001
0000
0000
,
0100
0010
1000
0100
0010
0100
1000
0001
0100
0001
0010
0100
1000
0010
0100
0010
,
1000
0100
1000
0001
0010
0001
1000
0010
0100
0001
1000
0100
0010
0001
1000
0010
,
0100
0001
1000
0001
0010
0100
1000
0010
0100
0010
1000
0100
1000
0001
0010
0001
,
1000
0100
0010
0001
1000
0010
0100
0010
1000
0100
1000
0001
0010
0100
0010
0001
,
1000
0010
0100
0001
1000
0100
0010
0001
0100
0010
1000
0001
0010
0100
1000
0001
,
0100
0001
0010
0100
1000
0001
0010
0100
0010
0001
1000
0100
1000
0001
0010
0001
,
1000
0010
0100
0010
1000
0001
0100
0010
1000
0100
0010
0001
1000
0010
0100
0001
,
1000
0010
0100
0001
1000
0001
0010
0100
,
1000
0100
0010
0001
1000
0010
0100
0001
1000
0001
0010
0100
1000
0001
0100
0010
,
1000
0001
0010
0001
1000
0010
0100
0001
1000
0100
0010
0001
1000
0010
0100
0001
,
1000
0001
0010
0100
1000
0010
0100
0010
1000
0100
1000
0001
0010
0001
1000
0100
,
0010
0001
1000
0010
0100
0010
1000
0100
1000
0001
0010
0100
0010
0001
1000
0010
,
0100
0000
0000
0000
0001
0000
0000
0000
1000
0000
0000
0000
0010
0000
0100
0001
,
1000
0000
0010
0000
1000
0001
0010
0001
,
1000
0000
0000
0000
0010
0000
0000
0000
0100
0000
0001
0010
0100
1000
0001
0100
,
0010
1000
0100
1000
0001
0100
0001
1000
0010
0000
0000
0000
0000
0000
0000
0000
,
1000
0000
0001
0000
0100
0000
0010
0000
1000
0001
1000
0000
0010
0000
0100
0000
,
0000
0001
0010
0100
1000
0001
0100
0010
,
1000
0000
0100
0000
1000
0000
0001
0000
0100
0010
0100
0000
0001
0000
1000
0000
,
0000
0010
0100
0001
0010
0100
1000
0001
,
0101
0110
1010
1100
,
0011
1001
0110
1010
,
0101
0110
1100
0011
,
1000
0010
0100
0001
0010
0100
1000
0001
,
0100
0000
0010
0000
1000
0000
0001
0000
0100
0010
1000
0000
0001
0000
0100
0000
,
0010
1000
0100
0010
0001
0000
2000
0000
,
3001
1000
0001
0010
0100
1000
0010
0100
0001
1000
0100
0010
0001
1000
0010
1000
,
0100
0010
0001
1000
0100
0010
0100
1000
0001
0010
0001
1000
0100
1000
0001
0100
,
0010
0100
0001
1000
0010
0100
0001
0010
0100
1000
0001
0100
0010
1000
0001
0100
,
0001
1000
0010
0100
0010
1000
0100
1000
0001
0010
0001
1000
0010
0100
0001
1000
,
0100
0010
0001
1000
0010
0100
0001
1000
0001
0010
0100
1000
0010
0100
0010
1000
,
0100
1000
0001
0100
0001
0010
0100
1000
,
0001
0010
0100
0010
0001
1000
0010
0100
0001
1000
0100
0010
0001
0100
0010
1000
,
0001
0010
0100
1000
0001
0100
0001
0010
0100
1000
0001
0010
0100
0010
0001
1000
,
0100
1000
0001
0010
0001
1000
0010
0100
0010
1000
0001
0100
0010
1000
0100
0010
,
0001
1000
0010
0100
0001
1000
0100
0010
0100
1000
0001
0100
0001
0010
0100
1000
,
0001
0000
0000
0000
1000
0000
0000
0000
0001
0000
0000
0000
1000
0000
0001
0010
,
0001
0000
0100
0000
0001
1000
0100
1000
,
0001
0000
0000
0000
0100
0000
0000
0000
0010
0000
1000
0100
0010
0001
1000
0010
,
0100
0001
0010
0001
1000
0010
1000
0001
0010
0100
1000
0001
0010
0001
1000
0010
,
0200
0000
0000
0000
,
0302
0000
0023
0000
,
0230
0000
0000
0000
,
2300
0000
3020
0000
,
0230
0000
0000
0000
,
0302
0000
2003
0000
,
3001
0100
0010
1000
0100
0010
0001
1000
,
0100
1000
0001
0100
0001
0010
0100
1000
,
0001
0100
0010
1000
0100
0010
0100
1000
,
0000
0001
0100
0010
1000
0000
0000
0000
,
0001
0100
0001
0010
0100
1000
0010
0100
,
0000
0001
1000
0001
0100
0010
1000
0001
,
0100
0010
1000
0100
0010
0001
1000
0010
,
0000
0100
0001
1000
0100
0010
0001
1000
,
0010
0000
0100
0010
0000
1000
0001
0010
,
0100
1000
0001
0200
0000
0000
0300
0000
,
0001
1000
0001
0100
,
0010
1000
0100
0010
,
0001
1000
0100
1000
,
0001
0010
0001
1000
,
0010
0100
0001
0010
0100
0010
0001
1000
,
0100
1000
0001
0010
0001
1000
0010
0100
,
0001
0010
0100
1000
0001
0100
0001
1000
,
0010
0100
0001
0010
0100
1000
0001
0100
0010
1000
0100
1000
0001
0010
0001
1000
,
0010
0100
0001
0010
0100
1000
0100
0010
0001
1000
0001
0100
0010
0000
0000
0000
0000
0000
0100
0000
0000
0000
0000
0000
,
0001
1000
0100
0010
0001
0100
0010
0100
0001
0010
0001
1000
0100
1000
0001
0100
,
0010
1000
0001
0010
0100
1000
0001
0100
0010
1000
0001
1000
0100
0010
0001
0100
,
0010
0100
0001
0010
0001
1000
0100
1000
0001
0010
0100
1000
0001
0100
0010
0100
,
0001
0010
0001
1000
0100
0010
0100
1000
0001
0100
0010
1000
0001
0010
0100
1000
,
0010
0100
0001
1000
0100
0010
0001
1000
0010
1000
0100
0010
0001
1000
0100
0010
,
0100
1000
0001
0010
0001
1000
0100
1000
0001
0100
0010
0100
0001
1000
0010
0100
,
0001
0010
0100
1000
0001
0100
0010
1000
0001
0100
0001
0010
0100
1000
0010
0100
,
0001
1000
0100
0010
0001
1000
0010
1000
0100
0010
0001
1000
0100
0010
0100
1000
,
0001
0100
0010
1000
,
0100
0010
0001
1000
,
0010
0100
0001
0010
,
0001
1000
0100
1000
,
0001
0100
0010
1000
,
0100
0010
0001
1000
,
0011
0000
1000
1010
0000
0001
0100
0101
,
0000
1000
0001
0100
0020
0000
0000
0000
,
0230
0000
0000
0000
,
0300
0000
0000
0000
,
0000
0000
0000
0000
,
0000
0000
0000
0000
,
000M
0000
0000
0000
;
