#TITLE:Beat of the War;
#SUBTITLE:;
#ARTIST:BanYa;
#TITLETRANSLIT:;
#SUBTITLETRANSLIT:;
#ARTISTTRANSLIT:;
#CREDIT:;
#BANNER:beat_of_the_war-bn.png;
#BACKGROUND:beat_of_the_war-bg.png;
#LYRICSPATH:;
#CDTITLE:!spec_cd.png;
#MUSIC:beat_of_the_war.mp3;
#OFFSET:-10.003;
#SAMPLESTART:26.272;
#SAMPLELENGTH:15.000;
#SELECTABLE:YES;
#BPMS:0.000=186.000,108.000=140.000,148.000=202.000;
#STOPS:;
#BGCHANGES:;
// cache tags:
#FIRSTBEAT:0.000;
#LASTBEAT:258.000;
#SONGFILENAME:Songs/Community Keyboard Megapack - Volume 1/(Spectere) Beat of the War/beat_of_the_war.sm;
#HASMUSIC:1;
#HASBANNER:1;
#MUSICLENGTH:96.553;
// end cache tags

//---------------dance-single - ----------------
#NOTES:
     dance-single:
     :
     Hard:
     10:
     0.738,1.000,0.932,0.000,0.155,409.000,90.000,0.000,0.000,0.000:
0010
0000
0000
0001
1000
0000
0010
0000
0010
0000
0000
0001
1000
0000
0010
0000
,
0010
0000
0000
0001
1000
0000
0010
0000
0010
0000
0000
0001
1000
0000
0010
0000
,
0010
0000
0000
0001
1000
0000
0010
0000
0010
0000
0100
0010
0100
0000
0001
0000
,
0101
0000
0010
0100
0010
1000
0010
0000
,
1000
0000
0000
0000
1000
0000
0100
0000
0001
0100
0001
0100
0001
0000
0100
0000
,
1000
0000
0000
0000
1010
0000
0010
0000
0100
0000
0000
0001
0000
0000
1000
0000
,
0010
1000
0010
0001
0010
1000
0001
0000
,
0100
0010
1000
0001
1000
0010
1000
0001
,
1000
0000
0010
0000
1000
0000
0001
0000
0010
0100
0010
0100
0010
0000
0001
0000
,
1000
0100
0100
0100
0000
0100
0100
1001
,
0000
0010
0010
0101
0000
0100
0100
0000
,
1010
0000
0000
0000
,
0101
0000
0000
0000
,
1000
1000
0100
0001
1000
0010
0001
1000
,
0100
0001
1000
0010
0001
1000
0100
0000
,
1001
0000
0100
0110
0000
0001
0101
0000
,
0010
0001
0100
0001
0010
1000
0010
0001
,
0010
0010
0001
1000
0010
0001
1000
0010
,
0001
1000
0010
0001
1000
0010
0100
0000
,
1001
0000
0100
0101
0000
0010
1100
0000
,
0010
1000
0001
1000
0010
0001
0010
1000
,
0001
0001
0100
1000
0001
0010
1000
0001
,
0100
1000
0001
0010
1000
0001
0100
0000
,
1001
0000
0010
0110
0000
0001
1001
0000
,
0100
1000
0010
1000
0001
0100
0010
0100
,
0001
0001
0010
0100
0001
0010
0100
0001
,
0010
0100
0001
0010
0100
0001
1000
0100
,
0010
0000
0000
0000
,
0000
0000
0000
0000
,
0110
1010
1100
0101
1001
1001
1100
0101
,
0101
0000
1001
1001
1100
1100
0101
0000
,
0110
1010
1001
0101
0110
0110
1010
0101
,
1001
0000
0110
0101
1100
0110
1010
0000
,
1001
0110
1001
0110
1010
0110
0011
0110
,
1001
0110
1001
0110
1010
1010
0101
0000
,
1001
0110
1001
0110
1001
0110
1001
0110
,
1010
0000
0011
0101
1100
1010
0110
0000
,
0100
0000
0000
0000
0000
0000
0000
0000
0000
0000
0000
0000
0000
0000
0000
0100
,
0000
0100
0000
0100
0000
0000
0000
0100
0000
0100
0000
0100
0000
0000
0000
0000
,
1000
1000
0100
0001
1000
0100
0010
1000
,
0100
0001
1000
0100
0010
1000
0100
0010
,
0001
0000
0000
0000
0100
0000
0100
0000
0100
0000
0000
0000
0000
0100
0000
0100
,
0000
0100
0000
0000
0000
0100
0000
0100
0000
0100
0000
0000
0000
0000
0000
0000
,
0001
0001
0010
1000
0001
0010
0100
0001
,
0010
1000
0001
0010
0100
0001
0100
0010
,
1000
0000
0011
0010
0000
0010
1010
0000
,
0001
0000
1100
0100
0000
0100
0101
0000
,
1000
0000
0001
0000
1000
0100
1000
0100
1000
0000
0010
0000
1000
0000
0010
0000
,
0001
0010
1000
0100
1000
0000
0000
0000
,
0001
0010
1000
0000
1000
0010
0001
0000
,
0001
0100
1000
0000
0000
0001
0010
0001
,
1000
0000
0010
0000
1000
0000
0001
0100
0001
0100
0001
0000
1000
0000
0010
0000
,
0100
0000
0000
0000
,
0100
1100
0011
1100
,
0010
0101
1010
0101
,
0100
0100
0010
1000
0100
0100
0010
0001
,
0100
0100
0010
1000
0100
0100
0010
0001
,
0100
1010
0101
1010
,
0100
0011
1100
0011
,
0010
0010
0100
1000
0010
0010
0100
0001
,
0010
0010
0100
1000
0010
0010
0100
0001
,
0100
0000
0011
0010
1000
0010
0001
0000
,
0010
0000
1100
0100
0001
0100
1000
0000
,
0000
0000
0010
0000
0000
0000
0010
1000
0010
1000
0010
1000
0010
0000
0100
0000
;

//---------------dance-single - ----------------
#NOTES:
     dance-single:
     :
     Challenge:
     11:
     1.000,1.000,1.000,0.145,0.585,540.000,188.000,14.000,0.000,2.000:
1001
0000
0000
0010
0100
0000
0010
0000
1100
0000
0000
0001
0010
0000
0001
0000
,
0110
0000
0000
1000
0100
0000
0010
0000
0011
0000
0000
0001
0010
0000
0001
0000
,
0110
0000
0000
0100
0010
0000
0010
0000
1100
0000
0100
0010
0100
0000
0010
0000
,
1000
0100
1000
0100
1000
0000
0100
0000
0001
0000
0100
0000
1000
0000
0100
0000
,
0010
0001
0010
0001
0010
0000
0001
0000
0010
0000
0100
0000
0010
0000
0001
0000
,
1000
0100
0010
0001
1000
0000
0001
0000
0010
0000
0001
0000
0100
0000
0001
0000
,
0001
0010
0100
1000
0100
0000
0010
0000
0100
0000
1000
0000
0100
0000
0010
0000
,
1001
0100
0010
0101
1000
0100
0110
0001
,
0010
0100
1000
0100
0010
0000
0001
0000
0010
0001
0010
0001
0100
0000
1000
0000
,
1000
0100
1000
0010
1000
0001
0010
0100
1000
0100
1000
0100
0010
0001
1100
0000
,
0000
0100
1000
1100
0000
0100
0011
0000
,
1001
0000
0000
0000
0001
0010
0100
1000
0010
0100
0001
0010
0100
1000
0010
0100
,
1001
0000
0000
1001
,
1100
1100
0110
0011
0110
1100
0110
1100
,
0110
0011
0110
0011
0110
0011
1001
0000
,
1001
0000
0100
0010
0100
0010
0001
0000
0010
0100
0010
0100
1000
0000
0000
0000
,
1000
0100
0001
0010
1000
0100
1000
0100
,
0011
0011
0110
1100
0110
0101
1010
0110
,
1001
1100
0011
0110
0011
1100
0011
0000
,
1001
0000
1000
0100
0010
0001
1000
0000
0001
0010
0100
0010
0001
0000
0000
0000
,
1000
0100
0010
0001
0100
1000
0100
0001
,
1100
1100
0110
0011
1100
0011
0110
0011
,
1100
0110
1001
0110
0011
1100
0110
1100
,
1010
0000
0100
0010
0100
1000
0100
0000
0010
0001
0010
0100
0010
0000
0000
0000
,
1000
0001
0010
0001
1000
0100
1000
0001
,
1100
1100
0110
0011
1100
0110
0011
1100
,
0110
0011
1100
0011
0110
0011
1100
0110
,
2002
0000
0000
0000
,
0000
0000
0000
0000
0000
0000
0000
3003
,
1100
0110
1100
0011
1100
0110
0011
0101
,
1010
0110
0011
0110
1100
0011
0110
0000
,
1001
0110
0011
1100
0110
1100
0101
0011
,
1100
0000
0100
0010
0001
1100
1001
0000
,
1100
0011
0110
0011
1100
0110
1100
0011
,
1100
0110
1010
0101
0110
1100
0011
0000
,
1100
0011
1100
0110
1100
0011
0110
0011
,
1001
0100
0010
0011
1100
0110
1001
0000
,
1001
1000
1000
1000
1000
1000
1000
1000
,
1000
1000
1000
1000
1000
1000
1000
1000
,
1100
1100
0011
0110
1100
0011
0110
1100
,
0011
1100
0101
1010
1001
1100
0011
0110
,
1100
0100
0100
0100
0100
0100
0100
0100
,
0100
0100
0100
0100
0100
0100
0100
0100
,
1001
0110
1100
0011
1001
0110
0011
1100
,
0110
1100
0011
0110
0101
1010
0110
0101
,
1002
0000
0003
0000
1000
0100
1000
0010
1000
0100
1000
0100
1000
0010
1000
0010
,
1000
0100
0010
0001
0010
0100
0010
0100
1000
0100
1000
0100
0010
0001
0010
0001
,
0010
0100
0010
0100
1000
0100
1000
0100
0010
0100
1000
0100
1000
0100
0010
0001
,
2000
0000
0000
3000
,
2001
0000
0000
0000
0000
0000
3000
0000
0001
0100
0010
1000
0001
0010
0100
1000
,
0100
1000
0010
1000
0001
1000
0001
1000
0001
1000
0010
1000
0100
0010
0001
0010
,
0001
0010
0100
0010
0100
1000
0100
1000
0100
0010
0001
0010
0001
0010
0100
0010
,
0200
0000
0000
0300
,
2100
0100
0100
0100
,
3012
0010
0010
0010
,
1003
0100
0011
0110
0011
0110
0011
0110
,
0001
0010
1100
0110
1100
0110
1100
0110
,
0201
0001
0001
0001
,
1320
1000
1000
1000
,
2030
0000
0000
0000
0000
0000
3000
0000
0000
0000
0000
1000
0001
0010
0001
1000
,
0200
0000
0000
0000
1300
0100
0010
0100
1000
0100
0010
0001
0010
0100
0010
0100
,
1000
0100
0010
0100
0010
0001
0010
0001
0010
0100
0010
0100
1000
0100
0010
0100
,
0010
0100
0010
0001
0010
0100
1000
0100
1000
0010
1000
0100
1000
0010
1000
0001
,
1000
0010
1000
0001
0100
2002
0000
0000
0000
0000
0000
0000
0000
0000
0000
0000
,
0000
3003
0000
0000
;

//---------------dance-single - ----------------
#NOTES:
     dance-single:
     :
     Medium:
     7:
     0.441,0.501,0.217,0.031,0.000,274.000,21.000,3.000,0.000,0.000:
0010
0000
0000
0100
0010
0000
0000
0100
,
0010
0000
0000
0100
0010
0000
0000
0100
,
0010
0001
0010
0000
1000
0100
1000
0000
,
0100
0010
0100
0000
1000
0100
0010
0000
,
0001
0010
0100
0000
1000
0001
0100
0000
,
0001
1000
0100
0000
0001
0010
1000
0000
,
1000
0100
0001
0000
0010
0001
0100
0000
,
0010
1000
0100
0000
1000
0100
0001
0000
,
0010
0001
0100
0000
0001
0100
1000
0000
,
0010
0100
0001
0000
0100
0000
0000
1001
,
0000
0000
0000
1100
0000
0000
0011
0000
,
1100
0001
0001
0001
,
1001
0000
0000
0000
,
1000
0100
1000
0000
0100
0001
0100
0000
,
0010
0001
0010
0000
1000
0100
1000
0000
,
1001
0000
0000
0011
0000
0000
1100
0000
,
1000
0010
0001
0100
,
1000
0010
1000
0000
0010
0001
0100
0000
,
0010
0100
0010
0000
0100
1000
0001
0000
,
1100
0000
0000
0011
0000
0000
0101
0000
,
0001
0010
1000
0100
,
1000
0100
0010
0000
0001
0010
0001
0000
,
0100
1000
0010
0000
0100
0010
0001
0000
,
1001
0000
0000
0110
0000
0000
1001
0000
,
0010
1000
0100
0001
,
0010
0001
0100
0000
0010
1000
0100
0000
,
0010
0100
1000
0000
0010
0100
0001
0000
,
2002
0000
0000
0000
,
3003
0000
0000
0000
,
1000
0100
1000
0100
1000
0100
1000
0000
,
0010
0001
0010
0001
0010
0001
0010
0000
,
0001
0010
0100
1000
0100
0010
0001
0000
,
1000
0000
0100
0010
0001
0100
0010
0000
,
0100
0010
0100
0010
0100
0010
0100
0000
,
0010
1000
0010
1000
0010
1000
0010
0000
,
0100
0010
0001
1000
0100
1000
0100
0000
,
0010
0000
1000
0100
0010
0001
1000
0000
,
0100
0000
0000
0000
,
0000
0000
0000
0000
,
1000
0100
1000
0000
0001
0010
0001
0000
,
1000
0100
1000
0000
0001
0010
0001
0000
,
1001
0000
0000
0000
,
0000
0000
0000
0000
,
1000
0100
0010
0000
0010
0001
0100
0000
,
0100
0010
1000
0000
0001
1000
0100
0000
,
1000
0100
1000
0010
,
1000
0001
1000
0100
,
1000
0010
0100
0001
,
0010
0100
1000
0100
,
1000
0100
0010
0100
,
0001
0100
0010
0100
,
1000
0000
0100
0000
0010
0000
0001
0010
,
0001
0000
0000
0000
,
1001
0000
0000
0000
,
1100
0000
0000
0000
,
1001
1000
0100
1000
,
0010
1000
0100
1000
,
1100
0000
0000
0000
,
0011
0000
0000
0000
,
1000
0100
1000
0100
,
1000
0100
1000
0100
,
0010
0001
0010
0001
,
1000
0100
1000
0010
,
1000
0100
0010
0002
0000
0000
0000
0000
,
0000
0000
0003
0000
;

//---------------dance-single - ----------------
#NOTES:
     dance-single:
     :
     Easy:
     4:
     0.317,0.367,0.207,0.041,0.000,190.000,20.000,4.000,0.000,0.000:
0010
0000
0010
0000
,
0010
0000
0010
0000
,
0010
0010
1000
1000
,
0100
0100
1000
1000
,
0001
0001
1000
1000
,
0100
0100
1000
1000
,
0010
0000
1000
1000
,
0100
0100
1000
1000
,
0010
0000
1000
0100
,
1000
0000
0010
0001
,
1000
0000
0000
0110
0000
0000
1100
0000
,
1000
0000
0000
0000
,
1001
0000
0000
0000
,
1000
0100
1000
0100
,
0010
0001
1000
0000
,
1001
0000
0000
0110
0000
0000
1001
0000
,
1000
0100
1000
0100
,
1000
0000
0010
0000
,
0001
0000
0100
0000
,
1010
0000
0000
0101
0000
0000
1001
0000
,
0001
0010
0100
1000
,
0001
0001
0010
0010
,
0100
0100
1000
0001
,
1001
0000
0000
0110
0000
0000
1001
0000
,
1000
1000
0001
0001
,
0010
0010
0100
0100
,
1000
0001
1000
0001
,
2002
0000
0000
0000
,
3003
0000
0000
0000
,
1000
0000
1000
0000
1000
0100
1000
0000
,
0001
0000
0001
0000
0001
0010
0001
0000
,
0010
0100
0010
0001
,
1000
0100
0001
0010
,
1000
0000
1000
0000
1000
0010
1000
0000
,
0001
0000
0001
0000
0001
1000
0001
0000
,
0100
0001
1000
1000
,
0010
0000
0100
0000
1000
0100
1000
0000
,
1000
0000
0000
0000
,
0000
0000
0000
0000
,
1000
1000
0001
0001
,
1000
1000
0010
0010
,
1001
0000
0000
0000
,
0000
0000
0000
0000
,
0100
0100
0010
0010
,
1000
1000
0010
0010
,
1000
0100
1000
0000
,
0001
0100
0001
0000
,
0010
0001
0010
0000
,
1000
0010
1000
0000
,
1000
0100
0010
0000
,
0001
0100
0010
0000
,
1000
0100
0010
0000
,
1000
0100
1000
0000
,
1001
0000
0000
0000
,
0110
0000
0000
0000
,
1001
0000
1000
0001
,
1000
0001
1000
0000
,
0101
0000
0000
0000
,
1010
0000
0000
0000
,
1000
0100
1000
0000
,
1000
1000
1000
0000
,
0010
0001
0010
0000
,
0001
0001
0001
0000
,
1000
0000
0000
2002
0000
0000
0000
0000
,
0000
0000
3003
0000
;
