#TITLE:5 Years of True Dedication;
#SUBTITLE:;
#ARTIST:Gabba Front Berlin;
#TITLETRANSLIT:;
#SUBTITLETRANSLIT:;
#ARTISTTRANSLIT:;
#CREDIT:Rynker & Aoreo;
#BANNER:5 years bn.png;
#BACKGROUND:5 years bg.png;
#LYRICSPATH:;
#CDTITLE:;
#MUSIC:(10) [Gabba Front Berlin] 5 Years Of True Dedication.ogg;
#OFFSET:-0.182;
#SAMPLESTART:22.260;
#SAMPLELENGTH:13.400;
#SELECTABLE:YES;
#BPMS:0.000=220.000;
#STOPS:;
#BGCHANGES:;
// cache tags:
#FIRSTBEAT:33.000;
#LASTBEAT:592.000;
#SONGFILENAME:Songs/Speedcore Rejects/5 Years Of True Dedication - [Aoreo]/5years oftrue dedication.sm;
#HASMUSIC:1;
#HASBANNER:1;
#MUSICLENGTH:162.385;
// end cache tags

//---------------dance-single - R. Konkul vs. J. Ner----------------
#NOTES:
     dance-single:
     R. Konkul vs. J. Ner:
     Challenge:
     18:
     1.000,1.000,0.425,0.111,1.000,1430.000,69.000,18.000,6.000,0.000:
0000
0000
0000
0000
,
0000
0000
0000
0000
,
0000
0000
0000
0000
,
0000
0000
0000
0000
,
0000
0000
0000
0000
,
0000
0000
0000
0000
,
0000
0000
0000
0000
,
0000
0000
0000
0000
,
0000
0000
1000
0010
0100
0001
0010
0001
,
1000
0000
0100
1000
0010
0000
0100
0000
0001
0000
0010
0000
0001
0000
1000
0000
,
0001
0000
0100
0001
0010
0000
0100
0000
1000
0000
0010
0000
0100
0000
0001
0000
,
1000
0000
0100
1000
0010
0000
1000
0000
0100
0000
0010
0000
0001
0000
0000
0000
,
0000
0000
1001
0001
0010
0100
0110
0010
,
0100
1000
1001
0001
0100
0010
1010
1000
,
0001
0000
0010
0001
1000
0000
0010
0000
0100
0000
0001
0000
1001
0000
1000
0000
,
0100
0000
0010
0001
1000
0000
0010
0000
0100
0000
0010
0000
1010
0000
1000
0001
,
1000
0010
0100
0010
1000
0000
0001
0000
0100
0000
0001
0000
1000
0000
0100
0000
,
0010
0000
0100
0010
0001
0000
1000
0000
0001
0000
0100
0000
0010
0000
1000
0000
,
0010
0000
0100
0001
1000
0000
0100
0000
0010
0000
0001
0000
1000
0000
0001
0000
,
0100
0000
0010
1000
0100
0010
0100
1000
0001
0000
0100
0000
0010
1000
0100
0010
,
0001
0100
0010
1000
0001
0000
1000
0000
0100
0000
0010
0000
0001
0000
1000
0000
,
0001
0000
0100
0010
0100
0000
0010
0000
1000
0000
0010
0000
0100
0000
0001
0000
,
1000
0000
0001
0010
0001
0000
0010
0000
0100
0000
0010
0000
0001
0000
1000
0000
,
0010
0000
0100
0010
0100
0000
0001
0000
0010
0000
0100
0000
0010
0001
1000
0001
,
0100
0010
0100
0010
1000
0000
0100
0000
0010
0000
0001
0000
1000
0000
0100
0000
,
0010
0000
0001
0010
0100
0000
1000
0000
0001
0000
0100
0000
0010
0000
1000
0000
,
0010
0000
0100
0001
1000
0000
0001
0000
0010
0000
0100
0000
1000
0000
0001
0000
,
0100
0000
0010
1000
0200
0000
0000
0000
0000
0000
0000
0000
0010
0000
0000
0000
,
0310
0012
0003
2000
,
0000
0000
0000
0000
3002
0000
0000
0000
0000
0000
0000
0000
0000
0000
0000
0003
,
0100
0001
0100
0010
1000
0001
1000
0100
0010
0001
1000
0001
0010
0100
1000
0010
,
0100
0001
0100
0001
2000
0000
0000
0000
3001
0000
0100
0000
0001
1000
0100
1000
,
0001
0100
0010
0100
0001
0000
0100
0000
0010
0000
1000
0000
0100
0000
0010
0000
,
0100
1000
0001
1000
0010
0100
0001
1000
,
0004
0000
0003
0000
1000
0010
0100
0001
0100
0010
1000
0001
1000
0100
0010
0100
,
0010
0001
1000
0100
1000
0001
0010
0001
1000
0100
0010
0100
1000
0001
0010
0001
,
1000
0010
0100
0001
0100
0010
1000
0001
1000
0010
0100
0001
0010
0100
0010
0001
,
1000
0000
0000
0100
0000
0000
0010
0000
0000
0100
0000
0000
1000
0000
0000
0001
0000
0000
1000
0000
0000
0001
0000
0000
0100
0000
0001
0000
0100
0000
0001
0000
0000
0100
0000
0000
0010
0000
1000
0000
0010
0000
1000
0000
0000
0100
0000
0000
,
1000
0010
0100
0001
0010
0100
1000
0001
1000
0001
0100
0010
0100
0001
1000
0001
,
0010
0100
0010
0100
1000
0001
1000
0010
0100
0001
1000
0001
0100
0010
0100
0001
,
0010
0100
1000
0001
1000
0010
0100
0010
1000
0001
0100
0010
0100
0001
1000
0100
,
0010
0000
0000
0001
0000
0000
0010
0000
0000
0001
0000
0000
1000
0000
0000
0100
0000
0000
1000
0000
0000
0001
0000
0000
0100
0000
0001
0000
0100
0000
0001
0000
0000
1000
0000
0000
0100
0000
1000
0000
0100
0000
1000
0000
0000
0010
0000
0000
,
1000
0100
0010
0001
1000
0000
0000
0000
1001
0000
0000
0000
0001
0000
0010
0000
,
0100
0010
0001
0000
1001
0000
1000
0010
,
0200
0300
0001
0100
0010
1000
0100
0010
,
0001
0000
1000
0001
0010
0000
0100
0000
0010
0000
0001
0000
1001
0000
1000
0000
,
0010
0000
0100
0010
1000
0000
0100
0000
0010
0000
0001
0000
0011
0000
0010
0000
,
0100
0000
1000
0001
0100
0000
0010
0000
0100
0000
0010
0000
1000
0000
0001
0010
,
0001
0100
0010
1000
0100
0000
1000
0000
0010
0000
0100
0000
0110
0000
0010
0000
,
1000
0000
0001
0010
0100
0000
0010
0000
0001
0000
1000
0000
1010
0000
0010
0000
,
0100
0000
0001
0010
0100
0000
0010
0000
0001
0000
1000
0000
1010
0000
0010
0000
,
0100
0000
0001
1000
0100
0000
0010
0000
0001
0000
1000
0000
1001
0000
0001
0000
,
0100
0010
2020
0000
0000
0000
0000
0000
,
0000
0000
0000
3030
,
0000
0000
0000
0000
0010
0100
0010
1000
0001
0010
0100
1000
0001
1000
0100
0010
,
0001
0100
0010
0100
0001
1000
0010
1000
0100
1000
0001
0100
0010
0100
0001
1000
,
0001
0000
0100
0000
0001
0000
0100
0000
0000
0010
0000
0000
1000
0000
0000
0100
0000
0000
1000
0000
0000
0001
0000
0000
0100
0000
0000
0010
0000
0000
0100
0000
0000
0001
0000
0000
1000
0000
0000
0100
0000
0000
1000
0000
0000
0001
0000
0000
,
0010
0000
0000
0100
0000
0000
1000
0000
0000
0100
0000
0000
1000
0000
0000
0001
0000
0000
0100
0000
0000
0010
0000
0000
0100
0000
0001
0000
0100
0000
0001
0000
0000
0100
0000
0000
0001
0000
1000
0000
0001
0000
1000
0000
0000
0001
0000
0000
,
0100
0010
1000
0100
0010
0001
0100
0001
1000
0100
1000
0001
0100
0010
0100
0001
,
1000
0100
1000
0001
0010
0100
1000
0001
1000
0100
0010
0001
1000
0100
1000
0001
,
0100
0000
0001
0000
0100
0000
0001
0000
0000
0100
0000
0000
0010
0000
0000
1000
0000
0000
0100
0000
0000
1000
0000
0000
0001
0000
0000
0010
0000
0000
0100
0000
0000
0010
0000
0000
0001
0000
0000
1000
0000
0000
0001
0000
0000
0100
0000
0000
,
0010
0000
0000
0100
0000
0000
0010
0000
0000
1000
0000
0000
0001
0000
0000
1000
0000
0000
0001
0000
0000
0010
0000
0000
0100
0000
1000
0000
0100
0000
1000
0000
0000
0001
0000
0000
1000
0000
0001
0000
1000
0000
0001
0000
0000
0100
0000
0000
,
0010
1000
0100
1000
0010
0100
0001
1000
0100
0010
0001
1000
0100
0010
0001
1000
,
0001
0000
0000
0100
0000
0000
0010
0000
0000
1000
0000
0000
0100
0000
0000
1000
0000
0000
0001
0000
0000
0100
0000
0000
0001
0000
0100
0000
0001
0000
0100
0000
0000
0010
0000
0000
1000
0000
0001
0000
1000
0000
0001
0000
0000
1000
0000
0000
,
0010
0100
0001
0010
0100
1000
0010
0100
0001
1000
0001
0010
0100
0010
0001
1000
,
0100
0000
0000
0010
0000
0000
0001
0000
0000
1000
0000
0000
0001
0000
0000
0010
0000
0000
0100
0000
0000
1000
0000
0000
0001
0000
0000
0100
0000
0000
0001
0000
0000
1000
0000
0000
0001
0000
1000
0000
0001
0000
1000
0000
0000
0010
0000
0000
,
0100
0000
0001
0000
0100
0000
0001
0000
0000
1000
0000
0000
0001
0000
0000
1000
0000
0000
0100
0000
0000
0010
0000
0000
0001
0000
0000
0010
0000
0000
0100
0000
0000
1000
0000
0000
0001
0000
0000
1000
0000
0000
0001
0000
0000
0100
0000
0000
,
0010
0100
0001
1000
0010
1000
0001
0100
0010
0100
0001
1000
0001
0100
0010
0100
,
0001
0010
0001
0010
0100
1000
0001
1000
0100
0010
0001
1000
0001
1000
0010
0100
,
0010
0000
0000
1000
0000
0000
0001
0000
0000
1000
0000
0000
0010
0000
0000
0100
0000
0000
0010
0000
0000
1000
0000
0000
0001
0000
1000
0000
0001
0000
1000
0000
0000
0010
0000
0000
0100
0000
0001
0000
0100
0000
0001
0000
0000
1000
0000
0000
,
0001
0010
0100
1000
0001
0000
0000
0000
1001
0000
0000
0000
1001
0000
0000
0000
,
1001
0000
1001
0000
1001
1000
1010
0010
,
0110
0100
0102
0003
0101
0000
0101
0000
,
0101
0000
0101
0100
0010
1000
0001
0100
,
0100
0000
0010
0000
1000
0010
1000
0010
1000
0000
0000
0000
0001
0000
0000
0000
,
0010
0001
0010
0001
0010
0000
0000
0000
0011
0000
0001
0000
1001
0000
1000
0000
,
1010
0000
0010
0000
0120
0000
0000
0030
0110
0000
0000
0000
0110
0000
0100
0000
,
0010
0000
0010
0000
0100
0000
0000
0000
0020
0000
0000
0030
1010
0000
0000
0000
,
0100
0001
1010
0000
1010
0000
1010
0000
,
1010
0000
1010
0000
1010
1000
1001
0001
,
0011
0000
0010
0000
0210
0000
0000
0300
0110
0000
0000
0000
0110
0000
0000
0000
,
0110
0000
0110
0100
1000
0001
0100
0000
,
0110
0000
0000
0000
1000
0001
1000
0001
1000
0000
0000
0000
1001
0000
0000
0000
,
0001
0010
0001
0010
0100
0000
0000
0000
1100
0000
1000
0000
0101
0000
0010
0000
,
1010
1000
0021
0000
0001
0030
0001
0100
,
0001
0100
0001
0000
0100
0000
1010
0000
,
1100
0000
1MM1
0000
0001
0000
0010
0100
,
1000
0100
0010
0000
0001
0000
1001
0001
,
0100
0000
0110
0000
1010
0000
1000
0100
,
0010
0100
1000
0000
0011
0000
0101
0000
,
0010
0000
1010
0000
1000
0000
0001
0010
,
0100
0010
0001
0000
1000
0000
1001
0001
,
0100
0000
0120
0030
0100
0000
0010
1000
,
0010
0100
0001
0000
0100
0000
0100
0000
,
0100
0000
0120
0030
1000
0000
1000
0000
,
1000
1000
1000
1000
,
1000
0001
0010
0000
0010
0000
0010
0000
,
0001
0001
0001
0100
,
0010
0000
2010
3000
0010
0000
0010
0000
,
0010
0010
0010
0010
,
0010
0100
0002
0000
0000
0000
0003
2000
,
0000
3001
1000
0010
,
0100
0000
0000
0000
0001
0100
0010
1000
0001
1000
0100
0010
0100
1000
0001
1000
,
0010
0100
0001
0100
0010
1000
0001
0010
0100
1000
0001
1000
0100
0010
0001
1000
,
0001
0000
0000
0100
0000
0000
0010
0000
0000
0100
0000
0000
0001
0000
1000
0000
0001
0000
1000
0000
0000
0001
0000
0000
0010
0000
0000
0100
0000
0000
0010
0000
0000
0100
0000
0000
1000
0000
0000
0001
0000
0000
1000
0000
0000
0010
0000
0000
,
0100
0000
0000
0001
0000
0000
0100
0000
0000
0010
0000
0000
1000
0000
0000
0001
0000
0000
1000
0000
0000
0010
0000
0000
0100
0000
0001
0000
0100
0000
0001
0000
0000
1000
0000
0000
0001
0000
1000
0000
0001
0000
1000
0000
0000
0010
0000
0000
,
0100
0001
0010
0100
1000
0010
0100
0001
1000
0100
0010
0100
1000
0001
0010
0100
,
0010
0000
0000
0001
0000
0000
1000
0000
0001
0000
1000
0000
0001
0000
0000
1000
0000
0000
0100
0000
0000
1000
0000
0000
0001
0000
0100
0000
0001
0000
0100
0000
0000
0010
0000
0000
1000
0000
0100
0000
1000
0000
0100
0000
0000
1000
0000
0000
,
0010
0100
0001
0010
0100
1000
0010
0100
0001
1000
0001
1000
0100
0010
0100
1000
,
0001
0000
0000
0010
0000
0000
0100
0000
0000
1000
0000
0000
0001
0000
0000
1000
0000
0000
0010
0000
0000
0100
0000
0000
0010
0000
0000
1000
0000
0000
0001
0000
0000
0010
0000
0000
0001
0000
1000
0000
0001
0000
1000
0000
0000
0010
0000
0000
,
0100
0000
0001
0000
0100
0000
0001
0000
0000
1000
0000
0000
0010
0000
0000
0100
0000
0000
0001
0000
0000
1000
0000
0000
0001
0000
0000
0010
0000
0000
0100
0000
0000
1000
0000
0000
0001
0000
0000
0100
0000
0000
0010
0000
0000
0100
0000
0000
,
0001
0010
0100
1000
0010
0100
0001
0100
0010
1000
0001
1000
0010
0100
0001
1000
,
0001
0000
1000
0000
0001
0000
1000
0000
0000
0010
0000
0000
0100
0000
0000
0001
0000
0000
1000
0000
0000
0100
0000
0000
0010
0000
0000
0100
0000
0000
1000
0000
0000
0001
0000
0000
1000
0000
0000
0100
0000
0000
0010
0000
0000
0001
0000
0000
,
1000
0000
0000
0001
0000
0000
0010
0000
0000
0100
0000
0000
1000
0000
0000
0010
0000
0000
0100
0000
0000
0001
0000
0000
0100
0000
0001
0000
0100
0000
0001
0000
0000
1000
0000
0000
0100
0000
1000
0000
0100
0000
1000
0000
0000
0010
0000
0000
,
0100
0001
0010
0100
1000
0010
0100
0001
1000
0001
0010
0100
1000
0001
1000
0010
,
0100
0001
1000
0001
1000
0100
0010
0100
1000
0001
1000
0010
0100
0010
1000
0001
,
0010
0100
1000
0001
1000
0100
0010
0001
1000
0001
0100
0010
0100
0001
1000
0010
,
0100
0000
0000
0001
0000
0000
0100
0000
0000
0010
0000
0000
1000
0000
0000
0001
0000
0000
1000
0000
0000
0001
0000
0000
0100
0000
0001
0000
0100
0000
0001
0000
0000
1000
0000
0000
0100
0000
1000
0000
0100
0000
1000
0000
0000
0010
0000
0000
,
0100
0001
0010
0001
1000
0000
0000
0000
1010
0000
0000
0000
0010
0000
0100
0000
,
0001
0100
0010
0000
0100
0000
0001
0000
,
1001
0000
0000
0000
1000
0100
1000
0010
0100
0001
0010
0001
1000
0100
1000
0010
,
0100
0001
0010
0001
1000
0100
1000
0010
1000
0001
0100
0001
0010
0001
1000
0100
,
0010
0001
0100
0010
1000
0100
0010
0001
1000
0100
1000
0010
0100
0001
0010
0001
,
0100
0000
0000
0010
0000
0000
1000
0000
0000
0100
0000
0000
1000
0000
0000
0010
0000
0000
0100
0000
0000
0001
0000
0000
1000
0000
0001
0000
1000
0000
0001
0000
0000
0100
0000
0000
0010
0000
1000
0000
0001
0000
1000
0000
0000
0001
0000
0000
,
0100
0010
0100
0001
1000
0001
0100
0010
1000
0100
1000
0010
0100
0001
0010
0100
,
1000
0010
0100
0001
0010
0001
1000
0100
1000
0010
1000
0100
0010
0001
0100
0001
,
0010
0001
1000
0100
1000
0010
0100
0001
0010
0001
0100
0010
1000
0100
1000
0001
,
0010
0000
0000
0100
0000
0000
1000
0000
0000
0010
0000
0000
0100
0000
0000
0001
0000
0000
0010
0000
0000
0001
0000
0000
1000
0000
0100
0000
1000
0000
0100
0000
0000
1000
0000
0000
0001
0000
0100
0000
0001
0000
0100
0000
0000
0010
0000
0000
,
1000
0100
1000
0010
0100
0001
0010
0001
0100
0001
0010
0100
1000
0010
1000
0100
,
1000
0010
1000
0001
0100
0001
0010
0100
1000
0010
0100
0001
0010
0001
0100
0010
,
1000
0000
0001
0000
1000
0000
0001
0000
0000
0100
0000
0000
0010
0000
0000
1000
0000
0000
0100
0000
0000
1000
0000
0000
0010
0000
0000
0100
0000
0000
0001
0000
0000
0010
0000
0000
0001
0000
0000
0100
0000
0000
0010
0000
0000
1000
0000
0000
,
0100
0000
0000
0010
0000
0000
0001
0000
0000
0100
0000
0000
0001
0000
0000
0010
0000
0000
0001
0000
0000
1000
0000
0000
0001
0000
1000
0000
0001
0000
0010
0000
0000
0100
0000
0000
1000
0000
0001
0000
0100
0000
0001
0000
0000
0100
0000
0000
,
0010
1000
0100
1000
0010
0100
0001
0010
0001
0100
0001
0010
0100
1000
0010
1000
,
0100
1000
0001
0100
0010
1000
0100
1000
0010
0100
0001
0010
0001
1000
0100
0010
,
0100
1000
0001
0100
0010
1000
0100
1000
0010
0100
0001
0010
0001
1000
0100
1000
,
0010
0000
0000
1000
0000
0000
0100
0000
0000
0010
0000
0000
0001
0000
0100
0000
0010
0000
1000
0000
0000
0100
0000
0000
1000
0000
0000
0010
0000
0000
0100
0000
0000
0001
0000
0000
1000
0000
0010
0000
0100
0000
0001
0000
0000
1000
0000
0000
,
0100
1000
0001
0100
0010
0000
0000
0000
0000
0000
0000
0000
0000
0000
0000
0000
,
0000
0000
0000
0000
,
0000
0000
0000
0000
,
0000
0000
0000
0000
,
0000
0000
0000
0000
,
0000
0000
0000
0000
,
0000
0000
0000
0000
,
0000
0000
0000
0000
,
0000
0000
0000
0000
,
0000
0000
0000
0000
,
0000
0000
0000
0000
,
0000
0000
0000
0000
,
MMMM
0000
0000
0000
;
