#TITLE:Speedcore Sunday;
#SUBTITLE:;
#ARTIST:Sektone;
#TITLETRANSLIT:;
#SUBTITLETRANSLIT:;
#ARTISTTRANSLIT:;
#CREDIT:;
#BANNER:Speedcore Sunday BN.jpg;
#BACKGROUND:Speedcore Sunday BG.jpg;
#LYRICSPATH:;
#CDTITLE:exoscythe cd-title.png;
#MUSIC:Speedcore Sunday.mp3;
#OFFSET:-0.440;
#SAMPLESTART:88.100;
#SAMPLELENGTH:12.000;
#SELECTABLE:YES;
#BPMS:0.000=175.000;
#STOPS:;
#BGCHANGES:;
// cache tags:
#FIRSTBEAT:0.000;
#LASTBEAT:387.000;
#SONGFILENAME:Songs/hard shit/exoscythe - Speedcore Sunday/Speedcore Sunday.sm;
#HASMUSIC:1;
#HASBANNER:1;
#MUSICLENGTH:134.373;
// end cache tags

//---------------dance-single - ----------------
#NOTES:
     dance-single:
     :
     Hard:
     10:
     1.000,1.000,1.000,0.253,0.439,734.000,253.000,34.000,0.000,14.000:
1100
0110
0011
1001
,
1010
0101
0110
1001
,
1100
0011
1010
1001
,
1010
0110
0011
1100
,
0011
1100
0010
0011
1000
1010
0100
0011
,
0100
0110
1000
0011
0100
1001
0001
0110
,
0010
0001
0010
0100
1000
0001
0010
0100
,
1000
0001
0010
0100
1000
0001
0010
0100
,
1000
0001
0010
1000
0110
0001
0010
0100
,
1000
0001
0100
0010
1001
0100
0010
0100
,
0001
0010
0100
0001
1001
1000
0010
0100
,
1000
0010
0100
0010
0110
1000
0001
0110
,
1000
0000
0100
0000
0011
0000
0100
1000
0100
0010
0100
0010
1001
0000
0000
0000
,
0010
0000
1001
0000
0010
0000
0100
0010
0100
0010
1000
0001
0100
0000
0000
0000
,
0011
0100
1000
0011
1000
0110
0001
1010
,
0100
1001
0010
0110
0001
1010
0100
0011
,
1000
0000
0101
0000
0010
0000
1001
0010
0100
0010
0100
0001
1010
0000
0000
0000
,
1100
0000
0011
0000
1010
0000
0100
0010
0001
0100
1000
0001
1010
0000
0000
0000
,
0101
0010
1010
0100
0011
1000
0110
0001
,
1010
0100
0011
1000
0101
0010
1100
0010
,
0101
0000
1000
0000
0011
0000
0100
0001
0010
0100
0001
1000
0110
0000
1000
0000
,
0011
0000
0100
0000
1010
0000
0001
1000
0010
0001
1000
0100
0001
0000
0100
0000
,
0011
1000
0110
0001
1010
0100
0011
1000
,
1001
0000
0010
0000
0101
0000
0010
0000
1000
0100
0001
0010
1000
0010
0100
0000
,
1001
0000
0010
0000
1100
0000
0010
0000
0001
0010
1000
0100
0001
1000
0000
0000
,
0101
0010
1010
0100
0011
1000
0110
0001
,
1010
0100
0011
1000
1001
0010
0101
1000
,
0110
0001
1010
0100
0011
0100
1010
0001
,
0100
0000
1000
0100
0000
0001
0010
0000
1000
0100
0000
0001
0010
0000
0100
0010
,
0000
1000
0100
0000
0001
0010
0000
1000
0100
0000
0010
0100
0001
0000
0010
0000
,
0110
1000
0011
0100
1010
0101
0110
1001
,
0110
1001
0011
0002
,
2000
0000
0000
0000
,
0000
0000
0000
0000
0000
0000
0000
0000
0000
0000
0000
0000
0000
0000
0000
3003
,
0020
0000
0000
0000
,
0200
0000
0000
0000
,
0000
0000
0000
0000
,
0000
0000
0000
0000
,
0000
0000
0000
0000
,
0000
0000
0000
0000
0000
0000
0000
0330
,
1001
0000
1001
0000
1001
0010
0001
0100
,
1000
0001
0100
0001
0010
0000
1000
0100
,
1001
0100
0010
1001
0010
1000
1001
0100
,
0110
0001
0010
0110
1000
0001
0110
1000
,
0101
0000
0101
0000
0101
1000
0100
0010
,
0100
0001
0110
0100
1001
1000
0011
0100
,
1001
0000
0000
1001
0000
0000
1001
0000
,
0110
0000
0000
0110
0000
0000
0110
0000
,
1000
0000
0000
0000
0000
0000
0000
0000
2002
3003
0000
0000
0100
0000
0010
0000
0100
0000
1000
0000
0001
0000
0010
0000
1000
0000
0000
0000
0001
0000
0000
0000
,
0110
1000
0011
0100
1010
0000
0110
0001
,
1100
0100
0001
1100
0010
1000
0011
1000
,
0101
0010
1000
0110
0001
0100
0110
0001
,
1010
0001
1001
0001
1001
0101
0011
0101
,
1001
0101
0011
1001
0011
0101
1001
0101
,
1001
0000
0010
1001
0000
0000
0011
0000
,
2200
3300
0000
0000
0000
0000
0000
0000
2002
0000
0000
0000
0000
0000
0000
3003
,
0110
1000
0001
0010
0100
1000
0010
0100
0001
0000
2002
0000
0000
0000
3003
0000
,
0001
1000
0010
0100
0001
0100
0011
0100
1001
0000
0220
0000
0000
0000
0330
0000
,
1000
0100
0001
0100
0011
1000
0010
0001
0110
0000
2002
0000
0000
0000
3003
0000
,
0001
0110
1000
0001
0100
0010
0001
0100
0010
0000
2002
0000
0000
0000
0000
0000
,
3213
0001
0010
1000
0010
1320
0000
0000
,
2130
0001
0100
0011
0001
3012
0000
0000
,
0123
1000
0001
0100
1000
2031
0000
0000
,
3021
0000
0100
0000
1000
0000
0001
0000
0101
0000
0030
0101
0000
0000
0101
0000
,
1010
0000
1100
0000
0011
1100
0110
0011
,
1010
0000
0110
1001
0000
0011
1100
0011
,
1100
0000
1001
0000
1100
0101
0000
1000
,
0100
0000
0001
0000
0100
0000
0010
0000
1001
0000
0000
0101
0000
0000
1010
0000
,
0001
0000
0001
0000
0001
1100
0101
1100
,
0011
0000
1100
1100
0000
1001
1010
0101
,
1010
0000
0101
0000
1000
0101
0000
0120
,
0100
1001
1000
0100
2032
3003
0000
0000
,
1001
0010
0100
0011
0100
1102
0100
1010
,
0013
1100
0001
0101
0010
1102
0010
0100
,
1003
0110
0001
1000
0100
0120
0001
1000
,
0130
1100
0010
0101
1000
0100
1000
0100
,
0011
0100
1001
0010
0110
1000
0101
1010
,
0110
0010
1001
0110
1000
0001
0100
0010
,
0100
0011
0100
1001
0010
1100
0010
0001
,
0100
1001
0001
0110
1000
0100
0010
0011
,
1000
0100
0010
0001
1000
0100
0010
0001
1000
0100
0010
0001
1000
0100
0010
0001
,
0010
0100
0001
1000
0010
0100
0001
1000
0010
0100
0001
1000
0010
0100
0001
1000
,
0011
0110
1001
0101
0010
1001
0100
0010
,
1001
0110
0001
0010
1000
0001
0110
1001
,
0001
0010
0100
1000
0010
0100
1000
0100
0001
0010
0100
0010
1000
0100
0010
0100
,
0001
0010
0001
0010
1000
0100
0010
0100
0001
0010
0100
0010
0100
1000
0100
0010
,
1001
0100
0001
1100
0010
0101
1000
0011
,
0201
1000
0010
1000
0001
0010
1000
0301
,
1000
0010
0100
0001
0010
0100
1000
0001
0010
0100
0010
1000
0100
0010
0001
0010
,
0100
1000
0100
0010
1000
0100
0010
0001
0100
1000
0100
0010
0100
0001
0010
1000
,
0110
0001
0110
1000
0101
0010
1001
0100
,
1001
0110
1000
0001
1100
0011
1100
0011
,
1100
0001
0010
0100
0010
0100
1000
0100
1001
0010
0001
0100
1001
0100
0001
1010
,
0001
0010
0100
1010
0001
0010
0101
0010
1000
0100
0010
0100
0001
0010
0100
0010
,
1000
0001
0100
0010
1000
0001
0100
0010
,
1001
0100
0010
1000
0001
0100
0010
2002
,
0000
0000
0000
3003
;
