#TITLE:Raver's Fantasy;
#SUBTITLE:;
#ARTIST:Tune Up;
#TITLETRANSLIT:;
#SUBTITLETRANSLIT:;
#ARTISTTRANSLIT:;
#CREDIT:Shortysnmn2010;
#BANNER:Raver's Fantasy-bn.png;
#BACKGROUND:Raver's Fantasy-bg.png;
#LYRICSPATH:;
#CDTITLE:CDTitle.png;
#MUSIC:Raver's Fantasy.ogg;
#OFFSET:-0.140;
#SAMPLESTART:34.087;
#SAMPLELENGTH:12.000;
#SELECTABLE:YES;
#BPMS:0.000=145.740;
#STOPS:;
#BGCHANGES:;
// cache tags:
#FIRSTBEAT:16.000;
#LASTBEAT:263.000;
#SONGFILENAME:Songs/lvsb tourney pack/Raver's Fantasy/Raver's Fantasy.sm;
#HASMUSIC:1;
#HASBANNER:1;
#MUSICLENGTH:105.000;
// end cache tags

//---------------dance-single - ----------------
#NOTES:
     dance-single:
     :
     Easy:
     3:
     0.216,0.217,0.029,0.029,0.000,153.000,3.000,3.000,0.000,0.000:
0000
0000
0000
0000
,
0000
0000
0000
0000
,
0000
0000
0000
0000
,
0000
0000
0000
0000
,
1001
0000
0000
0001
,
0100
0000
0000
0010
,
0100
0000
0000
0001
,
1000
0000
0100
0100
,
1000
0000
0001
0000
,
1000
0000
0010
0100
,
0010
0000
0000
0000
,
1000
1000
1000
0001
,
1000
0000
0001
0010
,
0001
0000
1000
0000
,
0100
0000
0100
0100
,
1000
0000
0001
0010
,
0001
0000
1000
0000
,
0001
0000
0100
0000
,
0020
0000
0000
0030
,
1000
0000
1000
0000
,
0001
0000
0000
0000
,
1000
0000
0100
0000
,
0010
0000
0001
0001
,
0100
0000
0001
0000
,
1000
0000
0010
0010
,
1000
0000
0001
0000
,
1000
0000
0001
0000
,
0010
0100
0010
0000
,
0010
0100
0010
0000
,
0001
0000
0100
0000
,
1001
0000
0010
0000
,
1000
0000
0100
0000
,
1001
0000
0010
0010
,
0001
0000
1000
0000
,
0100
0000
1000
0100
,
0010
0000
0100
0000
,
1000
0000
0010
0000
,
0200
0000
0000
0301
,
0100
0000
0001
0000
,
2000
0000
0000
3010
,
1000
0000
0010
0000
,
0100
0001
0000
1000
,
0100
0001
0000
0100
,
1000
0001
0000
0100
,
0100
0100
0000
0010
,
0100
0010
0000
1000
,
0000
0010
0000
1000
,
0010
0100
0000
0001
,
0000
0100
0000
0001
,
1000
1000
0001
1000
,
0001
0000
1000
0000
,
0010
0010
1000
0010
,
1000
0000
0010
0000
,
0100
0001
0100
0100
,
0001
0000
0100
0000
,
0010
1000
0010
0000
,
1000
0010
1000
0000
,
0010
0000
0100
0000
,
0010
0000
1000
0100
,
0010
0000
0001
0000
,
1000
0000
0001
0100
,
0001
0000
1000
0000
,
0010
0000
1000
0000
,
0001
0100
0010
1000
,
0001
0100
0001
1000
,
0010
0000
0000
0000
;

//---------------dance-single - ----------------
#NOTES:
     dance-single:
     :
     Medium:
     5:
     0.377,0.371,0.276,0.095,0.000,238.000,29.000,10.000,0.000,0.000:
0000
0000
0000
0000
,
0000
0000
0000
0000
,
0000
0000
0000
0000
,
0000
0000
0000
0000
,
1000
0010
1000
0001
,
0100
0000
0001
0100
0000
0000
0010
0000
,
1000
0100
1000
0001
,
0010
0000
0100
0010
0000
0000
0001
0000
,
1000
0001
0100
0010
,
1000
0000
0001
0010
0000
0000
0001
1000
,
0001
0000
0100
0000
0010
0000
1000
0001
,
1000
0000
0001
1000
0000
0001
0000
1000
,
0001
1000
0100
0010
,
0001
0000
1000
0100
0000
0000
1000
0000
,
0010
1000
0001
0100
,
0010
0000
0100
0010
0000
0000
1000
0000
,
0100
0010
0001
0010
,
0100
0000
1000
0100
0000
0000
0010
0100
,
0010
0000
0100
0000
0010
0000
0001
1000
,
0001
0000
1000
0001
0000
1000
0000
0001
,
1000
0000
0000
0000
,
0001
0000
0100
0000
0001
1000
0000
1001
,
0000
1000
0001
0010
,
0100
0000
0010
0000
0001
0100
0000
0110
,
0000
0010
1000
0100
,
0010
0000
1001
0000
1000
0100
0000
0011
,
0000
0100
1000
0010
,
0100
0000
0100
0001
0000
0001
0100
0000
,
0001
0000
0001
1000
0000
1000
0001
0000
,
0010
0000
0100
0000
1000
0010
0000
1001
,
0000
0100
0001
0100
,
0010
0000
1000
0000
0100
0010
0000
0011
,
0000
0000
0001
0000
0100
0010
0100
0000
,
0001
0000
1000
0000
0100
1000
0000
0101
,
0000
0010
1000
0001
,
0100
0000
0100
0010
0000
0010
0100
0000
,
0001
0100
1000
0100
,
0002
0010
0103
0001
,
2000
0010
3100
1000
,
0001
1000
1001
0001
,
0100
0000
0000
0000
,
1100
0002
0003
0100
,
1001
0200
0300
1000
,
0110
0002
0003
0100
,
1001
0002
0003
0010
,
1100
0020
0030
1000
,
0110
0020
0030
1000
,
0110
0200
0300
1000
,
0101
0002
0003
0000
,
0100
1001
0010
0100
,
0100
1001
0100
0010
,
0100
1001
0010
0010
,
0010
1001
0100
0100
,
0010
1001
0010
0100
,
0100
1001
0100
0100
,
0100
1001
0010
0010
,
0100
1001
1001
1001
,
1000
0010
1000
0001
,
0100
0001
1001
0000
,
1000
0100
1000
0001
,
0010
0100
1100
0000
,
1000
0100
0010
0001
,
1000
0100
0010
0001
,
1000
0010
0100
0001
,
1000
0010
0100
0001
,
1001
0000
0000
0000
;

//---------------dance-single - ----------------
#NOTES:
     dance-single:
     :
     Hard:
     8:
     0.627,0.650,0.229,0.400,0.129,395.000,24.000,42.000,10.000,0.000:
0000
0000
0000
0000
,
0000
0000
0000
0000
,
0000
0000
0000
0000
,
0000
0000
0000
0000
,
1000
2100
3001
0010
,
0001
0000
0100
0001
0000
0001
1000
0001
,
0010
0210
1000
0310
,
0100
0000
1000
0010
0000
1000
0010
1000
,
0001
0102
1000
0013
,
0001
0000
0010
0100
1000
0000
0010
0100
,
0001
0000
0000
0001
1000
0000
0000
0000
0100
0000
1000
0000
0100
0000
0010
0000
,
0120
0000
0001
0001
0000
0100
0000
0031
,
0010
0000
0000
0010
0100
0000
0000
0000
0100
0000
1000
0000
1010
0000
0000
0000
,
1000
0001
0100
0010
0000
0010
1000
0100
,
0010
0000
0000
0010
0001
0000
0000
0000
0001
0000
0100
0000
0110
0000
0000
0000
,
0010
0000
1000
0001
0000
1000
0100
0010
,
0100
0000
0000
0100
1000
0000
0000
0000
0001
0000
0010
0000
0011
0000
0000
0000
,
0001
0000
1000
0010
0100
0000
0001
0010
,
0100
0000
0100
1000
0000
1000
0100
0010
,
0002
0100
1000
0013
,
1001
0000
0000
0000
0000
0100
0100
0100
,
1000
0000
1000
0001
0010
0001
0100
0020
,
0000
0030
1000
0001
0100
0001
0010
0100
,
1000
0000
0010
1000
0001
0100
0010
2000
,
0000
3000
0001
0010
0002
1000
1003
0001
,
0010
0000
0100
1000
0010
1000
0001
2001
,
0000
3000
0100
1000
0010
0100
0001
0010
,
0001
0000
1000
0200
0000
1300
0100
0010
,
0001
0000
0100
0002
0000
0103
0001
1000
,
0010
0000
1000
0100
0010
0002
0000
2003
,
0000
000M
3000
0000
0010
0000
1000
0000
0100
0000
0010
0000
0100
1000
0100
0000
,
0010
0000
0001
0100
0010
2000
0000
3200
,
0000
M000
0300
0000
0010
0000
0001
0000
0100
0000
0010
0000
1000
0001
1000
0000
,
0010
0000
1000
0100
0010
0200
0000
0320
,
0000
0M00
0030
0000
0001
0000
0010
0000
0100
0000
1000
0000
0010
1000
0010
0000
,
0100
0000
0001
1000
0000
1000
0001
1000
,
0010
0210
0301
0102
,
1003
0000
0001
0100
0001
0100
0001
2001
,
0000
0100
0100
3010
,
1001
0000
0000
0000
1000
0000
0010
0000
1000
0000
0010
0000
0100
0001
1000
0000
,
0010
0000
1000
0000
0000
0010
0000
0000
1000
0000
0010
1000
0010
0000
0000
0000
,
0100
0000
0001
0000
0102
0000
0000
0003
1000
0000
0100
1000
0000
1000
0100
0000
,
0010
0000
0100
0000
2100
0000
0000
3000
0001
0000
0010
0001
0000
0001
0100
0000
,
0010
0000
1000
0000
1002
0000
0000
0003
1000
0000
0100
1000
0000
1000
0100
0000
,
0010
0000
0001
0000
0201
0000
0000
0300
0001
0000
1000
0010
0000
0010
0100
0000
,
0001
0000
1000
0000
1200
0000
0000
0300
1000
0000
0001
0010
0000
0010
0100
0000
,
1000
0000
0010
0000
0210
0000
0000
0300
0001
0000
0100
0010
0000
0010
1000
0000
,
0001
0000
0010
0000
0021
0000
0000
0030
0001
0000
0010
0100
0000
0100
1000
0000
,
0010
0000
0100
0000
0120
0000
0000
0030
1001
0000
1001
0000
0000
0000
0000
0000
,
1000
0001
0200
0020
030M
0130
0010
1000
,
0001
0010
0200
2000
03M0
3100
1000
0010
,
0100
0001
2000
0002
3M00
1003
0001
0010
,
0100
1000
0002
0020
M003
0031
0010
0100
,
1000
0010
0200
0002
03M0
0103
0001
1000
,
0100
1000
0002
0020
M003
0031
0010
0100
,
1000
0010
0200
0020
030M
0130
0010
1000
,
0100
0010
0001
0000
1000
1000
1000
0000
,
0100
0010
0100
1000
0000
0010
1000
0001
,
0100
0010
1000
0001
0000
0010
0100
1000
,
0010
1000
0100
0010
0000
0001
0100
0010
,
1000
0001
0010
0001
0000
0100
0001
1000
,
0100
0010
0100
0010
0001
0010
0001
0010
,
0001
0100
0001
0100
0010
0100
0010
0100
,
0010
1000
0100
1000
0010
0100
0001
0010
,
0001
0100
0010
1000
0100
0010
0100
1000
,
1001
0000
0000
0000
;

//---------------dance-single - ----------------
#NOTES:
     dance-single:
     :
     Challenge:
     10:
     0.728,0.751,0.152,0.390,0.576,478.000,16.000,41.000,44.000,0.000:
0000
0000
0000
0000
,
0000
0000
0000
0000
,
0000
0000
0000
0000
,
0000
0000
0000
0000
,
0010
0100
1000
0000
1000
0100
0010
0001
,
0000
0000
0001
0000
0010
0000
0000
0000
0001
0010
0100
0000
1000
0000
0010
0000
,
0100
0000
0000
0100
0002
0000
0000
0000
2003
0000
0000
0000
3200
0000
0000
0000
,
0301
0000
0100
0000
1000
0000
0000
0000
0001
1000
0100
0000
0010
0000
0001
0000
,
0010
0000
0000
0000
0000
0000
0000
0000
0000
0010
0000
0000
M002
0000
0000
0000
0000
0000
0000
0000
00M0
0000
0000
0000
0203
0000
0000
0000
000M
0000
0000
0000
0000
0000
0000
0000
23M0
0000
0000
0000
0000
0000
0000
0000
0000
0000
0000
0000
,
3100
1000
0100
0002
1000
1003
0001
1000
,
0001
0000
0000
0001
0010
0000
0000
0000
0001
0000
0100
0000
0100
0000
0001
0000
,
0100
0000
0000
0000
0000
0000
0001
0000
0M00
1000
0000
0000
000M
0000
0000
0110
M000
0000
0000
0000
00M0
1000
0000
0000
,
0001
0000
0000
0010
0001
0000
1000
0000
0100
0000
0010
0000
0100
0000
1000
0000
,
0010
0000
0100
0000
0010
0000
1000
0010
1000
0010
1000
0000
0010
0000
0100
0000
,
0001
0000
0000
0001
1000
0000
0100
0000
0010
0000
0001
0000
0010
0000
0100
0000
,
1000
0000
0001
0000
0100
0000
0010
1000
0010
1000
0010
0000
0100
0000
0001
0000
,
0010
0000
0000
0100
1000
0000
0100
0000
0010
0000
0100
0000
0001
0000
0100
0000
,
1000
0000
0010
0000
0100
0000
0001
0010
0001
0010
0001
0000
0010
0000
0100
0000
,
2000
0000
0010
0010
0000
0010
3010
1000
,
0010
0100
0001
0010
,
2002
0000
0000
3003
0000
0010
0001
0010
,
0100
0000
1100
1000
0001
1000
0001
0201
,
000M
00M0
M000
0000
0000
0000
0010
0000
0000
0310
0000
0000
0100
0000
0000
0001
0000
0000
0010
0000
0000
1000
0000
0000
,
0010
0000
0002
0010
0013
0001
1000
1020
,
M000
0M00
000M
0000
0000
0000
0100
0000
0000
0130
0000
0000
0010
0000
0000
1000
0000
0000
0100
0000
0000
0010
0000
0000
,
0001
0000
1100
1000
0001
1000
0010
0210
,
00M0
000M
M000
0000
0000
0000
0001
0000
0000
0301
0000
0000
0100
0000
0000
0010
0000
0000
0001
0000
0000
0010
0000
0000
,
1000
0MM0
1000
0001
0M00
0001
1000
0MM1
,
1001
0000
0100
M010
000M
0010
M10M
0010
,
1000
0000
0001
0100
0001
0000
0010
0000
0100
0000
1000
0000
0020
0000
2000
0000
,
0000
0030
0000
0000
0001
0000
3001
0000
1000
0000
0010
0000
0100
0000
0001
0000
,
0010
0000
0100
1000
0100
0000
0010
0000
0001
0000
0100
0000
0020
0000
0200
0000
,
0000
0030
0000
0000
0001
0000
0301
0000
0100
0000
0010
0000
1000
0000
0001
0000
,
0010
0000
0100
0010
0001
0000
0100
0000
0010
0000
1000
0000
0200
0000
0020
0000
,
0000
0300
0000
0000
0001
0000
0031
0000
0010
0000
0100
0000
1000
0000
0010
0000
,
M100
0000
0000
0000
000M
0000
0010
0000
0000
0100
M000
0000
0000
0000
M00M
0100
0000
0000
0010
0000
0000
0100
M000
0000
,
0002
0000
0000
0000
0000
0000
20M0
0000
0000
0003
0M00
0000
0002
0000
00M0
3000
0000
0000
2000
0000
0000
0003
0000
0000
,
30M1
0000
0000
0000
0M01
0000
0000
0000
M010
0000
0100
1000
0001
0000
0000
0000
,
M100
0000
0000
0000
0M10
0000
0000
0000
10M0
0000
0001
0010
0100
0000
0000
0000
,
10M0
0000
0000
0000
M100
0000
0000
0000
0M01
0000
0100
0010
0001
0000
0000
0000
,
1000
0000
0100
0000
0000
0010
0000
0000
0001
0000
0010
0001
1000
0100
1000
0100
,
1000
0000
0100
0000
0020
0000
0001
0000
0030
0000
0001
0010
0000
0100
0000
1000
,
0010
0000
1000
0000
0002
0000
0100
0000
0003
0000
0100
0010
0000
1000
0000
0001
,
0100
0001
0010
0000
0200
0000
1000
0000
0300
0000
0010
0001
0000
1000
0000
0001
,
0100
0000
0010
0000
2000
0000
0001
0000
3000
0000
0100
1000
0001
1000
0001
0000
,
0010
0000
0100
0000
2000
0000
0010
0000
3000
0000
0010
1000
0000
0001
0000
0100
,
0010
0000
0100
0000
0002
0000
0010
0000
0003
0000
0010
0100
0000
1000
0000
0100
,
0010
0001
0010
0000
0200
0000
1000
0000
0300
0000
0010
0001
0000
0100
0000
0001
,
0010
0100
1000
0000
0002
0000
0100
0000
0103
0010
0000
0010
1000
0010
0100
0000
,
0001
0000
0010
0000
0100
0000
1002
0000
0003
0010
0100
1000
0000
0001
0000
0100
,
0001
0000
1000
0000
0100
0000
0021
0000
0030
0001
1000
0001
0000
0100
0000
0001
,
1000
0010
0100
0000
0001
0000
2100
0000
3000
0001
0010
0001
0000
0010
0000
0100
,
1000
0000
0010
0000
0100
0000
1020
0000
0030
1000
0001
0100
0001
1000
0100
0000
,
0010
0000
0001
0000
1000
0000
0102
0000
0003
0100
0010
0100
0000
0001
0000
0010
,
0100
0000
1000
0000
0100
0000
1002
0000
0003
0010
0100
1000
0000
0100
0000
0010
,
0100
1000
0100
0000
0010
0000
2001
0000
3000
0010
0100
0001
0000
1000
0000
0001
,
0100
0010
0100
0000
0001
0000
1000
0000
0100
0000
0100
0000
0100
0000
0100
1000
,
0100
0010
0001
0000
1000
0000
0100
0000
0000
0010
0001
0010
0000
0001
0000
0010
,
0001
0010
0100
0000
1000
0000
0010
0000
0000
1000
0010
1000
0000
0010
0000
1000
,
0010
0100
0001
0000
1000
0000
0001
0000
0000
0010
0100
0010
0000
0100
0000
0010
,
0100
1000
0100
0000
0010
0000
0001
0000
0000
0001
1000
0100
1000
0001
0100
0000
,
0010
1000
0001
0000
0100
0000
0010
0000
1000
0100
1000
0000
0010
0000
0100
0000
,
0001
1000
0100
0000
0010
0000
0001
0000
1000
0100
1000
0000
0001
0000
0010
0000
,
0100
1000
0001
0010
1000
0010
0001
0100
,
0010
0001
0010
1000
0100
0010
0001
0100
,
2002
0000
0000
3003
;
