#TITLE:FF7 Boss Battle;
#SUBTITLE:(Remix);
#ARTIST:The Black Mages;
#TITLETRANSLIT:;
#SUBTITLETRANSLIT:;
#ARTISTTRANSLIT:;
#CREDIT:;
#BANNER:FF7 Boss Battle.jpg;
#BACKGROUND:FF7 Boss Battle-bg.jpg;
#LYRICSPATH:;
#CDTITLE:;
#MUSIC:FF7 boss battle.mp3;
#OFFSET:-3.430;
#SAMPLESTART:40.472;
#SAMPLELENGTH:12.000;
#SELECTABLE:YES;
#BPMS:0.000=161.980;
#STOPS:;
#BGCHANGES:;
// cache tags:
#FIRSTBEAT:8.000;
#LASTBEAT:269.833;
#SONGFILENAME:Songs/IzzySM Keyboard Mega Pack/FF7 Boss Battle/FF7 Boss Battle.sm;
#HASMUSIC:1;
#HASBANNER:1;
#MUSICLENGTH:107.815;
// end cache tags

//---------------dance-single - ----------------
#NOTES:
     dance-single:
     :
     Easy:
     4:
     0.313,0.344,0.195,0.186,0.000,195.000,21.000,20.000,0.000,0.000:  // measure 1
0000
0000
0000
0000
,  // measure 2
0000
0000
0000
0000
,  // measure 3
1000
0100
0010
0001
,  // measure 4
0100
0010
1010
0101
,  // measure 5
1000
0100
0010
0001
,  // measure 6
0010
0100
1100
1010
,  // measure 7
0100
0001
1000
0100
,  // measure 8
0010
0001
2000
0000
,  // measure 9
3010
0100
0001
1000
,  // measure 10
0100
0010
0002
0000
,  // measure 11
0103
0010
1000
1100
,  // measure 12
0010
0001
0201
0000
,  // measure 13
0310
1000
0100
0010
,  // measure 14
0001
0101
0021
0000
,  // measure 15
0130
0000
2000
0000
,  // measure 16
3001
0000
0020
0000
,  // measure 17
0130
0000
1001
0000
,  // measure 18
0010
0000
1100
0000
,  // measure 19
0001
0000
0100
0000
,  // measure 20
0010
0000
2000
0000
,  // measure 21
3100
0000
0010
0000
,  // measure 22
0001
0000
0101
0000
,  // measure 23
0110
1000
0100
0010
,  // measure 24
0001
0100
0010
1000
,  // measure 25
0100
0100
1000
0000
,  // measure 26
0001
0001
0100
0000
,  // measure 27
0010
0010
1000
0000
,  // measure 28
0100
0100
0001
0000
,  // measure 29
0110
0001
1000
0000
,  // measure 30
1010
0100
0001
0000
,  // measure 31
0011
0100
0010
0000
,  // measure 32
1001
1000
0100
0000
,  // measure 33
0010
0000
0001
1000
,  // measure 34
0020
0000
0000
0030
,  // measure 35
1000
1000
0100
0010
,  // measure 36
0002
0000
0000
0000
,  // measure 37
1003
0000
0010
0100
,  // measure 38
2002
0000
0000
3003
,  // measure 39
0010
0010
0100
0010
,  // measure 40
0002
0000
0000
0003
,  // measure 41
1000
0010
0010
1000
,  // measure 42
0100
0010
0001
1000
,  // measure 43
0001
0100
0010
1000
,  // measure 44
1100
1010
0100
0001
,  // measure 45
0010
0100
0010
0001
,  // measure 46
1000
0010
0100
0101
,  // measure 47
0011
0100
1000
0001
,  // measure 48
0020
0100
0100
0130
,  // measure 49
0001
1000
0001
0100
,  // measure 50
0001
0010
0100
1000
,  // measure 51
0001
1000
0100
1000
,  // measure 52
0020
0000
0000
0030
,  // measure 53
0100
0002
0000
1003
,  // measure 54
0100
0010
0001
1000
,  // measure 55
0020
0000
0000
0000
,  // measure 56
0230
0000
0000
0000
,  // measure 57
0301
0000
1000
0000
,  // measure 58
0100
0000
0010
0001
,  // measure 59
1000
0100
0000
0010
,  // measure 60
0001
0100
0000
0010
,  // measure 61
1000
0100
1000
0100
,  // measure 62
0010
0001
0010
0001
,  // measure 63
0100
0010
0100
0001
,  // measure 64
1000
0100
0001
0100
,  // measure 65
0020
0000
0000
0000
,  // measure 66
0032
0000
0000
0000
,  // measure 67
1003
0000
0000
0020
,  // measure 68
0000
0000
0000
0000
0000
0000
0000
0000
0000
0000
0000
0030
0000
0000
0000
0000
0000
0000
0000
0000
0000
0000
0000
0000
;

//---------------dance-single - ----------------
#NOTES:
     dance-single:
     :
     Medium:
     7:
     0.416,0.528,0.176,0.232,0.227,270.000,19.000,25.000,0.000,0.000:  // measure 1
0000
0000
0000
0000
,  // measure 2
0000
0000
0000
0000
,  // measure 3
1000
0100
0010
0001
,  // measure 4
0100
0020
1000
0001
,  // measure 5
0130
0001
1000
0100
,  // measure 6
0010
0002
0100
0010
,  // measure 7
1003
0000
0100
0000
0010
0001
1000
0000
,  // measure 8
0010
0000
0100
0001
1000
0000
0100
0000
,  // measure 9
0010
0001
0100
0000
0010
0000
1000
0000
,  // measure 10
0100
0000
1000
0001
0100
0000
0010
0000
,  // measure 11
1000
0000
0100
1000
0010
0000
0101
0000
,  // measure 12
0010
0000
0100
1000
0001
0000
0101
0000
,  // measure 13
0001
0000
0010
0000
0100
1000
0100
0000
,  // measure 14
0010
0000
0001
1000
0020
0000
0000
0000
,  // measure 15
0130
0000
2002
3003
,  // measure 16
0010
0000
0202
0303
,  // measure 17
0010
0000
0100
0000
1000
0000
0001
0000
0000
0000
0000
0000
,  // measure 18
0100
0000
0010
0000
1000
0000
0100
0000
0000
0000
0000
0000
,  // measure 19
0001
0000
0022
0033
,  // measure 20
1000
0000
2020
3030
,  // measure 21
0100
0000
0001
0000
1000
0000
0100
0000
0000
0000
0000
0000
,  // measure 22
0010
0000
0001
0000
1000
0000
0010
0000
0000
0000
0000
0000
,  // measure 23
0200
0001
1000
0001
,  // measure 24
0320
1000
0100
1000
,  // measure 25
0130
0000
0100
0000
0001
1000
0100
0000
,  // measure 26
0010
0001
0010
0110
,  // measure 27
1000
0000
0001
0000
0100
0010
1000
0000
,  // measure 28
1100
0010
0001
0100
,  // measure 29
0010
0000
0100
0000
0001
1000
0100
0000
,  // measure 30
0010
0001
0101
0010
,  // measure 31
1000
0100
1000
0010
,  // measure 32
0100
0001
1000
0200
,  // measure 33
1300
1000
0010
0100
,  // measure 34
0001
0000
1000
0000
0100
0000
0010
0000
0001
0000
1000
0000
,  // measure 35
0100
0002
1000
0013
,  // measure 36
0100
0000
0010
0000
1000
0000
0010
0000
0100
0000
0010
0000
,  // measure 37
2000
0000
0100
0010
,  // measure 38
3001
0000
0100
0000
0010
0000
1000
0000
0001
0000
0100
0000
,  // measure 39
0010
1000
0100
0001
,  // measure 40
0220
0000
0000
0330
,  // measure 41
0001
0000
0001
0100
0000
0100
0010
0000
0010
1000
0000
1000
,  // measure 42
0010
0000
0010
0100
0000
0100
0001
0000
0001
0010
0000
0000
,  // measure 43
0001
1000
0010
0100
,  // measure 44
1002
0010
0100
1000
,  // measure 45
0103
0000
0100
0010
0000
0010
0001
0000
0001
1000
0000
1000
,  // measure 46
0010
0000
0010
1000
0000
1000
0100
0000
0100
0010
0000
0010
,  // measure 47
0001
0100
0010
1100
,  // measure 48
0210
0000
0000
0001
0000
0000
1000
0000
0000
0010
0000
0300
,  // measure 49
0001
0000
1000
0100
0000
0000
0010
0000
0000
0001
0000
0000
,  // measure 50
0100
0000
0000
1001
0000
0000
0010
0000
0000
0100
0000
1000
,  // measure 51
0010
0000
0100
0002
0000
0000
0000
0000
0000
0013
0000
0000
,  // measure 52
0100
1001
1000
0100
,  // measure 53
0010
0000
0001
1000
0000
0000
0010
0000
0000
0100
0000
0000
,  // measure 54
1001
0100
1001
0100
,  // measure 55
0020
0000
0000
0000
,  // measure 56
2030
0000
0000
0000
,  // measure 57
3100
0000
0010
0000
0001
0000
0100
0000
0000
0000
0000
0000
,  // measure 58
0010
0000
1000
0000
0100
0000
1000
0000
0000
0000
0000
0000
,  // measure 59
0001
0000
0100
0000
0010
0000
1000
0000
0000
0000
0000
0000
,  // measure 60
0100
0000
1000
0000
0001
0000
0100
0000
0000
0000
0000
0000
,  // measure 61
0010
1000
0100
0010
,  // measure 62
0001
0101
0001
0010
,  // measure 63
0100
1100
1000
0010
,  // measure 64
0100
0001
1000
0100
,  // measure 65
0020
0000
0000
0000
,  // measure 66
0032
0000
0000
0000
0000
0000
0000
0000
0000
0000
0000
0003
,  // measure 67
0100
0000
0000
0100
0000
0000
0000
0000
0000
0000
0000
0000
0010
0000
0000
0010
;

//---------------dance-single - ----------------
#NOTES:
     dance-single:
     :
     Hard:
     10:
     0.674,0.779,0.334,0.213,0.965,450.000,36.000,23.000,0.000,0.000:  // measure 1
0000
0000
0000
0000
,  // measure 2
0000
0000
0000
0000
,  // measure 3
1000
0100
0010
0001
0000
0000
0100
0010
0100
0001
0000
0000
,  // measure 4
1000
0100
0010
0001
0000
0000
0110
0000
0000
0100
0000
0000
,  // measure 5
1000
0010
0100
0010
0000
0000
1000
0001
0100
0001
0000
0000
,  // measure 6
0010
0100
0001
1000
0000
0000
1001
0000
0000
0100
0000
0000
,  // measure 7
0010
0000
1000
0000
0100
1000
0010
0000
,  // measure 8
1001
0100
0020
0001
,  // measure 9
1030
0000
0100
0000
1001
0100
0010
0000
,  // measure 10
0001
0000
1000
0010
0100
0000
1001
0000
,  // measure 11
0200
0001
1000
0310
,  // measure 12
0001
0101
0002
0100
,  // measure 13
0013
0000
1001
0000
0100
0010
1010
0000
,  // measure 14
0100
0001
2000
0010
,  // measure 15
3001
0000
0100
0010
1000
0010
0100
0001
1000
0100
0010
0100
,  // measure 16
1000
0000
0001
0100
1000
0100
0010
1000
0001
0010
0100
1000
,  // measure 17
0010
0000
0100
0000
0001
0000
0010
0000
0100
0000
1000
0000
,  // measure 18
0010
0000
0100
0000
0001
0000
1000
0000
0100
0000
1000
0000
,  // measure 19
0010
0000
0100
0001
1000
0100
1000
0001
0010
0001
1000
0010
,  // measure 20
1000
0000
0100
0010
0001
0010
0100
1000
0100
0010
0001
1000
,  // measure 21
0010
0000
1000
0000
0100
0000
0010
0000
0001
0000
0100
0000
,  // measure 22
0001
0000
0010
0000
0100
0000
1000
0000
0001
0000
0100
0000
,  // measure 23
0010
0110
1100
0101
,  // measure 24
0100
0011
1001
0101
,  // measure 25
0010
0001
0010
0001
1000
0100
1000
0100
0010
0001
1000
0010
,  // measure 26
0100
0001
1000
0100
1000
0010
0100
0001
1000
0100
0010
0100
,  // measure 27
1000
0001
0010
0100
1000
0010
0100
0001
1000
0100
0010
0100
,  // measure 28
0001
0100
1000
0010
0100
0001
1000
0100
0010
0200
0000
0000
,  // measure 29
1300
0001
0100
0001
1000
0001
0010
0100
1000
0100
0010
0100
,  // measure 30
1000
0010
0100
0010
1000
0010
0100
0001
1000
0001
0010
0001
,  // measure 31
0100
0010
1000
0001
0100
0001
0010
0100
1000
0001
0100
0001
,  // measure 32
0010
0100
1000
0010
1000
0100
0001
0100
0010
0001
0000
0000
,  // measure 33
0200
0001
0310
1100
,  // measure 34
0001
0000
1000
0000
0001
0000
1000
0000
0010
0000
0100
0000
,  // measure 35
0010
0010
1001
0100
,  // measure 36
0010
0000
1000
0000
1000
0000
0100
0000
0010
0000
0010
0000
,  // measure 37
0001
0001
1100
1010
,  // measure 38
0001
0000
0100
0000
0100
0000
0001
0000
0010
0000
0010
0000
,  // measure 39
0010
0010
1001
0100
,  // measure 40
0010
0000
1000
0000
1100
0000
0100
0000
0010
0000
0011
0000
,  // measure 41
0001
0000
0010
0001
0000
0000
0100
0000
0000
0010
0100
1000
,  // measure 42
0001
0000
0000
0100
0000
0000
1010
0000
0000
0100
0001
0010
,  // measure 43
0100
0000
0100
0010
0000
0000
0001
0000
0000
1000
0010
0100
,  // measure 44
0001
0000
0000
1000
0000
0000
1100
0000
0000
0010
0001
0010
,  // measure 45
0001
0000
1000
0020
0000
0000
0001
0000
0000
0130
1000
0100
,  // measure 46
0001
0000
0000
1000
0000
0000
0110
0000
0000
0001
0100
0010
,  // measure 47
1000
0000
0100
0010
0000
0000
1001
0000
0000
0100
0001
0100
,  // measure 48
0010
0000
0000
1000
0000
0000
0100
0000
0000
0010
0001
1000
,  // measure 49
0010
0000
0100
0001
0000
0000
1100
0000
0000
0010
0100
0010
,  // measure 50
0200
0000
0000
1000
0000
0000
0001
0000
0000
0310
0001
1000
,  // measure 51
0001
0000
0100
0002
0000
0000
0000
0000
0000
1003
0001
0100
,  // measure 52
0020
0000
0000
0001
0000
0000
1000
0000
0000
0130
0001
1000
,  // measure 53
0100
0000
0000
2002
0000
0000
3003
0000
0000
0001
0010
0100
,  // measure 54
2000
0000
0000
0001
0000
0000
3010
0000
0000
0100
0001
1000
,  // measure 55
0100
0010
0001
1000
0100
0010
0001
1000
0010
0100
0001
1000
,  // measure 56
0010
0100
0001
1000
0010
1000
0001
1000
0100
1000
0010
1000
,  // measure 57
0100
0000
0010
0000
0001
0000
0100
0000
0010
0000
1000
0000
,  // measure 58
1100
0000
1000
0000
0001
0000
0101
0000
0100
0000
0010
0000
,  // measure 59
1000
0000
1100
0000
0011
0010
0001
0000
,  // measure 60
1000
2010
0002
3003
,  // measure 61
0020
0000
0031
0000
1100
0000
0010
0100
,  // measure 62
0002
0000
0013
0000
1100
0000
0010
0100
,  // measure 63
0002
0100
0010
1003
,  // measure 64
2000
0100
0010
3001
,  // measure 65
0010
0100
1000
0010
0100
1000
0100
0001
1000
0100
0001
0100
,  // measure 66
0010
0001
0010
1000
0010
0100
1000
0001
0100
0010
1000
0100
,  // measure 67
1000
0000
0000
2200
0000
0000
0000
3300
0000
0000
0000
0000
0010
0000
0000
2002
,  // measure 68
0000
0000
0000
3003
0000
0000
0000
0000
0000
0000
0000
0000
0000
0000
0000
0000
;
