#TITLE:Skyline;
#SUBTITLE:Xenogears;
#ARTIST:Ziwtra;
#TITLETRANSLIT:Skyline;
#SUBTITLETRANSLIT:Xenogears;
#ARTISTTRANSLIT:Ziwtra;
#CREDIT:John Bernhard;
#BANNER:Skyline.png;
#BACKGROUND:Skyline-bg.png;
#LYRICSPATH:;
#CDTITLE:!john-cdtitle.png;
#MUSIC:Skyline.Mp3;
#OFFSET:-14.320;
#SAMPLESTART:43.292;
#SAMPLELENGTH:16.600;
#SELECTABLE:YES;
#BPMS:0.000=145.000,416.000=138.000,420.000=136.500,421.000=136.000,422.000=136.000,425.000=135.000,431.500=134.500,436.000=133.500,441.500=132.500,444.000=132.000,445.000=131.000,448.000=128.000,452.000=127.000,457.000=125.000,460.000=115.500,461.000=114.000,462.000=113.000,463.000=111.500;
#STOPS:;
#BGCHANGES:;
// cache tags:
#FIRSTBEAT:0.000;
#LASTBEAT:476.000;
#SONGFILENAME:Songs/VGMP 2/Skyline (John11)/Skyline.sm;
#HASMUSIC:1;
#HASBANNER:1;
#MUSICLENGTH:216.476;
// end cache tags

//---------------dance-single - HUH----------------
#NOTES:
     dance-single:
     HUH:
     Challenge:
     14:
     1.000,1.000,1.000,0.688,1.000,1361.000,277.000,149.000,0.000,25.000:



1000
0100
1000
0100
0011
0000
1000
0100
1000
0100
0011
0000
1000
0010
1000
0100
,
1000
0000
0000
0100
0000
0000
1000
0000
0000
0100
0000
0000
0011
0000
0000
0000
0000
0000
1000
0000
0000
0100
0000
0000
1000
0000
0000
0100
0000
0000
0011
0000
0000
0100
0000
0000
0011
0000
0000
0100
0000
0000
0010
0000
1000
0000
0010
0000
,
1000
0000
0000
0001
0000
0000
1000
0000
0000
0001
0000
0000
0110
0000
0000
0000
0000
0000
1000
0000
0000
0010
0000
0000
1000
0000
0000
0001
0000
0000
1000
0000
0000
0001
0000
0000
0110
0000
0000
0001
0000
0000
1000
0000
0100
0000
0010
0000
,
0100
0001
1000
0001
0110
0000
1000
0001
1000
0001
0110
0001
0110
0001
1000
0001
,
0010
0100
0001
0100
0011
0000
0001
0100
0001
0100
0011
0000
0001
1000
0001
0100
,
0001
0000
0000
0100
0000
0000
0001
0000
0000
0100
0000
0000
0011
0000
0000
0000
0000
0000
0001
0000
0000
0100
0000
0000
0001
0000
0000
0100
0000
0000
0011
0000
0000
0100
0000
0000
0011
0000
0000
0100
0000
0000
0001
0000
0010
0000
0100
0000
,
1000
0000
0000
0100
0000
0000
1000
0000
0000
0100
0000
0000
1001
0000
0000
0000
0000
0000
1000
0000
0000
0010
0000
0000
1000
0000
0000
0100
0000
0000
1000
0000
0000
0100
0000
0000
1001
0000
0000
0100
0000
0000
1000
0000
0100
0000
0010
0000
,
0001
0100
1000
0100
1001
0000
1000
0100
1000
0100
1001
0100
1001
0100
0010
1001
,
0100
0010
0100
0010
1100
0000
0100
0010
0100
0010
1100
0000
0100
0010
0100
0010
,
0100
0000
0000
0010
0000
0000
0100
0000
0000
0010
0000
0000
1100
0000
0000
0000
0000
0000
0100
0000
0000
0010
0000
0000
0100
0000
0000
0010
0000
0000
1100
0000
0000
0010
0000
0000
1100
0000
0000
0010
0000
0000
0100
0000
0001
0000
1000
0000
,
0010
0000
0000
1000
0000
0000
0010
0000
0000
1000
0000
0000
0101
0000
0000
0000
0000
0000
0010
0000
0000
1000
0000
0000
0010
0000
0000
1000
0000
0000
0010
0000
0000
1000
0000
0000
0101
0000
0000
1000
0000
0000
0010
0000
0001
0000
1000
0000
,
0010
1000
0010
1000
0101
0000
0010
1000
0010
1000
0101
1000
0110
1000
0001
0110
,
1000
0000
0001
1000
0110
0000
1010
0000
0000
0001
0110
0000
1000
0100
0001
0000
,
0010
0000
1000
0010
0101
0000
0110
0000
0000
1000
0101
0000
0110
0001
0010
0000
,
1000
0000
0001
1000
0110
0000
1010
0000
0000
0001
0110
0000
1100
0010
0001
0000
,
0010
0000
0000
0000
1000
0000
0010
0000
0101
0000
0000
0000
0110
0000
0000
0000
1000
0000
0100
0000
0010
0000
0001
1000
0100
0010
0001
1000
0100
0010
0001
1000
,
0110
0000
0010
0001
1010
0000
0001
0000
0110
0000
0001
0000
1100
0010
0100
0010
,
1100
0000
0000
0000
0000
0000
0000
0000
0000
0000
0000
0000
0000
0000
0000
0000
0000
0000
0000
0000
0000
0000
0000
0000
0110
0000
0000
0000
0000
0000
0000
0000
0000
0000
0000
0000
1000
0000
0000
0000
0000
0000
0000
0000
0000
0000
0000
0000
0101
0000
0000
0000
0000
0000
0000
0000
0000
0000
0000
0000
0000
0000
0000
0000
0000
0000
0000
0000
0000
0000
0000
0000
1000
0000
0000
0000
0000
0000
0000
0000
0000
0000
0000
0000
0110
0000
0000
0000
0000
0000
0001
0000
0000
0000
0000
0000
0110
0000
0000
0000
0000
0000
0000
0000
0000
0000
0000
0000
1000
0000
0000
0000
0000
0000
0000
0000
0000
0000
0000
0000
0001
0000
0000
0000
0000
0000
0000
0000
0000
0000
0000
0000
0010
0000
0000
0000
0000
0000
0000
0000
0000
0000
0000
0000
1100
0000
0000
0000
0000
0000
0000
0000
0000
0000
0000
0000
0010
0000
0000
0000
0000
0000
0000
0000
0000
0000
0000
0000
1000
0000
0000
0000
0000
0000
0000
0000
0001
0000
0000
0000
0000
0000
0000
0000
1000
0000
0000
0000
0000
0000
0000
0000
,
0110
0000
0000
0000
0000
0000
0101
0000
0000
1000
0000
0000
0110
0000
0000
0000
0000
0000
0001
0000
0000
1000
0000
0000
0001
0000
0000
1000
0000
0000
0001
0000
0000
1000
0000
0000
0010
0000
0000
1000
0000
0000
0001
0000
0010
0000
0100
0000
,
0010
0000
1000
0000
0001
0000
1000
0000
0110
0000
0000
0000
0101
0000
1000
0000
0110
0000
0000
0000
1000
0000
0100
0000
0011
0000
0000
0000
0100
0010
0001
1000
,
0110
0001
1010
0000
1100
0000
1001
0010
0100
0010
1000
0000
0100
0010
0100
0010
,
0100
0000
0000
0010
0000
0000
0100
0000
0000
0010
0000
0000
1000
0000
0000
0000
0000
0000
0100
0000
0000
0010
0000
0000
0100
0000
0000
0010
0000
0000
0001
0000
0000
0000
0000
0000
1000
0000
0000
0010
0000
0000
0100
0000
0010
0000
0001
0000
,
0010
0000
0000
0010
0000
0000
0010
0000
0000
0000
0000
0000
1000
0000
0000
0000
0000
0000
0010
0000
0000
0100
0000
0000
0010
0000
0000
0100
0000
0000
0010
0000
0000
0001
0000
0000
1000
0000
0000
0010
0000
0000
0100
0000
0010
0000
0001
0000
,
0010
0100
0010
0100
1000
0100
0010
0001
0010
0100
0001
0100
1000
0000
0100
0001
,
0110
0000
0100
1000
0101
0000
1000
0000
0110
0000
1000
0000
0011
0100
0010
0100
,
0011
0000
0000
0000
0000
0000
0000
0000
0000
0000
0000
0000
0000
0000
0000
0000
0000
0000
0000
0000
0000
0000
0000
0000
0110
0000
0000
0000
0000
0000
0000
0000
0000
0000
0000
0000
0001
0000
0000
0000
0000
0000
0000
0000
0000
0000
0000
0000
1010
0000
0000
0000
0000
0000
0000
0000
0000
0000
0000
0000
0000
0000
0000
0000
0000
0000
0000
0000
0000
0000
0000
0000
0001
0000
0000
0000
0000
0000
0000
0000
0000
0000
0000
0000
0110
0000
0000
0000
0000
0000
1000
0000
0000
0000
0000
0000
0110
0000
0000
0000
0000
0000
0000
0000
0000
0000
0000
0000
0001
0000
0000
0000
0000
0000
0000
0000
0000
0000
0000
0000
1000
0000
0000
0000
0000
0000
0000
0000
0000
0000
0000
0000
0100
0000
0000
0000
0000
0000
0000
0000
0000
0000
0000
0000
0011
0000
0000
0000
0000
0000
0000
0000
0000
0000
0000
0000
0100
0000
0000
0000
0000
0000
0000
0000
0000
0000
0000
0000
0001
0000
0000
0000
0000
0000
0000
0000
1000
0000
0000
0000
0000
0000
0000
0000
0001
0000
0000
0000
0000
0000
0000
0000
,
0110
0000
0000
0000
0000
0000
1010
0000
0000
0001
0000
0000
0110
0000
0000
0000
0000
0000
1000
0000
0000
0001
0000
0000
1000
0000
0000
0001
0000
0000
1000
0000
0000
0001
0000
0000
0100
0000
0000
0001
0000
0000
1000
0000
0100
0000
0010
0000
,
0100
0000
0001
0000
1000
0000
0001
0000
0110
0000
0000
0000
1010
0000
0001
0000
0110
0000
0000
0000
0001
0000
0010
0000
1100
0000
0000
0000
0010
0100
1000
0001
,
0110
1000
0100
0000
0110
0000
0001
0100
0010
0100
0001
0000
0010
0100
0010
0100
,
0010
0000
0000
0100
0000
0000
0010
0000
0000
0100
0000
0000
0001
0000
0000
0000
0000
0000
0010
0000
0000
0100
0000
0000
0010
0000
0000
0100
0000
0000
1000
0000
0000
0000
0000
0000
0001
0000
0000
0100
0000
0000
0010
0000
0100
0000
1000
0000
,
0100
0000
0000
0100
0000
0000
0100
0000
0000
0000
0000
0000
0001
0000
0000
0000
0000
0000
0100
0000
0000
0010
0000
0000
0100
0000
0000
0010
0000
0000
0100
0000
0000
1000
0000
0000
0001
0000
0000
1000
0000
0000
0010
0000
0100
0000
1000
0000
,
0100
0010
0100
0010
0101
0010
0100
1000
0110
0001
1000
0001
1010
0000
0010
1000
,
0102
0000
0000
0010
0000
0000
0100
0000
0000
0000
0000
0000
1000
0000
0000
0000
0000
0000
0010
0000
0000
0100
0000
0000
0023
0000
0000
0100
0000
0000
1000
0000
0000
0100
0000
0000
0001
0000
0000
0000
0000
0000
2000
0000
0030
3002
0000
0000
,
2003
0000
0010
0000
0100
0000
0010
0000
0001
0000
0000
0000
0010
0000
0100
0000
3002
0000
0010
0000
0100
0000
0010
0000
1000
0000
0000
0000
0203
0000
0000
0300
,
0200
0010
1000
0010
0001
0000
0010
1000
0010
1000
0010
1000
0001
0000
1000
0010
,
1000
0000
0000
0010
0000
0000
1000
0000
0300
0010
0000
0000
2001
0000
0000
0000
0000
0000
0010
0000
0000
0001
0000
0000
3200
0000
0000
0000
0000
0000
1000
0000
0000
0000
0000
0000
0321
0000
0000
0000
0000
0000
0100
0000
0000
0000
0000
0000
,
0032
0100
0010
0100
1000
0000
0100
0010
0203
0010
0001
0010
1000
0000
0320
2030
,
3020
0000
0100
0000
1000
0000
0100
0000
0001
0000
0000
0000
0100
0000
1000
0000
0230
0000
1000
0000
0010
0000
0000
0000
0001
0000
0000
0000
2310
0000
0000
3000
,
2000
0100
0010
0100
0001
0000
0010
0100
0000
0100
0010
0100
3021
0100
1000
0000
,
0230
0000
0010
0000
0001
0000
0320
0100
0000
1000
0100
0000
1032
0000
0100
0000
,
0023
0100
1000
0100
0001
0000
0100
1000
0000
0100
1000
0100
2031
0000
0100
0010
,
3200
0000
0010
0000
1000
0000
0010
0000
0001
0000
0000
0000
0320
0000
0230
0000
0320
0000
0000
0000
0100
0000
0000
0000
0001
0000
0000
0000
2130
0000
0000
3000
,
2000
0100
0010
0100
0001
0000
0100
0010
0000
0100
0010
0100
3001
0000
0100
2010
,
0100
0010
0100
3002
0010
0000
0203
0010
0000
0000
0010
0000
2301
0000
3020
0000
,
2030
0100
0010
0100
0001
0000
0010
0100
0000
0010
0100
0010
0001
0000
0100
0010
,
3200
0010
1000
0010
0001
0000
1000
0010
2300
0010
0100
0000
0001
0010
0100
0010
,
3100
0000
0000
0010
0000
0000
0001
0000
0000
0010
0000
0000
1001
0000
0000
0000
0000
0000
0001
0000
0100
0000
0010
0000
1000
0000
0000
0010
0000
0000
0100
0000
0000
0010
0000
0000
1001
0000
0000
0010
0000
0000
0100
0000
0000
1000
0000
0000
,
0110
0000
0000
0000
0101
0000
0000
0000
1001
0000
0010
0000
0100
0000
1010
0000
0000
0000
0011
0000
1100
0000
0000
0000
0011
1000
0100
0010
0001
0000
0100
0000
,
1010
0100
0011
1000
0110
0000
0011
1000
0110
0000
1100
0000
0101
1000
0110
0000
,
1100
0000
0001
0000
0110
0000
0000
0000
0011
0000
0000
0000
1010
0000
0100
0000
1001
0100
0010
0001
1100
0000
0000
0000
0101
0000
0010
0000
1001
0000
0000
0000
,
0110
0000
0110
1000
0101
0000
1010
0100
0011
0100
1010
0000
1010
0100
1010
0000
,
0110
0000
0001
0000
1010
0000
0100
0000
0011
0000
0000
0000
1001
0000
0010
0000
1100
0000
0000
0000
0110
0000
0000
0000
1001
0000
0100
1000
0001
0010
0100
0000
,
1010
0020
0230
2300
,
3002
0000
0000
0000
0000
0000
0023
0000
0000
0000
0000
0000
0032
0000
0000
0000
0000
0000
0000
0000
0023
0000
2030
0000
3200
0000
0000
0000
0000
0000
0000
0000
0000
0000
0000
0000
0320
0000
0000
0000
0000
0000
0000
0000
0000
0030
0000
0000
,
0100
0001
0000
0100
0001
0000
1000
0010
0010
0000
0001
0100
0001
0000
0000
0100
,
0001
0001
0000
0100
0001
0010
1000
0010
0100
0100
0000
0100
0001
0000
0000
0001
,
0010
1000
0010
0100
0000
0000
0001
0000
0000
0001
0100
0000
0001
0000
0000
0100
,
0001
0000
0000
0000
0100
0000
0001
0000
0000
0000
0000
0000
0001
0000
0000
0000
0000
0000
0000
0000
0000
0000
0000
0000
0000
0000
0000
0000
0001
0010
0100
1000
,
0001
0000
1000
0000
0000
0000
0001
0000
1000
0000
0000
0000
0001
0000
1000
0000
0000
0000
0000
0000
1000
0000
0000
0000
0001
0000
0010
1000
0100
0000
0000
0000
,
0010
0000
0000
0000
0001
0000
1000
0000
0001
0000
0000
0000
0100
0000
0000
0000
0001
0000
0001
0000
0000
0000
0100
0000
0001
0000
0000
0000
0001
0010
0100
1000
,
0001
0200
2300
3002
,
0023
0000
0000
0000
0000
0000
0032
0000
0000
0000
0000
0000
2003
0000
0000
0000
0000
0000
0000
0000
3200
0000
0302
0000
0023
0000
0000
0000
0000
0000
0000
0000
0000
0000
0000
0000
0031
0000
0000
0100
0000
0000
0010
0000
0000
1000
0000
0000
,
0010
0100
1000
0001
0010
0000
0100
0100
0010
0000
0100
0001
0010
0000
0010
0000
,
1000
0100
1000
0002
0003
0100
0010
0000
0010
0100
0000
0001
0010
0000
0100
0010
,
1000
0000
0000
0000
0000
0000
0012
0000
0000
0000
0000
0000
0000
0003
0100
0002
,
0000
0000
0003
0000
0010
0000
0100
0000
0001
0000
0100
0000
0010
0100
1000
0001
0010
0000
0000
0000
0100
0000
0010
0000
1000
0000
0000
0000
0010
0000
0000
0000
,
0010
0000
0000
0000
0010
0000
0000
0000
1000
0000
0000
0000
0010
0000
1000
0000
0000
0000
1000
0000
0010
0000
0000
0000
1000
0000
0000
0000
0001
0010
0100
1000
,
0001
0000
0010
0010
0001
0000
0100
0000
1000
0100
0010
0000
0001
0010
0100
0001
,
0100
0000
0000
0000
0100
0000
0000
0000
0011
0000
0000
0000
0100
0000
0011
0000
1000
0000
0011
0000
0100
0000
0000
0000
0100
0000
0010
0000
0100
0010
0001
1000
,
0110
0000
0001
0001
0110
0000
1000
0110
0001
0110
1000
0000
0001
0010
0001
1000
,
0011
0000
0000
0000
0011
0000
0000
0000
1001
0000
0000
0000
0010
0000
1100
0000
0001
0000
1100
0000
0010
0000
0000
0000
0001
0000
0100
0000
0010
0001
1000
0100
,
0011
0000
0100
0100
0011
0000
0011
0000
0000
0110
0010
0000
1010
0100
0010
0100
,
0011
0000
0000
0000
0011
0000
0000
0000
1010
0000
0000
0000
0100
0000
1010
0000
0001
0000
1010
0000
0100
0000
0000
0000
0001
0000
0010
0000
0001
0010
0100
1000
,
0011
0000
1000
0001
0110
1000
0100
0011
1000
0011
0100
0000
0110
0000
1000
0010
,
1100
0000
0010
0100
1010
0000
0010
1100
0001
1100
0001
0000
0001
0001
0001
0000
,
0010
0000
0100
0010
1100
0000
0110
0000
0000
0110
0110
0000
1000
0100
0010
0001
,
0110
0000
0000
0000
0020
0000
0000
0000
0230
0000
0000
0000
2300
0000
0000
3000
,
0002
0000
0000
0000
0000
0000
0000
0000
0000
0000
0000
0000
0000
0000
0000
0000
0000
0000
0000
0000
0000
0000
0000
0000
2003
0000
0000
0000
0000
0000
0000
0000
0000
0000
0000
0000
0000
0000
0000
0000
0000
0000
0000
0000
0000
0000
0000
0000
3200
0000
0000
0000
0000
0000
0000
0000
0000
0000
0000
0000
0000
0000
0000
0000
0000
0000
0000
0000
0000
0000
0000
0000
0000
0000
0000
0000
0000
0000
0000
0000
2300
0000
0000
0000
0000
0000
0000
0000
3200
0000
0000
0000
0000
0000
0000
0000
0302
0000
0000
0000
0000
0000
0000
0000
0000
0000
0000
0000
0000
0000
0000
0000
0000
0000
0000
0000
0000
0000
0000
0000
0000
0000
0000
0000
0000
0000
0000
0000
0000
0000
0000
0000
0000
0000
0000
0000
0000
0000
0000
0000
0000
0000
0000
0000
0023
0000
0000
0000
0000
0000
0000
0000
0000
0000
0000
0000
0000
0000
0000
0000
0000
0000
0000
0000
0000
0000
0000
0000
0000
0000
0000
0000
0000
0000
0000
0000
0000
0000
0000
0000
0000
0000
0000
0000
0000
0000
0030
0000
0000
0000
0000
0000
,
1001
0000
1001
0000
0101
0000
0010
1100
0000
1100
0010
0000
0010
0100
0010
1000
,
0110
0000
0001
0110
1010
0000
0110
0000
0000
0110
1010
0000
1010
0001
0100
1010
,
1001
0000
1001
0000
0101
0000
0010
0101
0000
0101
0010
0000
0001
0001
0001
0000
,
0110
0000
0010
1001
0101
0000
0010
0101
0000
0101
0010
0000
0101
0000
0010
1001
,
0101
0000
0000
0000
0000
0000
0110
0000
0000
0000
0000
0000
1010
0000
0000
0000
0000
0000
0001
0000
0000
0110
0000
0000
0000
0000
0000
0110
0000
0000
0001
0000
0000
0000
0000
0000
1000
0000
0000
0001
0000
0000
1000
0000
0010
0000
1000
0000
,
0101
0000
0101
1000
0110
0000
0101
0000
0000
0101
0110
0000
0100
0010
0100
1000
,
0102
0010
0100
0000
1000
0000
0010
0100
0023
0100
1000
0000
0001
0000
2030
3002
,
2003
0000
0000
0000
0100
0000
0010
0000
0001
0000
0000
0000
0010
0000
0100
0000
3002
0000
0010
0000
0100
0000
0000
0000
1000
0000
0000
0000
0203
0000
0010
0300
,
0200
0000
1000
0000
0001
0000
0010
1000
0010
1000
0010
0000
0001
0000
0010
0001
,
0010
0000
0000
0000
0000
0000
1000
0000
0300
0010
0000
0000
2001
0000
0000
0000
0000
0000
0010
0000
0000
0000
0000
0000
3200
0000
0000
0001
0000
0000
0010
0000
0000
1000
0000
0000
0321
0000
0000
1000
0000
0000
0100
0000
0000
1000
0000
0000
,
0032
0000
0010
0100
1000
0000
0100
0010
0203
0010
0001
0000
1000
0000
0320
2030
,
3020
0000
0000
0000
1000
0000
0100
0000
0001
0000
0000
0000
0100
0000
1000
0000
0230
0000
1000
0000
0010
0000
0000
0000
0001
0000
0000
0000
2310
0000
0001
3000
,
2010
0000
0010
0000
0001
0000
0010
0100
0000
0100
0010
0100
3021
0000
1000
0000
,
0230
0000
0010
1000
0001
0000
0320
0000
0000
1000
0100
0000
1032
0000
0100
1000
,
0123
0000
0100
1000
0001
0000
0100
1000
0100
1000
0100
0000
2031
0000
0100
0010
,
3201
0000
0000
0000
1000
0000
0010
0000
0001
0000
0000
0000
0320
0000
0230
0000
0320
0000
1000
0000
0100
0000
0000
0000
0001
0000
0000
0000
2130
0000
0010
3000
,
2000
0000
0010
0100
0001
0000
0100
0010
0000
0100
0010
0000
3001
0000
0100
2010
,
0100
0010
0100
3020
0001
0000
0230
0010
0000
0010
0001
0010
2301
0000
3020
0001
,
2030
0100
0010
0100
0001
0000
0010
0100
0000
0010
0100
0010
0001
0000
0100
0010
,
3200
0010
1000
0010
0001
0000
1000
0010
2300
0010
0100
0000
0001
0010
0100
0010
,
3001
0100
1000
0100
1001
0000
1000
0001
0010
0100
0010
0100
1001
0100
0010
0001
,
0110
0000
0000
0000
1010
0000
0000
0000
1001
0000
0100
0000
0010
0000
0101
0000
0000
0000
1100
0000
0011
0000
0000
0000
1100
0010
0001
1000
0100
0000
0010
0000
,
0101
0000
0010
0000
1100
0000
0001
0000
0110
0000
0000
0000
1100
0000
0001
0000
0110
0000
1000
0000
0011
0000
0000
0000
1010
0000
0001
0000
0110
1000
0001
0010
,
1100
0000
0001
0000
0110
0000
0000
0000
1100
0000
0000
0000
0101
0000
1000
0000
0011
0100
1000
0001
0110
0000
0000
0000
1010
0000
0100
0000
1001
0000
0000
0000
,
0110
0000
0000
0000
0110
0000
0001
0000
1010
0000
0000
0000
0101
0000
0010
0000
1100
0000
0010
0000
0101
0000
0000
0000
0101
0000
1000
0000
0011
1000
0100
0010
,
1001
0000
0010
0000
0101
0000
0010
0000
1100
0000
0000
0000
1001
0000
0100
0000
0011
0000
0000
0000
0110
0000
0000
0000
1001
0000
0010
0100
1000
0001
0010
0000
,
0101
0000
0002
0100
0023
0000
0231
0000
,
2300
0000
0000
3210
0000
0000
0320
0000
0000
0000
0230
0320
0231
0000
0000
0000
0000
0000
2301
0000
0000
0000
0000
0000
,
3210
0320
2030
0010
0000
0000
0001
0000
,
3000
0010
0210
0320
2130
0000
3012
0000
,
1023
0230
2300
3120
0000
0000
0001
0000
,
0000
1000
0000
0000
0001
0000
0100
0000
,
0001
0000
0000
1000
0000
0000
0100
0000
,
0000
1000
0030
0000
0100
0000
0010
0000
,
1001
0002
0023
0230
,
2300
0000
0000
3200
0000
0000
0320
0000
0000
0000
0230
0320
0230
0000
0000
0000
0000
0000
2300
0000
0000
0000
0000
0000
,
3200
0320
2030
0000
0000
0000
0000
0000
,
3000
0000
0200
0320
2030
0000
3002
0000
,
0023
0000
0000
0000
,
0000
0000
0000
0000
,
0000
0000
0000
0000
,
0030
0000
0000
0000
;

//---------------dance-single - HUH2----------------
#NOTES:
     dance-single:
     HUH2:
     Hard:
     13:
     1.000,1.000,0.892,0.328,1.000,1360.000,193.000,71.000,0.000,0.000:

1000
0100
1000
0100
0011
0000
1000
0100
1000
0100
0011
0000
1000
0010
1000
0100
,
1000
0000
0000
0100
0000
0000
1000
0000
0000
0100
0000
0000
0011
0000
0000
0000
0000
0000
1000
0000
0000
0100
0000
0000
1000
0000
0000
0100
0000
0000
0010
0000
0000
0100
0000
0000
0011
0000
0000
0100
0000
0000
0010
0000
1000
0000
0010
0000
,
1000
0000
0000
0001
0000
0000
1000
0000
0000
0001
0000
0000
0110
0000
0000
0000
0000
0000
1000
0000
0000
0010
0000
0000
1000
0000
0000
0001
0000
0000
1000
0000
0000
0001
0000
0000
0110
0000
0000
0001
0000
0000
1000
0000
0100
0000
0010
0000
,
0100
0001
1000
0001
0110
0000
1000
0001
1000
0001
0100
0001
0110
0001
1000
0001
,
0010
0100
0001
0100
0011
0000
0001
0100
0001
0100
0011
0000
0001
1000
0001
0100
,
0001
0000
0000
0100
0000
0000
0001
0000
0000
0100
0000
0000
0011
0000
0000
0000
0000
0000
0001
0000
0000
0100
0000
0000
0001
0000
0000
0100
0000
0000
0010
0000
0000
0100
0000
0000
0011
0000
0000
0100
0000
0000
0001
0000
0010
0000
0100
0000
,
1000
0000
0000
0100
0000
0000
1000
0000
0000
0100
0000
0000
1001
0000
0000
0000
0000
0000
1000
0000
0000
0010
0000
0000
1000
0000
0000
0100
0000
0000
1000
0000
0000
0100
0000
0000
1001
0000
0000
0100
0000
0000
1000
0000
0100
0000
0010
0000
,
0001
0100
1000
0100
1001
0000
1000
0100
1000
0100
0001
0100
1001
0100
0010
1001
,
0100
0010
0100
0010
1100
0000
0100
0010
0100
0010
1100
0000
0100
0010
0100
0010
,
0100
0000
0000
0010
0000
0000
0100
0000
0000
0010
0000
0000
1100
0000
0000
0000
0000
0000
0100
0000
0000
0010
0000
0000
0100
0000
0000
0010
0000
0000
1000
0000
0000
0010
0000
0000
1100
0000
0000
0010
0000
0000
0100
0000
0001
0000
1000
0000
,
0010
0000
0000
1000
0000
0000
0010
0000
0000
1000
0000
0000
0101
0000
0000
0000
0000
0000
0010
0000
0000
1000
0000
0000
0010
0000
0000
1000
0000
0000
0010
0000
0000
1000
0000
0000
0101
0000
0000
1000
0000
0000
0010
0000
0001
0000
1000
0000
,
0010
1000
0010
1000
0101
0000
0010
1000
0010
1000
0001
1000
0110
1000
0001
0110
,
1000
0000
0001
1000
0110
0000
1010
0000
0000
0001
0110
0000
1000
0100
0001
0000
,
0010
0000
1000
0010
0101
0000
0110
0000
0000
1000
0101
0000
0110
0001
0010
0000
,
1000
0000
0001
1000
0110
0000
1010
0000
0000
0001
0110
0000
1100
0010
0001
0000
,
0010
0000
0000
0000
1000
0000
0010
0000
0101
0000
0000
0000
0110
0000
0000
0000
1000
0000
0100
0000
0010
0000
0001
1000
0100
0010
0001
1000
0100
0010
0001
1000
,
0100
0000
0010
0001
1010
0000
0001
0000
0010
0000
0001
0000
1100
0010
0100
0010
,
0100
0000
0000
0000
0000
0000
0000
0000
0000
0000
0000
0000
0000
0000
0000
0000
0000
0000
0000
0000
0000
0000
0000
0000
0010
0000
0000
0000
0000
0000
0000
0000
0000
0000
0000
0000
1000
0000
0000
0000
0000
0000
0000
0000
0000
0000
0000
0000
0101
0000
0000
0000
0000
0000
0000
0000
0000
0000
0000
0000
0000
0000
0000
0000
0000
0000
0000
0000
0000
0000
0000
0000
1000
0000
0000
0000
0000
0000
0000
0000
0000
0000
0000
0000
0100
0000
0000
0000
0000
0000
0010
0000
0000
0000
0000
0000
0100
0000
0000
0000
0000
0000
0000
0000
0000
0000
0000
0000
1000
0000
0000
0000
0000
0000
0000
0000
0000
0000
0000
0000
0001
0000
0000
0000
0000
0000
0000
0000
0000
0000
0000
0000
0010
0000
0000
0000
0000
0000
0000
0000
0000
0000
0000
0000
1100
0000
0000
0000
0000
0000
0000
0000
0000
0000
0000
0000
0010
0000
0000
0000
0000
0000
0000
0000
0000
0000
0000
0000
1000
0000
0000
0000
0000
0000
0000
0000
0001
0000
0000
0000
0000
0000
0000
0000
1000
0000
0000
0000
0000
0000
0000
0000
,
0100
0000
0000
0000
0000
0000
0001
0000
0000
1000
0000
0000
0110
0000
0000
0000
0000
0000
0001
0000
0000
1000
0000
0000
0001
0000
0000
1000
0000
0000
0001
0000
0000
1000
0000
0000
0011
0000
0000
1000
0000
0000
0001
0000
0010
0000
0100
0000
,
0010
0000
1000
0000
0001
0000
1000
0000
0110
0000
0000
0000
0001
0000
1000
0000
0010
0000
0000
0000
1000
0000
0100
0000
0011
0000
0000
0000
0100
0010
0001
1000
,
0100
0001
0010
0000
0101
0000
0001
0010
0100
0010
1001
0000
0100
0010
0100
0010
,
0100
0000
0000
0010
0000
0000
0100
0000
0000
0010
0000
0000
1001
0000
0000
0000
0000
0000
0100
0000
0000
0010
0000
0000
0100
0000
0000
0010
0000
0000
0101
0000
0000
0000
0000
0000
1001
0000
0000
0010
0000
0000
0100
0000
0010
0000
0001
0000
,
0010
0000
0000
1000
0000
0000
0010
0000
0000
0000
0000
0000
1001
0000
0000
0000
0000
0000
0010
0000
0000
0100
0000
0000
0010
0000
0000
0100
0000
0000
0010
0000
0000
0001
0000
0000
1100
0000
0000
0010
0000
0000
0100
0000
0010
0000
0001
0000
,
0010
0100
0010
0100
1010
0100
0010
0001
0010
0100
0011
0100
1001
0000
0100
0001
,
0010
0000
0100
1000
0101
0000
1000
0000
0010
0000
1000
0000
0011
0100
0010
0100
,
0001
0000
0000
0000
0000
0000
0000
0000
0000
0000
0000
0000
0000
0000
0000
0000
0000
0000
0000
0000
0000
0000
0000
0000
0010
0000
0000
0000
0000
0000
0000
0000
0000
0000
0000
0000
0001
0000
0000
0000
0000
0000
0000
0000
0000
0000
0000
0000
1010
0000
0000
0000
0000
0000
0000
0000
0000
0000
0000
0000
0000
0000
0000
0000
0000
0000
0000
0000
0000
0000
0000
0000
0001
0000
0000
0000
0000
0000
0000
0000
0000
0000
0000
0000
0010
0000
0000
0000
0000
0000
0100
0000
0000
0000
0000
0000
0010
0000
0000
0000
0000
0000
0000
0000
0000
0000
0000
0000
0001
0000
0000
0000
0000
0000
0000
0000
0000
0000
0000
0000
1010
0000
0000
0000
0000
0000
0000
0000
0000
0000
0000
0000
0100
0000
0000
0000
0000
0000
0000
0000
0000
0000
0000
0000
0011
0000
0000
0000
0000
0000
0000
0000
0000
0000
0000
0000
0100
0000
0000
0000
0000
0000
0000
0000
0000
0000
0000
0000
0001
0000
0000
0000
0000
0000
0000
0000
1000
0000
0000
0000
0000
0000
0000
0000
0001
0000
0000
0000
0000
0000
0000
0000
,
0100
0000
0000
0000
0000
0000
0010
0000
0000
0001
0000
0000
0110
0000
0000
0000
0000
0000
1000
0000
0000
0001
0000
0000
1000
0000
0000
0001
0000
0000
1000
0000
0000
0001
0000
0000
1100
0000
0000
0001
0000
0000
1000
0000
0100
0000
0010
0000
,
0100
0000
0001
0000
1000
0000
0001
0000
0110
0000
0000
0000
1000
0000
0001
0000
0010
0000
0000
0000
1001
0000
0010
0000
1100
0000
0000
0000
0010
0100
1000
0001
,
0010
1000
0100
0000
0110
0000
0001
0100
0010
0100
1001
0000
0010
0100
0010
0100
,
0010
0000
0000
0100
0000
0000
0010
0000
0000
0100
0000
0000
1001
0000
0000
0000
0000
0000
0010
0000
0000
0100
0000
0000
0010
0000
0000
0100
0000
0000
1010
0000
0000
0000
0000
0000
0011
0000
0000
0100
0000
0000
0010
0000
0100
0000
1000
0000
,
0100
0000
0000
0001
0000
0000
0100
0000
0000
0000
0000
0000
1001
0000
0000
0000
0000
0000
0100
0000
0000
0010
0000
0000
0100
0000
0000
0010
0000
0000
0100
0000
0000
1000
0000
0000
0101
0000
0000
1000
0000
0000
0010
0000
0100
0000
1000
0000
,
0100
0010
0100
0010
0101
0010
0100
1000
0010
0001
1000
0001
1010
0000
0010
1000
,
0101
0010
0100
0000
1000
0000
0010
0100
0011
0100
1000
0100
0001
0000
1100
0010
,
1001
0010
0100
0010
0001
0000
0010
0100
1001
0010
0100
0010
0001
0000
0101
0000
,
0101
0010
1000
0010
0001
0000
0010
1000
0010
1000
0010
1000
0001
0000
1000
0010
,
1000
0010
1000
0010
1001
0000
0010
0001
0110
0000
1000
0000
0011
0000
0000
0000
,
1001
0100
0010
0100
1000
0000
0100
0010
1100
0010
0001
0010
1000
0000
0011
1000
,
0011
0100
1000
0100
0001
0000
0100
1000
0101
1000
0010
0000
0001
0000
1001
0000
,
1001
0100
0010
0100
0001
0000
0010
0100
0000
0100
0010
0100
0011
0100
1000
0000
,
0101
0000
0010
0000
0001
0000
1010
0100
0000
1000
0100
0000
1001
0000
0100
0000
,
0011
0100
1000
0100
0001
0000
0100
1000
0000
0100
1000
0100
1001
0000
0100
0010
,
0101
0010
1000
0010
0001
0000
0110
0001
0110
0000
0100
0000
0001
0000
1010
0000
,
1010
0100
0010
0100
0001
0000
0100
0010
0000
0100
0010
0100
0001
0000
0100
1010
,
0100
0010
0100
1010
0001
0000
1100
0010
0000
0000
0010
0000
1001
0000
0110
0000
,
1010
0100
0010
0100
0001
0000
0010
0100
0000
0010
0100
0010
0001
0000
0100
0010
,
0101
0010
1000
0010
0001
0000
1000
0010
1001
0010
0100
0000
0001
0010
0100
0010
,
1100
0000
0000
0010
0000
0000
0001
0000
0000
0010
0000
0000
0001
0000
0000
0000
0000
0000
0001
0000
0100
0000
0010
0000
1000
0000
0000
0010
0000
0000
0100
0000
0000
0010
0000
0000
0001
0000
0000
0010
0000
0000
0100
0000
0000
1000
0000
0000
,
0100
0000
0000
0000
0101
0000
0000
0000
0001
0000
0010
0000
0100
0000
1000
0000
0000
0000
0010
0000
0100
0000
0000
0000
0001
1000
0100
0010
0001
0000
0100
0000
,
1000
0100
0010
1000
0100
0000
0010
1000
0100
0000
1000
0000
0001
1000
0100
0000
,
0100
0000
0001
0000
0100
0000
0000
0000
0010
0000
0000
0000
0010
0000
0100
0000
1000
0100
0010
0001
1000
0000
0000
0000
0100
0000
0010
0000
0001
0000
0000
0000
,
0010
0000
0100
1000
0001
0000
1000
0100
0010
0100
0010
0000
0010
0100
1000
0000
,
0010
0000
0001
0000
1000
0000
0100
0000
0010
0000
0000
0000
0001
0000
0010
0000
0100
0000
0000
0000
0010
0000
0000
0000
0001
0000
0100
1000
0001
0010
0100
0000
,
0010
0020
0230
2300
,
3002
0000
0000
0000
0000
0000
0023
0000
0000
0000
0000
0000
0032
0000
0000
0000
0000
0000
0000
0000
0023
0000
2030
0000
3200
0000
0000
0000
0000
0000
0000
0000
0000
0000
0000
0000
0320
0000
0000
0000
0000
0000
0000
0000
0000
0030
0000
0000
,
0100
0001
0000
0100
0001
0000
1000
0010
0100
0000
0001
0100
0001
0000
0000
0100
,
0001
0010
0000
0100
0001
0010
1000
0010
0100
0010
0000
0100
0001
0000
0000
0001
,
0010
1000
0010
0100
0000
0000
0001
0000
0000
0001
0100
0000
0001
0000
0000
0100
,
0001
0000
0000
0000
0100
0000
0001
0000
0000
0000
0000
0000
0001
0000
0000
0000
0000
0000
0000
0000
0000
0000
0000
0000
0000
0000
0000
0000
0001
0010
0100
1000
,
0001
0000
1000
0000
0000
0000
0001
0000
1000
0000
0000
0000
0001
0000
1000
0000
0000
0000
0000
0000
1000
0000
0000
0000
0001
0000
0010
1000
0100
0000
0000
0000
,
0010
0000
0000
0000
0001
0000
1000
0000
0001
0000
0000
0000
0100
0000
0000
0000
0001
0000
0001
0000
0000
0000
0100
0000
0001
0000
0000
0000
0001
0010
0100
1000
,
0001
0200
2300
3002
,
0023
0000
0000
0000
0000
0000
0032
0000
0000
0000
0000
0000
2003
0000
0000
0000
0000
0000
0000
0000
3200
0000
0302
0000
0023
0000
0000
0000
0000
0000
0000
0000
0000
0000
0000
0000
0031
0000
0000
0100
0000
0000
0010
0000
0000
1000
0000
0000
,
0010
0100
1000
0001
0010
0000
0100
1000
0010
0000
0100
0001
0010
0000
0010
0000
,
1000
0100
1000
0002
0003
0100
0010
0000
0010
0100
0000
0001
0010
0000
0100
0010
,
1000
0000
0000
0000
0000
0000
0012
0000
0000
0000
0000
0000
0000
0003
0100
0002
,
0000
0000
0003
0000
0010
0000
0100
0000
0001
0000
0100
0000
0010
0100
1000
0001
0010
0000
0000
0000
0100
0000
0010
0000
1000
0000
0000
0000
0010
0000
0000
0000
,
0010
0000
0000
0000
0010
0000
0000
0000
1000
0000
0000
0000
0010
0000
1000
0000
0000
0000
1000
0000
0010
0000
0000
0000
1000
0000
0000
0000
0001
0010
0100
1000
,
0001
0000
0100
0010
0001
0000
0100
0000
1000
0100
0010
0000
0001
0010
0100
0001
,
0100
0000
0000
0000
0100
0000
0000
0000
0011
0000
0000
0000
0100
0000
0001
0000
1000
0000
0001
0000
0100
0000
0000
0000
0101
0000
0010
0000
0100
0010
0001
1000
,
0100
0000
0001
0001
0110
0000
1000
0010
0100
0010
1000
0000
1001
0010
0001
1000
,
0010
0000
0000
0000
0010
0000
0000
0000
1001
0000
0000
0000
0010
0000
1000
0000
0001
0000
1000
0000
0010
0000
0000
0000
1001
0000
0100
0000
0010
0001
1000
0100
,
0010
0000
0100
0100
0011
0000
0010
0000
0000
0010
0100
0000
1010
0100
0010
0100
,
0001
0000
0000
0000
0001
0000
0000
0000
1010
0000
0000
0000
0100
0000
1000
0000
0001
0000
1000
0000
0100
0000
0000
0000
1001
0000
0010
0000
0001
0010
0100
1000
,
0010
0000
1000
0001
0110
1000
0100
0001
1000
0001
0100
0000
0110
0000
1000
0010
,
1100
0000
0010
0100
1010
0000
0010
1000
0100
1000
0001
0000
0001
1000
0001
0000
,
0010
0000
0100
0010
1100
0000
0010
0000
0000
0010
0010
0000
1001
0100
0010
0001
,
0010
0000
0000
0000
0020
0000
0000
0000
0230
0000
0000
0000
2300
0000
0000
3000
,
0002
0000
0000
0000
0000
0000
0000
0000
0000
0000
0000
0000
0000
0000
0000
0000
0000
0000
0000
0000
0000
0000
0000
0000
2003
0000
0000
0000
0000
0000
0000
0000
0000
0000
0000
0000
0000
0000
0000
0000
0000
0000
0000
0000
0000
0000
0000
0000
3200
0000
0000
0000
0000
0000
0000
0000
0000
0000
0000
0000
0000
0000
0000
0000
0000
0000
0000
0000
0000
0000
0000
0000
0000
0000
0000
0000
0000
0000
0000
0000
2300
0000
0000
0000
0000
0000
0000
0000
3200
0000
0000
0000
0000
0000
0000
0000
0302
0000
0000
0000
0000
0000
0000
0000
0000
0000
0000
0000
0000
0000
0000
0000
0000
0000
0000
0000
0000
0000
0000
0000
0000
0000
0000
0000
0000
0000
0000
0000
0000
0000
0000
0000
0000
0000
0000
0000
0000
0000
0000
0000
0000
0000
0000
0000
0023
0000
0000
0000
0000
0000
0000
0000
0000
0000
0000
0000
0000
0000
0000
0000
0000
0000
0000
0000
0000
0000
0000
0000
0000
0000
0000
0000
0000
0000
0000
0000
0000
0000
0000
0000
0000
0000
0000
0000
0000
0000
0030
0000
0000
0000
0000
0000
,
1001
0000
1001
0000
0101
0000
0010
1000
0000
1000
0010
0000
1010
0100
0010
1000
,
0100
0000
0001
0100
1010
0000
0010
0000
0000
0100
0010
0000
1010
0001
0100
0010
,
1000
0000
1000
0000
0101
0000
0010
0100
0000
0100
0010
0000
0101
1000
0001
0000
,
0100
0000
0010
1000
0101
0000
0010
0001
0000
0001
0010
0000
0101
0000
0010
0001
,
0100
0000
0000
0000
0000
0000
0100
0000
0000
0000
0000
0000
1010
0000
0000
0000
0000
0000
0001
0000
0000
0100
0000
0000
0000
0000
0000
0100
0000
0000
0001
0000
0000
0000
0000
0000
1010
0000
0000
0001
0000
0000
1000
0000
0010
0000
1000
0000
,
0100
0000
0001
1000
0110
0000
0001
0000
0000
0001
0010
0000
0100
0010
0100
1000
,
0101
0010
0100
0000
1000
0000
0010
0100
1010
0100
1000
0000
0001
0000
1010
0001
,
1010
0000
0100
0010
0001
0000
0010
0100
1001
0010
0100
0000
1000
0000
0110
1000
,
0110
0000
1000
0000
0001
0000
0010
1000
0010
1000
0010
0000
0001
0000
1000
0001
,
1000
0000
1000
0010
1001
0000
0010
0000
0110
0001
1000
0100
0011
1000
0100
1000
,
0101
0000
0010
0100
1000
0000
0100
0010
0101
0010
0001
0000
1000
0000
0011
1000
,
0011
0000
1000
0100
0001
0000
0100
1000
0101
1000
0010
0000
0001
0000
1010
0001
,
1010
0000
0010
0000
0001
0000
0010
0100
0000
0100
0010
0100
0011
0000
1000
0000
,
0101
0000
0010
1000
0001
0000
0011
0000
0000
1000
0100
0000
1001
0000
0100
1000
,
0110
0000
0100
1000
0001
0000
0100
1000
0100
1000
0100
0000
1001
0000
0100
0010
,
0101
0000
1000
0010
0001
0000
0101
1000
0101
1000
0100
0000
0001
0000
1100
0010
,
1001
0000
0010
0100
0001
0000
0100
0010
0000
0100
0010
0000
0001
0000
0100
1001
,
0100
0010
0100
1010
0001
0000
0101
0010
0000
0100
0010
0100
1001
0000
0011
0100
,
1010
0100
0010
0100
0001
0000
0010
0100
0000
0010
0100
0010
0001
0000
0100
0010
,
0101
0010
1000
0010
0001
0000
1000
0010
1001
0010
0100
0000
0001
0010
0100
0010
,
1001
0100
1000
0100
0001
0000
1000
0001
0010
0100
0010
0100
1000
0100
0010
0001
,
0110
0000
0000
0000
0010
0000
0000
0000
1000
0000
0100
0000
0010
0000
0001
0000
0000
0000
0100
0000
0010
0000
0000
0000
0100
0010
0001
1000
0100
0000
0010
0000
,
0001
0000
0010
0000
0100
0000
0001
0000
0010
0000
0000
0000
0100
0000
0001
0000
0100
0000
1000
0000
0010
0000
0000
0000
1000
0000
0001
0000
0100
1000
0001
0010
,
0100
0000
0001
0000
0010
0000
0000
0000
0100
0000
0000
0000
0001
0000
0010
0000
0001
0100
1000
0001
0010
0000
0000
0000
0010
0000
0100
0000
0001
0000
0000
0000
,
0010
0000
0000
0000
0010
0000
0001
0000
1000
0000
0000
0000
0001
0000
0010
0000
0100
0000
0010
0000
0001
0000
0000
0000
0100
0000
1000
0000
0010
1000
0100
0010
,
0001
0000
1000
0000
0100
0000
0010
0000
0100
0000
0000
0000
1000
0000
0100
0000
0010
0000
0000
0000
0010
0000
0000
0000
1000
0000
0001
0010
0100
1000
0001
0000
,
0100
0000
0000
0000
0000
0000
0000
0000
0000
0000
0000
0000
0000
0000
0000
0000
0000
0000
0000
0000
0000
0000
0000
0000
0000
0000
0000
0000
0000
0000
0000
0000
0000
0000
0000
0000
0000
0000
0000
0000
0000
0000
0000
0000
0000
0000
0000
0000
0002
0000
0000
0000
0000
0000
0000
0000
0000
0000
0000
0000
0000
0000
0000
0000
0000
0000
0000
0000
0000
0000
0000
0000
0100
0000
0000
0000
0000
0000
0000
0000
0000
0000
0000
0000
0000
0000
0000
0000
0000
0000
0000
0000
0000
0000
0000
0000
0023
0000
0000
0000
0000
0000
0000
0000
0000
0000
0000
0000
0000
0000
0000
0000
0000
0000
0000
0000
0000
0000
0000
0000
0000
0000
0000
0000
0000
0000
0000
0000
0000
0000
0000
0000
0000
0000
0000
0000
0000
0000
0000
0000
0000
0000
0000
0030
0201
0000
0000
0000
0000
0000
0000
0000
0000
0000
0000
0000
0000
0000
0000
0000
0000
0000
0000
0000
0000
0000
0000
0000
0000
0000
0000
0000
0000
0000
0000
0000
0000
0000
0000
0000
0000
0000
0000
0000
0000
0000
0000
0000
0000
0000
0000
0000
,
2300
0000
0000
0000
0000
0000
0000
0000
0000
0000
0000
0000
0000
0000
0000
0000
0000
0000
0000
0000
0000
0000
0000
3000
0210
0000
0000
0000
0000
0000
0000
0000
0000
0000
0000
0000
0000
0000
0000
0000
0000
0000
0000
0000
0000
0000
0000
0000
0320
0000
0000
0000
0000
0000
0000
0000
0000
0000
0000
0000
0000
0000
0000
0000
0000
0000
0000
0000
0000
0000
0000
0000
0000
0000
0000
0000
0000
0000
0000
0000
0230
0000
0000
0000
0000
0000
0000
0000
0320
0000
0000
0000
0000
0000
0000
0030
0201
0000
0000
0000
0000
0000
0000
0000
0000
0000
0000
0000
0000
0000
0000
0000
0000
0000
0000
0000
0000
0000
0000
0000
0000
0000
0000
0000
0000
0000
0000
0000
0000
0000
0000
0000
0000
0000
0000
0000
0000
0000
0000
0000
0000
0000
0000
0300
2001
0000
0000
0000
0000
0000
0000
0000
0000
0000
0000
0000
0000
0000
0000
0000
0000
0000
0000
0000
0000
0000
0000
0000
0000
0000
0000
0000
0000
0000
0000
0000
0000
0000
0000
0000
0000
0000
0000
0000
0000
0000
0000
0000
0000
0000
0000
3000
,
0210
0320
2030
0010
0000
0000
0001
0000
,
3000
0000
0000
0000
0000
0000
0000
0000
0000
0000
0000
0000
0000
0000
0000
0000
0000
0000
0000
0000
0000
0000
0000
0000
0010
0000
0000
0000
0000
0000
0000
0000
0000
0000
0000
0000
0000
0000
0000
0000
0000
0000
0000
0000
0000
0000
0000
0000
0210
0000
0000
0000
0000
0000
0000
0000
0000
0000
0000
0000
0000
0000
0000
0000
0000
0000
0000
0000
0000
0000
0000
0000
0320
0000
0000
0000
0000
0000
0000
0000
0000
0000
0000
0000
0000
0000
0000
0000
0000
0000
0000
0000
0000
0000
0000
0030
2100
0000
0000
0000
0000
0000
0000
0000
0000
0000
0000
0000
0000
0000
0000
0000
0000
0000
0000
0000
0000
0000
0000
0000
0000
0000
0000
0000
0000
0000
0000
0000
0000
0000
0000
0000
0000
0000
0000
0000
0000
0000
0000
0000
0000
0000
0000
3000
0012
0000
0000
0000
0000
0000
0000
0000
0000
0000
0000
0000
0000
0000
0000
0000
0000
0000
0000
0000
0000
0000
0000
0000
0000
0000
0000
0000
0000
0000
0000
0000
0000
0000
0000
0000
0000
0000
0000
0000
0000
0000
0000
0000
0000
0000
0000
0003
,
1020
0000
0000
0000
0000
0000
0000
0000
0000
0000
0000
0000
0000
0000
0000
0000
0000
0000
0000
0000
0000
0000
0000
0000
0230
0000
0000
0000
0000
0000
0000
0000
0000
0000
0000
0000
0000
0000
0000
0000
0000
0000
0000
0000
0000
0000
0000
0000
2300
0000
0000
0000
0000
0000
0000
0000
0000
0000
0000
0000
0000
0000
0000
0000
0000
0000
0000
0000
0000
0000
0000
3000
0120
0000
0000
0000
0000
0000
0000
0000
0000
0000
0000
0000
0000
0000
0000
0000
0000
0000
0000
0000
0000
0000
0000
0000
0000
0000
0000
0000
0000
0000
0000
0000
0000
0000
0000
0000
0000
0000
0000
0000
0000
0000
0000
0000
0000
0000
0000
0000
0000
0000
0000
0000
0000
0000
0000
0000
0000
0000
0000
0000
0000
0000
0000
0000
0000
0000
0000
0000
0000
0000
0000
0000
0001
0000
0000
0000
0000
0000
0000
0000
0000
0000
0000
0000
0000
0000
0000
0000
0000
0000
0000
0000
0000
0000
0000
0000
0000
0000
0000
0000
0000
0000
0000
0000
0000
0000
0000
0000
0000
0000
0000
0000
0000
0000
0000
0000
0000
0000
0000
0000
,
0000
1000
0000
0000
0001
0000
0100
0000
,
0001
0000
0000
1000
0000
0000
0100
0000
,
0000
1000
0030
0000
0100
0000
0010
0000
,
1001
0002
0023
0230
,
2300
0000
0000
3200
0000
0000
0320
0000
0000
0000
0230
0320
0230
0000
0000
0000
0000
0000
2300
0000
0000
0000
0000
0000
,
3200
0320
2030
0000
0000
0000
0000
0000
,
3000
0000
0200
0320
2030
0000
3002
0000
,
0023
0000
0000
0000
,
0000
0000
0000
0000
,
0000
0000
0000
0000
,
0030
0000
0000
0000
;
