#TITLE:Somewhere In Dreams;
#SUBTITLE:The Hall of the Olden Dreams (2000);
#ARTIST:Dark Moor;
#TITLETRANSLIT:;
#SUBTITLETRANSLIT:;
#ARTISTTRANSLIT:;
#CREDIT:;
#BANNER:BN.png;
#BACKGROUND:BG.png;
#LYRICSPATH:;
#CDTITLE:CDTitle.gif;
#MUSIC:Dark Moor - Somewhere In Dreams.mp3;
#OFFSET:-0.116;
#SAMPLESTART:61.728;
#SAMPLELENGTH:12.000;
#SELECTABLE:YES;
#BPMS:0.000=153.001,72.000=145.001,76.000=145.602,80.000=153.001,144.000=142.002,176.000=150.003,212.000=152.003,220.000=151.003,224.000=153.303,296.000=150.004,308.000=153.003,368.000=150.003,404.000=153.004,460.000=152.004,468.000=150.004,586.000=149.004,594.000=141.005,626.000=149.005,658.000=153.505;
#STOPS:;
#BGCHANGES:;
// cache tags:
#FIRSTBEAT:0.000;
#LASTBEAT:721.000;
#SONGFILENAME:Songs/Astronomic Metal Collection 2/(Charlo) Somewhere In Dreams/Somewhere In Dreams.sm;
#HASMUSIC:1;
#HASBANNER:1;
#MUSICLENGTH:291.970;
// end cache tags

//---------------dance-single - ----------------
#NOTES:
     dance-single:
     :
     Hard:
     12:
     1.000,1.000,1.000,0.459,1.000,2090.000,387.000,134.000,0.000,0.000:
1100
0010
0001
0100
0010
0100
0011
1000
0010
0100
0010
1000
0110
0001
0010
0100
,
1001
0010
0100
1000
0110
0001
1000
0010
1000
0100
0010
0100
1000
0001
0100
0010
,
2000
0000
0000
0000
0000
0000
0000
0000
0000
3010
0000
0000
0100
0001
0010
0001
0000
0000
0100
0000
0000
0010
0000
0000
,
0200
0000
0000
0000
0000
0000
0320
0000
0000
0000
1030
0100
0010
0001
0100
0010
,
2000
0000
0000
0000
0000
0000
0000
0000
0000
3100
0000
0000
0010
0100
1000
0010
0000
0000
0100
0000
0000
0001
0000
0000
,
0020
0000
0000
0000
0000
0000
0000
0000
0031
1000
0100
1000
0010
0100
0001
0100
,
0010
1000
0001
1000
0010
1000
0100
1000
0001
1000
0010
1000
0001
1000
0010
1000
,
0100
0010
0001
0010
0100
0010
0001
0010
0100
0010
0001
0010
0100
0010
0001
0010
,
0100
1000
0010
0100
0001
0010
0100
1000
0001
0100
0010
0100
0001
1000
0001
0010
,
0100
0010
0001
1000
0010
0100
0001
0010
0100
0010
0001
1000
0100
1000
0001
0100
,
0002
0000
0000
0000
0000
0000
0000
0000
0000
1003
0000
0000
0010
0100
0001
0100
0000
0000
0010
0000
0000
1000
0000
0000
,
0200
0000
0000
0000
0000
0000
0320
0000
0000
0000
1030
0100
1000
0001
0100
0001
,
2000
0000
0000
0000
0000
0000
0000
0000
0000
3001
0000
0000
0010
0100
1000
0001
0000
0000
0010
0000
0000
0001
0000
0000
,
2000
0000
0000
0000
0000
0000
0000
0000
0000
0000
0000
0000
3002
0000
0000
0000
0203
0000
0000
0000
0302
0000
0000
0003
,
0110
1000
0001
1000
0010
0100
0011
0100
1010
0001
0100
0010
1000
0000
0000
0000
,
0011
0100
1000
0010
0100
0010
1100
0001
0110
1000
0100
0010
0100
0000
0000
0000
,
2000
3020
0230
0320
2030
3200
0320
0032
,
0203
2300
3200
0302
0203
0320
0230
2300
,
3002
0000
0000
0000
0000
0000
0000
0000
0000
0000
0000
0000
2003
0000
3200
0300
,
2010
0000
0100
0000
0100
0000
0100
0000
3020
0000
0000
0000
0230
0000
0000
0300
,
0011
0000
1000
0010
1000
0000
0001
0100
1001
0000
0010
0100
1001
0000
0011
0100
,
1001
0000
1000
0100
1010
0000
0001
0010
1100
0000
0001
0100
0001
0000
1000
0001
,
0110
0000
0001
0010
1100
0000
0010
0100
1001
0000
1000
0010
0101
0000
1000
0001
,
0110
0000
1000
0100
1000
0000
0010
0100
0001
0000
1000
0010
1100
0000
0011
0100
,
1010
0000
0001
0010
0101
0000
1100
0001
0110
0000
1000
0010
0100
0000
0101
1000
,
0011
0000
0100
0010
1001
0000
0010
0100
1010
0000
0001
1000
0100
0000
0010
0001
,
1100
0000
0001
0010
1001
0000
1000
0010
0101
0000
0100
0010
1100
0000
0010
0001
,
0110
0000
1000
0100
0010
0000
0001
0010
0100
0000
0010
0001
1000
0100
0010
0100
,
1001
0000
0010
1000
0101
0000
1100
0001
1010
0000
0100
1000
0110
0000
1000
0010
,
1001
0000
0010
1000
0110
0000
0011
1000
0110
0000
0001
1000
0010
0000
0100
0010
,
1001
0000
0010
0001
1100
0000
1000
0100
1001
0000
0010
1000
0101
0000
0100
1000
,
0011
0000
1000
0010
0100
0000
0010
1000
0100
0000
0010
0001
1100
0000
0110
1000
,
0011
0000
0100
1000
0100
0000
0110
0001
1100
0000
0010
0100
1001
0000
0100
0001
,
0110
0000
0010
0001
1100
0000
1010
0001
1100
0000
0010
0100
1000
0000
0100
0010
,
1100
0000
0001
0100
0010
0000
0101
1000
0110
0000
0010
1000
0101
0000
0001
0010
,
0101
0000
1000
0100
0000
0010
0100
0000
1000
0000
0001
0000
0100
0000
0001
0000
,
1200
0000
0000
0000
1000
0000
0320
0032
,
2003
0000
0000
0000
0000
0000
3200
0300
0012
0000
0000
0000
0000
0000
1000
0003
,
0210
0000
0000
1000
0001
0000
0320
2030
,
3020
0000
0000
0100
0000
0000
0000
0000
0000
0000
0000
0000
0000
0000
0000
1000
0100
1000
0100
0000
0000
0000
0000
0000
,
0230
0000
0000
0000
0001
0000
2300
3020
,
0032
0000
1000
0000
1000
0000
1000
0003
0120
0000
0001
1000
0001
0000
0000
0030
,
0201
0000
1000
0000
1000
0000
1000
0300
1020
0000
0001
0000
0001
0000
0001
0030
,
2001
0000
0100
0000
0010
0000
0100
0000
0001
0010
0001
0010
3100
0010
0001
0010
,
1100
0001
0100
0010
1001
0000
1000
0001
0110
0001
1000
0010
1100
0000
0010
1000
,
0101
1000
0010
1000
0011
0000
1000
0001
0110
1000
0001
0010
1100
0000
1000
0100
,
0011
0100
1000
0001
0110
0000
0001
0100
1010
0100
0001
0010
1001
0000
0000
0000
,
0110
0001
1000
0010
1000
0000
0100
0000
0010
0001
1100
0000
0010
0000
0101
0000
,
0110
1000
0001
0010
0101
0000
1000
0010
1001
0010
0100
1000
0110
0000
0001
0010
,
1100
0001
0010
0100
1001
0000
0010
0100
0011
1000
0100
0010
0101
0000
1000
0010
,
1100
0010
0001
1000
0110
0000
0001
0010
0101
0010
0001
1000
0101
0000
0010
1000
,
0110
0000
0001
1000
0011
0000
0100
0010
0001
0000
0010
0100
1000
0001
0010
0100
,
1010
0000
0001
0010
0101
0000
0010
0100
1001
0000
0010
0100
0011
0000
1010
0100
,
0010
0000
0001
1000
0110
0000
1000
0100
1001
0000
0001
0010
1100
0000
1001
0100
,
0010
0000
0001
0100
0010
0000
1010
0100
1000
0000
0001
0100
0001
0000
0010
0100
,
1000
0000
0001
0100
0010
0000
1000
0100
0022
0000
0000
0033
0202
0000
0000
0303
,
0110
0000
0001
0100
1010
0000
0001
1000
0110
0000
0100
0010
1001
0000
0101
0010
,
1000
0000
0001
0100
1001
0000
0010
1000
0110
0000
0100
0010
1100
0000
0001
1000
,
0101
0010
0100
1000
0001
1000
0110
0001
1000
0010
0100
0001
1100
0010
0001
0100
,
1010
0001
0100
0010
1000
0010
1100
0001
0010
0001
1000
0010
1000
0100
0010
0001
,
1100
0000
0010
1000
0101
0000
1000
0001
0110
0000
0010
0100
1001
0000
0101
0010
,
1000
0000
1000
0010
1001
0000
0100
0001
1100
0000
0010
0100
1010
0000
0100
0010
,
0101
0000
0010
0100
0010
0000
1100
0001
0010
0000
0100
1000
0100
0000
0010
0100
,
1000
0000
0001
0100
0001
0000
1000
0010
2200
0000
0000
3300
0022
0000
0000
0033
,
0110
0000
0100
0010
1001
0000
0100
0001
1010
0000
1000
0100
1001
0000
1100
0010
,
0001
0000
0100
1000
0011
0000
0100
1000
0101
0000
0010
0001
0110
0000
0001
0010
,
1001
0100
0010
0100
1000
0001
0100
0010
1000
0010
0100
0001
0010
0100
0010
0001
,
1010
0100
0010
0001
1000
0010
0100
0001
0010
0100
0010
0001
0100
0010
0100
0001
,
1020
0000
0000
0000
0000
0000
0000
0000
0000
1030
0000
0000
0001
0100
0001
0010
0000
0000
0001
0000
0000
1000
0000
0000
,
0002
0000
0000
0000
0000
0000
2003
0000
0000
0000
3100
0010
0100
1000
0001
0100
,
0002
0000
0000
0000
0000
0000
0000
0000
0000
1003
0000
0000
0100
0010
0100
1000
0000
0000
0001
0000
0000
0010
0000
0000
,
2000
0000
0000
0000
0000
0000
0000
0000
3010
0100
0010
0001
1000
0001
0010
0100
,
1000
0001
0010
0001
1000
0001
0100
0001
0010
0001
1000
0001
0100
0001
1000
0001
,
0010
0100
1000
0100
0010
0100
1000
0100
0010
0100
1000
0100
0010
0100
1000
0100
,
0020
0032
2003
3020
0230
0320
2030
3200
,
0320
0000
0000
0000
0000
0000
0000
0230
,
0302
0000
0010
0000
0010
0000
0010
0003
1100
0000
0001
0000
1010
0001
0100
0010
,
1001
0000
0100
0010
0001
0000
1001
0010
0101
0000
1000
0001
1000
0000
0110
0001
,
1010
0000
0001
0010
1001
0000
0100
0001
0110
0000
1000
0100
1000
0000
0001
0100
,
0011
0000
1000
0100
1001
0000
0010
1000
0110
0000
0001
0100
1010
0000
0010
0100
,
0011
0000
1000
0100
1000
0000
0001
0100
0001
0000
0010
0100
1001
0000
0101
0010
,
1001
0000
0001
1000
0110
0000
1100
0010
1001
0000
0100
0010
0001
0000
1100
0010
,
1001
0000
0100
1000
0011
0000
0001
1000
0101
0000
0100
0010
1000
0000
0100
0010
,
1001
0000
1000
0100
1010
0000
0010
1000
0101
0000
0010
0100
1010
0000
0010
0001
,
0110
0000
1000
0100
0010
0000
0001
0010
0100
1000
0010
0100
0010
1000
0100
0010
,
1100
0000
0100
0010
0101
0000
0011
1000
0110
0000
0001
0010
1100
0000
0001
0010
,
1001
0000
0100
0010
1100
0000
1010
0001
1100
0000
0010
0100
1000
0000
0100
1000
,
0110
0000
1000
0100
0011
0000
1000
0001
0110
0000
1000
0100
1010
0000
0100
0001
,
0110
0000
0100
1000
0010
0000
0100
0010
0100
0000
0001
0010
0100
0000
0010
0001
,
1010
0000
0010
0001
0110
0000
0101
0010
1100
0000
1000
0001
0110
0000
1000
0100
,
1001
0000
0100
0001
1100
0000
0101
1000
0011
0000
1000
0001
0010
0000
0100
1000
,
0110
0000
0001
1000
0001
0000
0101
1000
0011
0000
0010
0100
1010
0000
0011
0100
,
1001
0000
0100
0010
0001
0000
1000
0010
0100
0010
1000
0100
0010
0001
0100
0010
,
1100
0010
0001
0100
0011
0000
0100
1000
0110
0001
1000
0001
1100
0000
0010
0001
,
1010
0100
0010
0001
0110
0000
1000
0100
1010
0001
0010
0100
1001
0000
0010
0100
,
0011
1000
0100
1000
0011
0000
0100
1000
0101
0010
0001
1000
0110
0000
0001
1000
,
0110
1000
0001
0010
0101
0000
1000
0000
0010
0100
0011
0000
1000
0000
0011
0000
,
0110
1000
0001
0010
1100
0000
0010
0001
0110
1000
0001
1000
0011
0000
0100
0010
,
1001
0100
0010
0001
1010
0000
0100
0010
0101
0010
0100
1000
0101
0000
1000
0001
,
1100
0010
0001
1000
0011
0000
1000
0100
0011
1000
0100
0010
1001
0000
0100
0010
,
1001
0000
0010
0100
1010
0000
0100
0010
1001
0100
0010
0100
1000
0001
0010
0100
,
0011
0000
0100
0001
1010
0000
0001
1000
0110
0000
0100
0010
1001
0000
0101
1000
,
0010
0000
0100
0001
1100
0000
0010
0100
1010
0000
1000
0100
1001
0000
0001
1000
,
0110
0000
0001
0010
0100
0000
0011
1000
0100
0000
0010
0100
1000
0000
0001
0100
,
0010
0000
1000
0100
1000
0000
0001
0100
2002
0000
0000
3003
0220
0000
0000
0330
,
0101
0000
0010
0100
1010
0000
0100
1000
0011
0000
0100
0001
1100
0000
1010
0001
,
0010
0000
0100
1000
0110
0000
1000
0010
0101
0000
0001
1000
0011
0000
1000
0001
,
0110
1000
0001
0100
0001
1000
0110
0001
1000
0010
0100
0010
1100
0010
0001
1000
,
0110
0001
1000
0010
1000
0100
1010
0001
1000
0100
1000
0001
0100
0001
0010
0100
,
1001
0000
0100
1000
0011
0000
0010
1000
0110
0000
1000
0010
0101
0000
1100
0010
,
0001
0000
0100
0001
0110
0000
0100
0010
1001
0000
0010
1000
0101
0000
0100
0001
,
1100
0000
0010
0100
1000
0000
0110
0001
1000
0000
0001
0100
0010
0000
1000
0100
,
0010
0000
0100
1000
0010
0000
0100
0001
0220
0000
0000
0330
0202
0000
0000
0303
,
1010
0000
0001
0010
1100
0000
1000
0001
0110
0000
0001
0010
1100
0000
1001
0010
,
0100
0000
1000
0010
0101
0000
0100
1000
0011
0000
0100
1000
0110
0000
0001
0010
,
1001
0100
0010
0100
1000
0001
0100
0010
0100
0001
0010
0100
0010
0001
1000
0010
,
1100
0011
1100
0000
,
1000
0001
0100
0001
0010
0100
1000
0010
0100
0010
1000
0100
0010
0000
0000
0000
,
0001
0100
0010
0100
0001
0010
0100
0010
0001
1000
0001
0100
0010
0000
0000
0000
,
1000
0010
0100
0001
0100
0010
1000
0100
0010
0100
1000
0001
0010
0000
0000
0000
,
0001
0010
0001
1000
0010
1000
0001
0100
0001
1000
0100
1000
0001
0000
0000
0000
,
0110
1000
0001
0100
0010
0100
0001
0010
0100
1000
0001
0100
0011
0000
0000
0000
,
1100
0010
0001
0100
0010
0100
0001
0010
0100
1000
0100
0010
1001
0000
0000
0000
,
0101
0010
0100
1000
0001
0100
0010
0100
0001
1000
0001
0010
1100
0000
0000
0000
,
0101
0010
0100
1000
0010
0100
0010
1000
0100
0010
0100
1000
0011
0000
0000
0000
,
0002
0000
0000
0000
0000
0000
1003
0000
0100
0010
0001
1000
0001
0010
0100
1000
,
0200
0000
0000
0000
0000
0000
0310
0000
0001
1000
0010
1000
0100
0000
0000
0000
,
1000
0010
0100
0010
1000
0010
0100
0010
1000
0001
0100
0010
0100
0001
0100
0010
,
0100
0001
0010
0100
1000
0100
0010
0001
2000
0000
0000
0000
0000
0000
0000
0000
,
0000
0000
3200
0320
0032
0000
0000
0000
,
1003
0010
0100
0010
1000
0100
0010
0001
0110
1000
0010
0100
0010
1000
0001
1000
,
0100
0010
0100
1000
0001
0100
0001
1000
0100
0010
0001
1000
0100
0010
0100
1000
,
0001
0100
0010
0100
0002
0000
0000
0000
1003
0010
0100
0010
1000
0100
0010
0100
,
1000
0001
1000
0010
0100
0010
1000
0100
0010
0001
0100
0001
0010
0100
1000
0001
,
0100
0000
0000
0010
0000
0000
0100
0000
0000
0001
0000
0000
0200
0000
0000
0000
0000
0000
0000
0000
0000
0000
0000
0000
0301
0000
0010
0000
0100
0000
1000
0000
0010
0000
1000
0000
0100
0000
0010
0000
0100
0000
1000
0000
0001
0000
0100
0000
,
0010
0100
0001
0010
0100
0010
0001
1000
0010
1000
0001
0100
0001
0010
0100
1000
0100
0010
0001
1000
0001
0010
0100
1000
,
0001
0000
0000
0010
0000
0000
0100
0000
0000
0010
0000
0000
0001
0000
0000
1000
0000
0000
0010
0000
0000
0100
0000
0000
0002
0000
0000
0000
0000
0000
0000
0000
0000
0000
0000
0000
0000
0000
0000
0000
0000
0000
0000
0000
1003
0000
0100
0000
,
0020
0000
0000
0000
0000
0000
0000
0000
0000
0230
0000
0000
0000
0000
0000
0000
0000
0000
2300
0000
0000
0000
0000
0000
3001
0000
0100
0000
0010
0000
1000
0000
0010
0000
0100
0000
0001
0000
0000
0010
0000
0000
0100
0000
0000
0010
0000
0000
,
0001
1000
0010
0100
0010
1000
0100
0010
1001
0100
0010
0001
0100
0010
0100
0001
,
0010
0100
0010
0001
1000
0100
0010
0100
1000
0001
0010
0001
1000
0100
0010
0100
,
1000
0001
0010
0001
1000
0010
1000
0001
0010
0100
1000
0100
0010
0001
0100
0010
,
2000
0000
0000
0000
3020
0000
0000
0000
0230
0000
0000
0000
0301
0010
0001
1000
0100
0010
0001
1000
0100
1000
0001
0010
,
0100
1000
0010
0100
0001
0010
0100
0010
0001
1000
0100
1000
0020
0000
0000
0000
0000
0000
0000
0000
0000
0230
0000
0000
,
0000
0000
2300
0000
3020
0000
0000
2030
,
0000
0000
0000
0000
0000
0000
0000
0000
0000
0000
0000
0000
3100
0010
0001
1000
0001
0010
0100
1000
0010
0100
0001
0010
,
0100
0000
1000
0000
0100
0000
0010
0000
0001
0000
0010
0000
0100
0000
0000
1000
0000
0000
0001
0000
0000
0100
0000
0000
0001
0000
0010
0000
0100
0000
0010
0000
0001
0000
1000
0000
0010
0000
0100
0000
0001
0000
0100
0000
0010
0000
1000
0000
,
0100
0000
0010
0000
0100
0000
1000
0000
0001
0000
0010
0000
0100
0000
0000
0010
0000
0000
0001
0000
0000
1000
0000
0000
0020
0000
0000
0000
0000
0000
0000
0000
0000
0000
0000
0000
0100
0000
0000
0000
0000
0000
0000
0000
0000
0000
0000
0000
,
1000
0000
0000
0000
0000
0000
0100
0000
0000
0000
0001
0100
1000
0000
1000
0100
,
0001
0000
0000
0000
1000
0000
1000
0030
0201
0000
0000
0000
0000
0000
0000
0000
,
0001
0000
0000
0000
0320
0000
2030
0000
3200
0000
0000
0000
0000
0000
0320
0030
,
1002
0000
0000
1000
0203
0000
0000
0000
,
0010
0000
0302
0203
2300
0010
0000
0000
,
0000
0000
0000
0000
0000
0000
0001
0000
0100
0000
0001
0000
0100
0000
0000
0000
0000
0000
0000
0000
0000
3000
0000
0000
0102
0000
0000
0000
0000
0000
0000
0000
0000
0000
0000
0000
0000
0000
0000
0000
0000
0000
0000
0000
0000
0000
0000
0000
,
0100
0000
0000
0000
2003
0000
3200
0000
0320
0000
0100
0000
0100
0000
0100
0030
,
1200
0000
0001
1000
0001
0000
0000
0300
0012
0000
1000
0000
1000
0000
1003
0000
,
0210
0001
0001
0301
2010
0100
0010
3100
,
0001
0100
0010
1000
0010
0100
0010
1000
0110
0001
1000
0010
1100
0000
0010
0001
,
0110
1000
0100
1000
0101
0000
0001
0100
0011
1000
0100
0010
1001
0000
0100
0010
,
1100
0010
0100
1000
0101
0000
0010
0001
1010
0100
1000
0010
0101
0000
1000
0010
,
1100
0010
0001
1000
0110
0000
0001
0010
1100
0001
0010
0100
1001
0000
0100
0010
,
0001
0100
0011
0000
1000
0000
0011
0000
0110
1000
0001
1000
0110
0000
0001
0010
,
1100
0001
0010
0100
0011
0000
1000
0010
1100
0010
0001
0100
1010
0000
0100
0010
,
1001
0100
0010
0001
0110
0000
0010
0001
1100
0010
0001
1000
0101
0000
0010
0100
,
0011
1000
0010
0100
1001
0000
0100
0010
1100
0000
0001
0010
0101
0000
1000
0010
,
1100
0010
0001
0010
0001
1000
0010
1000
0110
0000
0010
1000
0101
0000
0001
1000
,
0011
0000
1000
0001
1100
0000
0101
0010
1000
0000
0100
0001
0110
0000
0010
0100
,
1001
0000
0001
0010
1100
0000
0100
1000
0101
0000
0010
0001
1000
0000
0101
0010
,
1000
0000
0001
0100
0010
0000
1000
0100
0010
0000
0100
1000
0001
0000
0100
0001
,
0220
0000
0000
0330
2200
0000
0000
3300
0101
0000
0010
0001
1100
0000
1000
0001
,
1010
0000
0100
1000
0110
0000
0101
1000
0100
0000
0001
0010
1001
0000
0100
0010
,
1001
0000
0001
1000
0110
0000
0001
0010
1100
0001
0100
0010
1000
0010
1100
0010
,
0001
1000
0010
1000
0110
0001
1000
0010
1100
0001
0100
0010
1000
0100
0011
1000
,
0010
0100
0001
1000
0010
0100
0001
0010
1100
0000
0001
0010
0101
0000
0010
0100
,
1001
0000
1000
0100
1001
0000
0101
1000
0100
0000
0010
0001
0110
0000
0001
0010
,
1100
0000
0001
0010
1001
0000
0010
1000
0101
0000
0010
1000
0100
0000
1100
0010
,
0001
0000
1000
0010
0100
0000
0001
1000
0100
0000
1000
0100
1000
0000
0001
0010
,
2200
0000
0000
3300
0202
0000
0000
0303
0011
0000
1000
0001
0110
0000
0010
1000
,
0101
0000
0010
0001
1100
0000
1010
0001
0100
0000
0010
1000
0110
0000
1000
0100
,
1001
0000
0001
1000
0110
0000
0100
0001
1100
0010
0001
0100
0010
0100
0001
0010
,
0100
1000
0001
1000
0010
1000
0100
0010
1001
0000
0000
0000
0110
0000
0000
0000
,
2002
3003
0000
0000
;
