#TITLE:Giant;
#SUBTITLE:;
#ARTIST:Juno Reactor;
#TITLETRANSLIT:;
#SUBTITLETRANSLIT:;
#ARTISTTRANSLIT:;
#CREDIT:;
#BANNER:giant.png;
#BACKGROUND:giantbg.png;
#LYRICSPATH:;
#CDTITLE:!therairaicdtitle.png;
#MUSIC:Giant.mp3;
#OFFSET:-0.060;
#SAMPLESTART:14.420;
#SAMPLELENGTH:9.600;
#SELECTABLE:YES;
#BPMS:0.000=100.240,16.000=200.420,96.000=180.000,96.500=160.000,97.000=140.000,97.500=120.000,98.000=100.000,98.500=80.000,99.000=55.000,99.500=40.000,99.625=80.000,99.750=120.000,99.875=160.000,100.000=200.840,152.000=198.641,204.000=100.000,206.000=75.000,207.500=51.040,208.500=100.000,208.750=141.240,209.000=152.620,209.250=164.640,209.500=175.060,209.750=195.260,210.000=200.100,211.000=201.260,212.000=201.561,220.000=200.481,232.000=200.340,252.000=200.221,264.500=200.350,266.000=200.600,269.500=200.370,280.000=200.330,299.500=200.430,301.500=200.420,304.000=100.160,320.000=200.280,332.000=200.080,364.000=200.100,384.000=200.060;
#STOPS:296.000=1.080
,299.500=1.380
;
#BGCHANGES:;
// cache tags:
#FIRSTBEAT:0.000;
#LASTBEAT:417.000;
#SONGFILENAME:Songs/Fresh Flock of Fantastic Files F4/(The Rai Rai) Giant/giant.sm;
#HASMUSIC:1;
#HASBANNER:1;
#MUSICLENGTH:145.246;
// end cache tags

//---------------dance-single - ----------------
#NOTES:
     dance-single:
     :
     Hard:
     11:
     1.000,1.000,1.000,0.034,0.355,845.000,281.000,5.000,0.000,1.000:
1010
0000
0000
0000
1100
0000
0000
0110
,
0011
0000
0000
0000
0000
0000
0000
0000
1010
0000
0000
1001
0000
0000
0101
0000
,
1010
0000
0000
0000
1100
0000
0000
0110
,
0011
0000
0000
0000
0000
0000
0000
0000
1010
0000
0000
1001
0000
0000
0101
0000
,
1010
0100
0100
1010
0100
0100
1010
1010
,
0011
0100
0100
0011
0100
0100
0011
0100
,
1100
0001
0001
1100
0001
0001
1100
0001
,
1010
0001
0001
1010
0001
0001
1010
0001
,
0011
1000
1000
0011
1000
1000
0011
1000
,
0101
1000
1000
0101
1000
1000
0101
1000
,
0101
0010
0010
0101
0010
0010
0101
0010
,
0001
0100
0001
0100
0001
0100
0001
0010
0100
1000
0100
0010
0001
0010
0001
0010
,
0101
0010
0010
0101
0010
0010
0101
0010
,
1100
0010
0010
1100
0010
0010
1100
0010
,
1010
0000
0000
0100
0000
0000
0100
0000
0000
1010
0000
0000
0100
0000
0000
0100
0000
0000
1010
0000
0000
1000
0100
0010
,
1001
0100
0100
1001
0100
0100
1001
0100
,
1010
0100
0100
1010
0100
0100
1010
0100
,
0011
0100
0100
0011
0100
0100
0011
0100
,
0011
1000
1000
0011
1000
1000
0011
1000
,
0101
1000
1000
0101
1000
1000
0101
1000
,
1100
0001
0001
1100
0001
0001
1100
0001
,
1010
0001
0001
1010
0001
0001
1010
0001
,
0101
0010
0010
0101
0010
0010
0101
0010
,
1100
0010
0010
1100
0010
0010
1100
0010
,
1002
0000
0000
0000
0000
0000
0000
0000
0000
0000
0000
0200
0000
0000
0000
0303
,
1010
0100
0100
1001
0100
0100
0011
0100
,
0101
0010
0010
1001
0010
0010
1100
0010
,
1100
0001
0001
0110
0001
0001
1010
0001
,
0011
1000
1000
0110
1000
1000
0101
1000
,
0001
0100
0010
0100
0001
1000
0100
0010
0001
0100
0010
1000
0100
0010
0001
0100
,
0001
0010
0100
0010
0100
1000
0100
0010
0001
0100
0010
1000
0100
0010
0100
1000
,
0101
0100
0100
1100
1000
1000
1001
0001
,
0101
0000
0100
0000
0100
0000
1100
0000
1000
0000
1000
0000
1000
0100
1000
0100
,
1100
0100
0100
0101
0001
0001
0011
0010
,
1010
0100
0100
1010
0100
0100
1010
0100
,
1010
0010
0010
0011
0001
0001
1001
1000
,
1010
0010
0010
0011
0001
0001
0101
0100
,
0110
0010
0010
1010
1000
1000
1100
0100
,
1000
0010
0100
0001
0010
0100
1000
0100
0010
0001
0010
0100
1000
0100
0010
0100
,
1001
1000
0011
0010
0000
0010
0011
0100
,
1001
0100
1010
0010
0000
0010
1001
0010
,
1001
0001
1100
0100
0000
0100
1100
0010
,
0011
0001
0100
1010
1000
0001
0011
0100
,
1001
0101
0001
0100
1001
0100
1001
0100
,
1001
1000
0011
0010
0000
0010
0011
0100
,
1001
0100
1010
0010
0000
0010
1001
0010
,
0100
1000
0100
0010
1000
0001
0100
0001
1000
0010
1000
0001
0100
0001
1000
0001
,
1001
1000
0011
0010
0000
0010
0011
0100
,
1001
0100
0100
1001
0100
0001
1001
0100
,
1001
0100
0100
1001
0100
0100
1001
0100
,
1001
0100
0100
1001
0100
0100
1001
0100
,
2001
0000
0000
0000
3020
0000
0000
0230
,
0000
1301
0000
1100
0000
0000
0101
0000
,
1001
1000
0011
0010
0000
0010
0011
0100
,
1001
0100
1010
0010
0000
0010
1001
0010
,
1001
0001
1100
0100
0000
0100
1100
0010
,
1001
0100
0000
1001
1000
0010
1001
0100
,
1001
0001
1100
0100
0000
0100
1100
0010
,
1001
0010
0101
0100
0000
0100
1001
0100
,
1001
1000
0011
0010
0000
0010
0011
0100
,
1001
0001
0100
1001
0010
0100
1001
0100
,
1010
0100
0100
1010
0100
0100
1010
0100
,
0011
0100
0100
0011
0100
0100
0011
0100
,
1100
0001
0001
1100
0001
0001
1100
1100
,
1010
0001
0001
1010
0001
0001
1010
0001
,
0101
0010
0010
0101
0010
0010
0101
0010
,
1100
0010
0010
1100
0010
0010
1100
0010
,
0011
1000
1000
0011
1000
1000
0011
0011
,
1001
0100
0100
1001
0100
0100
1001
0100
,
1001
1000
0011
0010
0000
0010
0011
0100
,
0010
0001
0010
0100
0001
1000
0010
1000
0001
0100
0001
1000
0010
1000
0001
1000
,
1001
0001
0001
0101
0100
0100
1100
1000
,
1010
0010
0010
0110
0100
0100
0101
0001
,
1001
1000
1000
1010
0010
0010
0011
0001
,
0101
1010
0001
0001
0101
1000
1000
1100
,
1010
0100
0100
1010
0100
0100
1010
0100
,
1001
0100
0010
1000
0100
0010
0001
0010
0100
0010
0001
0100
0010
1000
0100
0010
,
0001
0010
0100
0010
0001
0100
0010
1000
0100
0010
0001
0100
0010
1000
0100
0010
,
1001
0010
0100
0001
0010
0100
1000
0100
0010
0100
1000
0010
0100
0001
0010
0100
,
1000
0000
0100
0000
0010
0000
0100
0000
1000
0000
0010
0000
0100
0000
0001
0000
0010
0100
1000
0010
0100
0001
0010
0100
1000
0010
0100
0001
0010
0100
1000
0100
,
0011
0100
0100
0011
0100
0100
0011
0100
,
1010
0100
0100
1010
0100
0100
1010
0100
,
1100
0001
0001
1100
0001
0001
1100
0001
,
1010
0001
0001
1010
0001
0001
1010
0001
,
0011
1000
1000
0011
1000
1000
0011
1000
,
0101
1000
1000
0101
1000
1000
0101
1000
,
0101
0010
0010
0101
0010
0010
0101
0010
,
1010
0100
0100
1010
0100
0100
1010
0100
,
0011
0100
0100
0011
0100
0100
0011
0100
,
1100
0001
0001
1100
0001
0001
1100
0001
,
1010
0001
0001
1010
0001
0001
1010
0001
,
0011
1000
1000
0011
1000
1000
0011
1000
,
0101
1000
1000
0101
1000
1000
0101
0101
,
1001
0010
0010
1001
0010
0010
1001
0010
,
1010
0100
0100
1010
0100
0100
1010
1010
,
1000
0010
0100
0010
1000
0001
0010
0100
1000
0010
0100
0001
0010
0100
1000
0010
,
1001
0000
0000
0000
,
1100
0000
0000
0101
,
1001
0000
0000
0000
,
0011
0000
1001
0101
0000
1001
1100
0000
,
1001
0000
0000
0000
,
0011
0000
0000
1010
,
1001
0100
0100
1001
0100
0100
1001
0100
,
1100
0000
0000
0110
0000
0000
0011
0000
,
1001
1001
0000
0000
;
