#TITLE:Extreme Ghostbusters;
#SUBTITLE:;
#ARTIST:Jim Latham;
#TITLETRANSLIT:;
#SUBTITLETRANSLIT:;
#ARTISTTRANSLIT:;
#CREDIT:Kewing Darksun;
#BANNER:Extreme Ghostbusters.png;
#BACKGROUND:Extreme Ghostbusters-bg.png;
#LYRICSPATH:;
#CDTITLE:!Kewing DarkSun (cdtitle).png;
#MUSIC:Extreme_Ghostbusters_Main_Theme.mp3;
#OFFSET:2.023;
#SAMPLESTART:35.500;
#SAMPLELENGTH:17.540;
#SELECTABLE:YES;
#BPMS:0.000=111.910;
#STOPS:;
#BGCHANGES:1.500=EGB.avi=1.000=1=0=1,
123.500=Extreme Ghostbusters-bg.png=1.000=0=0=1,
99999=-nosongbg-=1.000=0=0=0 // don't automatically add -songbackground-
;
// cache tags:
#FIRSTBEAT:6.000;
#LASTBEAT:128.500;
#SONGFILENAME:Songs/juju step2/Extreme Ghostbusters/Extreme Ghostbusters.sm;
#HASMUSIC:1;
#HASBANNER:1;
#MUSICLENGTH:68.414;
// end cache tags

//---------------dance-single - ----------------
#NOTES:
     dance-single:
     :
     Hard:
     7:
     0.436,0.423,0.146,0.088,0.161,193.000,10.000,6.000,0.000,0.000:
0000
0000
0000
0000
,
0000
0000
0000
0000
1000
0100
0001
0000
,
0100
0010
0100
0000
0001
0100
1000
0100
,
0010
0001
1000
0000
0001
0100
1000
0000
,
0100
0010
0100
0000
1000
0100
0001
0100
,
0010
0000
1000
0000
0001
0000
1000
0100
1000
0000
0001
0000
0010
0000
0000
0000
,
0100
0000
0000
0000
1000
0000
0001
0100
0001
0000
1000
0000
0010
0000
0000
0000
,
0100
0000
0001
0000
1000
0001
0010
0000
,
0100
0000
1000
0000
0001
0010
1000
0010
,
0001
0100
0010
1000
0001
0010
0100
2000
,
0000
0000
3010
0100
0001
1000
0000
0100
,
0000
0010
0001
0000
0100
0010
0110
0000
,
1100
0101
1001
0100
,
0000
0010
0000
0010
0000
0000
0000
0000
0100
0000
0000
0010
0000
0000
1000
0000
,
0000
0001
0000
0000
0010
0000
0000
0001
0000
0000
1000
0000
0000
0010
0000
0000
,
0100
0000
0001
0000
1000
0001
0010
0000
0100
0000
0000
0010
0000
0000
0001
0000
,
0000
1000
0000
0000
0010
0000
0000
1000
0000
0000
0001
0000
0000
0010
0000
0000
,
0100
0000
1000
0000
0001
1000
0010
0000
1000
0000
0100
0000
0001
0000
0000
0000
,
0010
0000
1000
0100
0010
0002
0000
2003
,
0000
3001
0100
0000
1000
0100
0001
0000
,
0010
0000
0110
0000
1001
0010
0100
0000
,
0001
0000
1000
0000
0110
0010
0100
1000
,
0010
0000
0001
0000
0010
0000
0100
0000
0001
0000
0000
1000
0000
0000
0100
0000
,
0010
0000
0001
0000
1001
1000
0001
0100
,
0010
1000
0100
0001
0100
0010
0100
1000
,
0002
0000
0000
0200
0000
0000
0303
0000
0110
0000
0010
0000
0100
0000
0001
0000
,
0010
0000
1000
0000
0010
0000
0100
0000
1000
0000
0000
0001
0000
0100
0010
0000
,
1000
0000
0001
0000
1001
0001
1000
0100
,
0010
0001
0100
1000
0100
0010
0100
0001
,
1000
0100
0010
0001
0100
0010
1000
0100
,
0001
0000
0100
0000
0010
0000
0001
0100
0010
1000
0100
0010
0001
0100
0020
0000
,
0000
0000
0000
0000
,
0000
0030
0000
0000
0000
0000
0000
0000
;

//---------------dance-single - ----------------
#NOTES:
     dance-single:
     :
     Medium:
     6:
     0.388,0.399,0.278,0.278,0.029,148.000,19.000,19.000,0.000,0.000:
0000
0000
0000
0000
,
0000
0000
0010
0100
,
0001
0010
0001
0000
0100
0000
0010
0000
,
1000
0100
1000
0000
0010
0000
0100
0000
,
0001
0010
0100
0000
1000
0000
0010
0000
,
1000
0100
0010
0001
0100
0010
0200
0000
,
0301
0000
0001
1000
0100
0010
0200
0000
,
1300
0000
1000
0000
0100
1000
0002
0000
,
0103
0010
1000
0001
,
0011
0000
0001
1000
0010
1000
0001
0200
,
0000
0000
0301
1000
0100
0020
0000
0031
,
0000
1000
1001
0101
,
0110
1010
1001
0100
,
0010
0000
0000
0000
0000
0000
0000
0000
1002
0000
0000
0003
0000
0000
0200
0000
,
0000
0300
0000
0000
2000
0000
0000
3000
0000
0000
0200
0000
0000
0300
0000
0000
,
0001
0000
0010
0000
0100
0000
1000
0000
2000
0000
0000
3000
0000
0000
0200
0000
,
0000
0000
0300
0000
0002
0000
0000
0003
0000
0000
0200
0000
0000
0300
0000
0000
,
1000
0010
0100
0000
0110
0000
1010
0000
,
0101
0000
1000
0010
1000
0200
0000
0320
,
0000
0030
0001
0000
1000
0001
0200
0000
,
0310
1000
1001
0010
,
0001
0000
1000
0000
0101
0100
0010
0000
,
0101
0000
0000
0000
0001
0000
0000
0000
1000
0000
0000
0010
0000
0000
0100
0000
,
0001
0000
1000
0000
1100
0100
0010
0000
,
1100
0000
0100
0010
0001
1000
0001
0100
,
0020
0000
0000
1030
0000
0000
0000
0000
1010
0000
0010
0000
0100
0000
0000
0000
,
1010
0000
0000
0000
1000
0000
0000
0000
0001
0000
0000
0010
0000
0100
1000
0000
,
0001
0000
0100
0000
0011
0010
0100
0000
,
0100
0010
0001
0000
0100
0010
1000
0000
,
0001
1000
0100
0000
0010
0001
1000
0000
,
0001
0100
0010
1000
0100
0010
0001
2002
,
0000
0000
0000
0000
,
0000
3003
0000
0000
0000
0000
0000
0000
;

//---------------dance-single - ----------------
#NOTES:
     dance-single:
     :
     Easy:
     3:
     0.263,0.282,0.248,0.234,0.000,93.000,17.000,16.000,0.000,0.000:
0000
0000
0000
0000
,
0000
0000
1000
0100
,
0001
0000
1000
0100
,
0001
0000
0001
0010
,
1000
0000
0001
0010
,
1000
0001
1000
0200
,
0300
0010
0001
2000
,
3000
0010
0100
2000
,
3000
0100
0001
1000
,
0100
0010
0001
2000
,
0000
3001
0100
0020
,
0030
0000
1000
0100
,
0011
1001
0110
0000
,
0000
0000
1020
0000
,
2030
0000
3200
0000
,
1300
0100
0021
0000
,
0032
0000
0203
0000
,
0301
0100
1010
1001
,
0110
0000
0010
0000
0002
0000
0000
2003
,
0000
3000
0010
0200
,
0300
0001
2000
0000
,
0001
3000
1100
0100
,
0010
0001
1100
0000
,
1001
0000
0110
0100
,
0010
1000
0001
0010
,
0001
0100
0101
0100
,
0010
1000
0101
0000
,
1001
0000
1001
1000
,
0100
0001
0010
1000
,
0100
0001
1001
1000
,
0100
0000
0001
0000
1000
0100
0010
0002
,
0000
0000
0000
0000
,
0000
0003
0000
0000
0000
0000
0000
0000
;

//---------------dance-single - ----------------
#NOTES:
     dance-single:
     :
     Beginner:
     1:
     0.190,0.272,0.307,0.000,0.000,70.000,21.000,0.000,0.000,0.000:
0000
0000
0000
0000
,
0000
0000
0001
0000
,
1000
0000
0001
0000
,
1000
0000
0001
0000
,
1000
0000
0001
0000
,
1000
0000
0001
0001
,
0000
0000
0100
0100
,
0100
0000
1000
1000
,
0000
0000
0010
0000
,
0001
0000
1000
1000
,
0000
0000
0100
0100
,
0100
0000
0001
0001
,
0001
0001
0001
0000
,
0010
0000
1001
0000
,
0000
1001
0000
0000
,
0110
0000
1001
0000
,
0000
1001
0000
0000
,
0110
0000
0001
0001
,
0001
0000
0010
0010
,
0010
0000
1000
1000
,
0000
0100
0100
0000
,
0010
0000
0110
0000
,
0110
0000
1001
0000
,
1001
0000
0110
0000
,
0110
0000
1000
1000
,
0001
0001
1001
0000
,
1001
0000
0110
0110
,
0110
0000
1001
0000
,
1001
0000
0100
0000
,
0010
0000
0110
0000
,
0010
0010
0100
0100
,
1001
0000
0000
0000
;
