#TITLE:Diablo;
#SUBTITLE:;
#ARTIST:666;
#TITLETRANSLIT:;
#SUBTITLETRANSLIT:;
#ARTISTTRANSLIT:;
#CREDIT:;
#BANNER:diablo.png;
#BACKGROUND:diablo-bg.png;
#LYRICSPATH:;
#CDTITLE:poxy900.png;
#MUSIC:diablo.mp3;
#OFFSET:0.000;
#SAMPLESTART:31.419;
#SAMPLELENGTH:19.600;
#SELECTABLE:YES;
#BPMS:0.000=132.000;
#STOPS:;
#BGCHANGES:;
// cache tags:
#FIRSTBEAT:4.500;
#LASTBEAT:208.500;
#SONGFILENAME:Songs/other/diablo/diablo.sm;
#HASMUSIC:1;
#HASBANNER:1;
#MUSICLENGTH:96.256;
// end cache tags

//---------------dance-single - Hard----------------
#NOTES:
     dance-single:
     Hard:
     Hard:
     9:
     0.736,0.758,0.665,0.021,0.556,430.000,64.000,2.000,0.000,0.000:

0000
0000
0000
0000
,
0000
0000
0001
0000
1000
0000
0000
0100
0000
0010
0001
0000
0100
0000
0000
0010
,
0000
0100
0010
0000
1000
0000
0000
0100
0000
0010
0001
0000
0100
0010
0000
0100
,
0001
0000
1001
0000
0001
0000
0000
0010
0000
0001
0010
0000
0001
0000
0000
0100
,
0000
0010
0100
0000
0010
0000
0000
1000
0000
0100
0010
0000
0100
1000
0000
0010
,
0100
0000
0001
0000
0101
0000
0000
0010
0000
1000
0100
0000
0010
0000
0000
0001
,
0000
0100
0010
0000
0100
0000
0000
0010
0000
0100
0010
0000
1000
0010
0000
0100
,
0010
0101
0001
0010
0100
1000
0010
0100
,
0001
1000
0100
0010
0001
0100
0010
0100
,
0000
0110
0010
1000
0100
1100
0100
0010
,
0001
0011
0001
0100
0010
0110
0010
1010
,
1000
1100
0100
0010
0001
0011
0001
0100
,
0010
0110
0001
1000
0100
1100
0010
0011
,
0001
0110
0010
1000
0100
1100
0010
0100
,
0010
0110
0001
0010
0001
0110
0100
0101
,
0010
0000
0001
0010
0001
0010
0001
0010
0001
1000
0001
1000
0001
1000
0001
0100
,
0001
0100
0001
0100
0010
0100
0010
1000
0010
1000
0100
1000
0100
0010
0001
0010
,
0001
0022
0000
0033
0000
0000
0000
0000
,
0000
0000
0000
0000
,
0000
0000
1001
0000
0010
0000
0100
0000
0000
0001
0000
0000
0100
0000
0010
1000
,
0010
1000
0010
0000
0100
0000
0110
0000
0000
0001
0000
0000
0010
0000
0100
0000
,
0100
0000
1100
0000
0010
0000
0100
0000
0000
0001
0000
0000
0010
0000
0001
0010
,
0001
0010
0001
0000
1000
0000
1001
0000
0000
0010
0000
0000
0100
0000
0001
0000
,
0001
0000
0101
0000
0010
0000
1000
0000
0000
0100
0000
0000
0010
0000
0100
0000
,
0100
0000
0110
0000
0001
0000
0100
0000
0000
0010
0000
0000
1000
0000
0010
0000
,
0010
0000
1010
0000
1000
0000
0100
0000
0000
0010
0001
0000
0100
0000
0010
0000
,
0000
0010
0100
0000
0010
0000
1000
0000
0100
0000
0010
0000
0001
0000
0100
0000
,
0010
0000
0100
0010
0100
0010
0100
0010
0100
0010
0100
0010
0100
0010
0100
0010
,
0100
0000
0110
0000
0010
0000
1000
0000
0000
0100
0000
0000
0010
0000
0001
0100
,
0001
0000
0101
0000
0010
0000
0110
0000
0000
1000
0000
0000
0100
0000
0010
0001
,
0010
0000
0011
0000
0001
0000
0101
0000
0000
1000
0000
0000
0010
0000
0100
0001
,
1000
0000
1100
0000
0100
0000
0110
0000
0000
0010
0000
0000
0001
0000
0100
0010
,
0100
0000
0110
0000
0100
0000
0101
0000
0000
1000
0000
0000
0001
0000
0100
0010
,
1000
0000
1010
0000
0010
0000
1001
0000
0000
0001
0000
0000
0010
0000
0001
0010
,
0001
1000
0010
0000
0100
0000
0001
0000
0000
0010
0001
0000
0100
0000
0010
0000
,
0000
0010
0100
0000
0001
0000
1000
0000
0010
0000
0100
0000
0001
0000
1000
0000
,
0100
0000
0110
0000
0001
0000
0110
0000
0000
0010
0000
0000
1000
0000
0100
1000
,
0100
1000
0100
0000
0010
0000
0011
0000
0000
0010
0000
0000
0001
0000
0010
0001
,
0010
0001
0010
0000
0001
0000
1001
0000
0000
0010
0000
0000
0100
0000
0010
0100
,
0010
0100
0010
0000
0100
0000
0110
0000
0010
0000
0100
0000
0001
0000
1000
0000
,
0100
0110
0010
0001
0100
1010
0010
0110
,
0000
0000
1000
0000
0001
0000
0101
0000
0000
0010
0000
0000
1000
0000
0010
1000
,
0010
1000
0010
0000
0100
0000
0001
0000
0000
1000
0010
0000
0100
0000
0101
0000
,
0000
0010
1000
0000
1010
0000
0010
0000
0110
0000
0100
0000
0101
0000
0001
0100
,
0001
0100
0010
0000
1000
0000
1100
0000
0000
0100
0010
0000
0001
0000
0011
0000
,
0000
0010
0100
0000
1000
0000
1010
0000
0010
0000
0110
0000
0100
0000
0001
1000
,
0001
1000
0001
0000
0010
0000
1100
0000
0000
0000
0100
0000
0010
0000
0011
0000
,
0000
0000
0001
0000
1000
0000
1001
0000
0000
0010
0000
0000
0100
0000
0001
0100
,
0001
0100
0001
0000
1000
0000
1100
0000
0000
0100
0000
0000
1000
0000
0010
0000
,
0100
0000
0110
0000
0010
0000
0110
0000
0000
0100
0000
0000
1000
0000
0001
1000
,
0001
1000
0001
0000
0010
0000
0011
0000
0001
0000
0110
0000
0100
0000
1010
0000
,
1000
0000
0100
0010
0001
0010
0001
0010
0001
0100
0001
0100
0010
1000
0010
1000
,
0010
1010
0000
0000
0000
0000
0000
0000
,;

//---------------dance-single - Medium----------------
#NOTES:
     dance-single:
     Medium:
     Medium:
     7:
     0.551,0.569,0.686,0.021,0.042,303.000,66.000,2.000,0.000,0.000:











0000
0000
0000
0000
,
0000
1001
0100
1000
0000
1100
0010
0001
,
0000
0011
0001
0100
0000
0110
0010
1010
,
1000
1100
0100
0010
0000
0011
0001
0100
,
0000
1010
1000
0100
0000
0110
0001
0011
,
0001
0101
0010
1000
0000
1010
1000
0100
,
0000
0110
0001
0100
0000
0101
0010
0110
,
1000
1100
0100
0010
0001
0100
0010
0100
,
0001
1000
0100
0010
0100
1000
0010
0110
,
0000
0001
0000
1000
0000
0100
0000
0010
,
0000
0001
0000
0100
0000
0010
0100
0110
,
0000
1000
0100
0010
0000
0001
0010
0100
,
0000
1000
0100
0010
0001
0100
0010
0110
,
0000
0010
0100
0110
0000
1000
0010
1010
,
0000
1000
0100
1100
0000
0010
0001
0011
,
0000
0001
0100
0010
0100
0001
1000
0100
,
0010
0001
0100
0010
0100
0001
0010
0011
,
0001
2020
0000
3030
0000
0000
0000
0000
,
0000
0000
0000
0000
,
0000
1001
0000
0100
0000
0010
0000
0001
,
0000
0100
0000
0010
0000
1000
0000
0100
,
0000
1100
0000
0010
0000
0001
0000
0100
,
0000
0010
0000
0100
0000
0001
0000
1000
,
0000
1001
0001
1000
0000
0010
0000
0100
,
0000
0110
0010
0100
0000
0001
0000
0010
,
0000
0011
0001
0010
0000
1010
0010
1000
,
0000
1100
0100
0010
0001
0100
0010
0100
,
0001
0000
1000
0100
1000
0000
0100
1000
0100
0000
0010
0001
0010
0000
0001
0010
,
0001
0100
0010
0110
0000
0010
0000
1000
,
0000
0100
1000
1100
0000
0010
0000
0001
,
0000
0010
0001
0011
0000
0001
0000
1000
,
0000
0010
1000
1010
0100
0001
0000
1000
,
0000
0010
1000
1010
0000
1000
0000
0100
,
0000
1000
0100
1100
0000
0010
0000
0001
,
0000
0010
0001
0011
0000
0001
0100
0101
,
0000
0010
1000
1010
0010
1010
0100
1100
,
0000
0100
0010
0011
0000
0001
0000
1000
,
0000
0110
0010
1000
0000
0100
0000
0010
,
0000
0001
0010
0011
0000
0001
0000
1000
,
0000
0010
1000
1010
0000
0001
0000
0100
,
0010
0100
0001
0101
0000
0001
0000
1000
,
0000
0100
0010
0011
0000
0001
0000
1000
,
0000
0010
0100
0101
0000
0010
1000
1010
,
0000
1000
0100
1100
0100
1100
0100
0010
,
0001
0011
0001
0100
0000
0010
0100
0110
,
0000
0000
0010
0000
1000
0000
1010
0000
0000
0000
1000
0000
0100
0000
1000
0100
,
1000
0100
0010
0000
0001
0000
0011
0000
0000
0000
0001
0000
0100
0000
0101
0000
,
0000
0000
0010
0000
1000
0000
1010
0000
0000
0000
0010
0000
0100
0000
0001
0100
,
0001
0100
0010
0000
0100
0000
0110
0000
0000
0000
0001
0000
0000
0000
0010
0000
,
0000
0001
0010
0011
0000
0100
0000
1000
,
0000
1100
0100
0110
0001
0011
0001
0110
,
0010
1000
0100
1000
0010
0100
0001
0010
,
0100
1100
0000
0000
0000
0000
0000
0000
,;

//---------------dance-single - Easy----------------
#NOTES:
     dance-single:
     Easy:
     Easy:
     5:
     0.399,0.379,0.509,0.010,0.000,219.000,49.000,1.000,0.000,0.000:








0000
0000
0000
0000
,
0000
1001
0000
0001
0000
1000
0000
0001
,
0000
1000
0000
0001
0000
1000
0000
0001
,
0000
0011
0000
0010
0000
0001
0000
0010
,
0000
0001
0000
0010
0000
0001
0000
0010
,
0000
1010
0000
0010
0000
1000
0000
0010
,
0000
1000
0000
0010
0000
1000
0000
0010
,
0000
1100
0000
0010
0000
0011
0000
0001
,
0000
0101
0000
0010
0000
1010
0000
1100
,
0000
0010
0000
0001
0000
0100
0000
0010
,
0000
1000
0000
0100
0000
0010
0000
0001
,
0000
0101
0000
0010
0000
1000
0000
0100
,
0000
0010
0000
0001
0000
0100
0000
0010
,
0000
1010
0000
0100
0000
0010
0000
0001
,
0000
0100
0000
0010
0000
1000
0000
0100
,
0000
1100
0000
0010
0000
0011
0000
0001
,
0000
0101
0000
0010
0000
1000
0010
1010
,
0000
0200
0000
0300
0000
0000
0000
0000
,
0000
0000
0000
0000
,
0000
1001
0000
0100
0000
0010
0000
0001
,
0000
0100
0000
0010
0000
1000
0000
0010
,
0000
0110
0000
0001
0000
0010
0000
0100
,
0000
1000
0000
0100
0000
0010
0000
0001
,
0000
0101
0000
0010
0000
0100
0000
1000
,
0000
1100
0000
0010
0000
0001
0000
0100
,
0000
0101
0000
0010
0000
1010
0000
1000
,
0000
1100
0000
0110
0000
0011
0000
0101
,
0000
0010
0000
1000
0000
0100
0000
0010
,
0000
0001
0010
0011
0000
0001
0000
1000
,
0000
0010
1000
1010
0000
1000
0000
0100
,
0000
0010
0100
0110
0000
0001
0000
0010
,
0000
0001
0010
0011
0000
0001
0000
1000
,
0000
0010
1000
1010
0000
1000
0000
0010
,
0000
0100
0010
0110
0000
0001
0000
0100
,
0000
0010
0100
0110
0000
1000
0000
0100
,
0000
0010
0000
0001
0000
0100
0000
0010
,
0000
1001
0000
0001
1000
0001
0000
0001
,
0000
1001
0000
1000
0001
1000
0000
0010
,
0000
0110
0000
0100
0010
0100
0000
0010
,
0000
0110
0000
0100
0010
0100
0000
0010
,
0000
1010
0000
1000
0010
1000
0000
0010
,
0000
1010
0000
1000
0010
1000
0000
0001
,
0000
1001
0000
0001
0000
1001
0000
1000
,
0000
1001
0000
1001
0000
1001
0000
1001
,
0000
1001
1001
1001
0000
0010
0000
0100
,
0000
0001
0000
1000
0000
0100
0000
0110
,
0000
0001
0000
1000
0000
0010
0000
0100
,
0000
0001
0000
1000
0000
0100
0000
0110
,
0000
0001
0010
0001
0000
1000
0000
0010
,
0000
1000
0010
1000
0000
0001
0000
0100
,
0000
0001
0010
0001
0010
0001
0010
0001
,
0010
0001
0000
0001
0000
0001
0000
1000
,
0000
0110
0000
0000
0000
0000
0000
0000
,;

//---------------dance-single - Beginner----------------
#NOTES:
     dance-single:
     Beginner:
     Beginner:
     3:
     0.275,0.298,0.353,0.021,0.000,149.000,34.000,2.000,0.000,0.000:







0000
0000
0000
0000
,
0000
1001
0000
0000
0000
0001
0000
0000
,
0000
1000
0000
0000
0000
0100
0000
0010
,
0000
0011
0000
0000
0000
0001
0000
0000
,
0000
1000
0000
0000
0000
0010
0000
0100
,
0000
0110
0000
0000
0000
0001
0000
0000
,
0000
0100
0000
0000
0000
0010
0000
1000
,
0000
1010
0000
0000
0000
1000
0000
0000
,
0000
0100
0000
0000
0000
0010
0000
0000
,
0000
0001
0000
0001
0000
0001
0000
0001
,
0000
0001
0000
0001
0000
0001
0000
0001
,
0000
1000
0000
1000
0000
1000
0000
1000
,
0000
1000
0000
1000
0000
1000
0000
1000
,
0000
0010
0000
0010
0000
0010
0000
0010
,
0000
0010
0000
0010
0000
0010
0000
0010
,
0000
0100
0000
0000
0000
0001
0000
0000
,
0000
1000
0000
0000
0000
0100
0000
0000
,
0000
0220
0000
0330
0000
0000
0000
0000
,
0000
0000
0000
0000
,
0000
1001
0000
0000
0000
0000
0000
0000
,
0000
0000
0000
0000
,
0000
1001
0000
0000
0000
0000
0000
0000
,
0000
0000
0000
0000
,
0000
1001
0000
0000
0000
0000
0000
0000
,
0000
1001
0000
0000
0000
0000
0000
0000
,
0000
1001
0000
0000
0000
1001
0000
0000
,
0000
1001
0000
0001
0000
1000
0000
0001
,
0000
1000
0000
0001
0000
1000
0000
0001
,
0000
0101
0000
0010
0000
1000
0000
0100
,
0000
1100
0000
0010
0000
0001
0000
0100
,
0000
0101
0000
0010
0000
1000
0000
0100
,
0000
1100
0000
0010
0000
0001
0000
0101
,
0000
0010
0000
1000
0000
0100
0000
0110
,
0000
0001
0000
0100
0000
0010
0000
0110
,
0000
1000
0000
0100
0000
0010
0000
0011
,
0000
0001
0000
0101
0000
0010
0000
1010
,
0000
1000
0000
0000
0000
0001
0000
0000
,
0000
1001
0000
0000
0000
1000
0000
0000
,
0000
1001
0000
0000
0000
0001
0000
0000
,
0000
1001
0000
0000
0000
1000
0000
0000
,
0000
0011
0000
0001
0000
0100
0000
0110
,
0000
1000
0000
0001
0000
0010
0000
0110
,
0000
0001
0000
1000
0000
0010
0000
0110
,
0000
0001
0000
0001
0000
0001
0000
0001
,
0000
1000
0000
0001
0000
1000
0000
0001
,
0000
1000
0000
0001
0000
1000
0000
1001
,
0000
0001
0000
1000
0000
0001
0000
1000
,
0000
0001
0000
1000
0000
0001
0000
0110
,
0000
0100
0000
0010
0000
0100
0000
0110
,
0000
0010
0000
0001
0000
0010
0000
0011
,
0000
0001
0000
0000
0000
1000
0000
0000
,
0000
0010
0000
0100
0000
0001
0000
1000
,
0000
1001
0000
0000
0000
0000
0000
0000
,;

//---------------dance-single - ----------------
#NOTES:
     dance-single:
     :
     Challenge:
     10:
     0.910,0.839,1.000,0.042,0.753,493.000,116.000,4.000,0.000,0.000:
0000
0000
0000
0000
,
0000
1001
0010
1010
0001
0101
0010
0110
,
0010
1100
0100
0110
0001
0011
0101
0011
,
0101
0011
0001
1010
0010
0110
0001
0101
,
0010
1010
0100
0110
0100
0101
1010
0101
,
1010
0001
1001
0010
1100
1000
0011
0100
,
0101
0001
1010
0010
1001
0011
1010
1001
,
0110
0000
0010
1000
0100
1000
0010
0100
0010
0100
0001
0100
0010
1000
0100
0010
,
0001
0010
0001
1000
0010
0100
0001
1000
0010
0100
0001
0010
0100
0000
0110
0000
,
0011
0000
1010
0000
1000
0000
0000
0010
0000
0010
0100
0000
0101
0000
0000
0001
,
0000
0001
0010
0000
0011
0000
0000
1000
0000
1000
0100
0000
0100
0010
0000
0001
,
0100
0000
0010
0000
1010
0000
1000
0100
0000
0100
1000
0000
0001
0000
0100
0001
,
0000
0001
0100
0000
0010
0000
1000
0010
0000
0010
1000
0000
0001
0100
0000
0010
,
0100
0001
0100
0000
0010
0000
0100
1000
0000
0010
0001
0000
0100
0000
0010
0001
,
0000
1000
0100
0000
0010
0000
0001
0010
0000
1000
0100
0000
0001
0100
0000
0010
,
1000
0001
0100
0000
0010
0000
0100
0000
1000
0000
0100
0000
0010
0000
0001
0000
,
0100
0000
1000
0100
0010
0000
0100
0010
0001
0000
0001
0100
0010
1000
0010
0100
,
0001
2002
0000
0000
3003
0000
0000
0000
,
0000
0000
0000
0000
,
0000
1001
0000
0000
0010
0000
0100
0000
0000
0001
0000
0000
0010
0000
0100
1000
,
0100
1000
0100
0000
0010
0000
0001
0000
0000
1000
0000
0000
0010
0000
0100
0001
,
0100
0001
0100
0000
0010
0000
1100
0000
0000
0001
0000
0000
0100
0000
0010
1000
,
0010
1000
0010
0000
1000
0000
0001
0000
0000
0100
0000
0000
0001
0000
0100
1000
,
0100
0001
0010
0000
0001
0000
0101
0000
0000
0010
0000
0000
1000
0000
0100
0001
,
0100
1000
0010
0000
0100
0000
1010
0000
0000
0010
0000
0000
0100
0000
1000
0010
,
0001
0010
0100
0000
0001
0000
1001
0000
0000
0010
0100
0000
0001
0000
1010
0000
,
0000
0100
1000
0000
0100
0000
0110
0000
0001
0000
0110
0000
1000
0000
0110
0000
,
0001
0000
0100
0001
1000
0001
0100
0010
0100
0001
1000
0001
0100
0010
1000
0001
,
1000
0000
1001
0000
0110
0000
1001
0000
0001
0100
0001
1000
0100
0010
0001
0010
,
0100
1000
0100
0000
0011
0000
1100
0000
1000
0010
1000
0001
0010
0100
1000
0100
,
0010
0001
0010
0000
1010
0000
0101
0000
0100
0001
0100
0010
1000
0100
0001
0100
,
0010
1000
0100
0000
1100
0000
0011
0000
0010
1000
0010
0100
0001
0010
1000
0010
,
0100
0001
0010
0000
0101
0000
1100
0000
0100
1000
0100
0001
0100
0010
1000
0010
,
0100
0001
0100
0000
0101
0000
1001
0000
0010
0001
0010
1000
0010
0100
0001
0100
,
0010
1000
0010
0000
1100
0000
1001
0000
0000
1000
0100
0000
0011
0000
1100
0000
,
0000
0001
0100
0000
1010
0000
0101
0000
1010
0000
0101
0000
1010
0000
0101
0000
,
0001
0100
1000
0000
0011
0000
1100
0000
0101
0000
1010
0000
2001
0000
0001
0100
,
0000
0001
3100
0000
1010
0000
0011
0000
0101
0000
1100
0000
1002
0000
1000
0100
,
0000
1000
0103
0000
0011
0000
0001
0000
1010
0000
1000
0000
0101
0000
0010
0010
,
0100
0010
0100
0000
0110
0000
1000
0000
0110
0000
0001
0000
0110
0000
0010
1000
,
0010
0100
0001
0000
0100
0000
0101
0000
0100
0000
1100
0000
0100
0000
0010
1000
,
0010
1000
0100
0000
0010
0000
1010
0000
0010
0000
0011
0000
0100
0000
0010
0001
,
0010
0001
0100
0000
0010
0000
1001
0000
0000
0100
0010
0000
0100
0000
0110
0000
,
0000
0010
0100
0000
0010
0000
0110
0000
0001
0000
1001
0000
0010
0000
1010
0000
,
1001
0000
0110
0000
0100
0000
1100
0000
0000
0010
0100
0000
0001
0000
1001
0000
,
0000
0010
0100
0000
1000
0000
1001
0000
0000
1010
0000
0000
1001
0000
0001
1000
,
0010
0100
0010
0000
0011
0000
1010
0000
0000
0001
1000
0000
0101
0000
0011
0000
,
0000
1000
0001
0000
1100
0000
1010
0000
0000
0011
0000
0000
1001
0000
0100
1000
,
0100
0010
0001
0000
0001
1000
0001
0000
0000
1001
0000
0000
1001
0000
0100
0001
,
0100
0010
1000
0000
0001
1000
0001
0000
1000
0000
0001
0000
1001
0000
0010
0100
,
1000
0100
0010
0000
0001
0000
1010
0000
1000
0000
0011
0000
0010
0000
0101
0000
,
0010
0000
0000
0000
1000
0000
0010
0000
0100
0000
0001
0000
0100
0000
0010
0000
1000
0000
0010
0000
0100
0000
0001
0000
0100
0000
0010
0000
1000
0010
1000
0010
,
1000
1010
0000
0000
0000
0000
0000
0000
;
