#TITLE:Boten Anna;
#SUBTITLE:;
#ARTIST:Basshunter;
#TITLETRANSLIT:;
#SUBTITLETRANSLIT:;
#ARTISTTRANSLIT:;
#CREDIT:;
#BANNER:;
#BACKGROUND:;
#LYRICSPATH:;
#CDTITLE:;
#MUSIC:botenanna.ogg;
#OFFSET:1.007;
#SAMPLESTART:35.960;
#SAMPLELENGTH:15.000;
#SELECTABLE:YES;
#BPMS:0.000=140.000,356.000=70.000,385.000=140.000;
#STOPS:385.000=1.714
;
#BGCHANGES:;
// cache tags:
#FIRSTBEAT:2.667;
#LASTBEAT:628.000;
#SONGFILENAME:Songs/toune 5/botenanna/botenanna.sm;
#HASMUSIC:1;
#HASBANNER:0;
#MUSICLENGTH:105.000;
// end cache tags

//---------------dance-single - MIDI----------------
#NOTES:
     dance-single:
     MIDI:
     Challenge:
     11:
     1.000,1.000,0.714,1.000,1.000,1192.000,75.000,155.000,222.000,0.000:

0000
0000
0000
0000
0000
0000
0000
0000
1000
0001
0020
0000
,
0200
0000
0000
0000
0000
0330
0000
0000
0100
0010
0000
0001
,
0020
0030
0020
0000
0000
0002
0030
0000
0013
0100
0000
0010
,
0200
0000
0000
1000
0000
0000
0310
0000
0100
1000
0000
0010
,
0100
0000
0200
0000
0000
0001
0300
0000
0200
0010
0300
0200
,
0002
0000
0000
0300
0000
0000
1003
0000
1000
0100
0000
0010
,
0001
0000
0000
0001
0000
0200
0000
0000
0310
0200
0000
1000
,
0300
0000
0200
0000
0000
0000
0000
0300
0200
0001
0000
0301
,
0100
0000
0001
0010
0000
0100
1000
0000
0010
0100
0010
4000
,
0400
0000
3300
MM00
0000
0000
MMMM
0000
1000
0001
0020
0000
,
0400
0030
0040
0000
0000
0000
0000
0000
0000
0000
0000
0000
0330
0000
0000
0000
0010
0000
0100
0000
0000
0000
0010
0000
,
0011
0000
0001
0000
0000
1010
0000
0000
0010
0100
0000
0040
,
0400
0000
0000
0000
0000
0330
0000
0000
0010
1000
0000
0100
,
0010
0000
0100
0000
0000
1000
0000
0000
0001
1000
0000
0040
,
0400
0000
0000
0000
0000
0000
0330
0000
0001
0010
0000
0100
,
2000
0000
0000
0200
3000
0002
0000
0300
2003
0020
3000
0002
,
0000
0030
0200
0000
0000
0303
0010
0000
0010
1000
0000
0100
,
0010
0000
0001
0100
0000
0010
1000
0000
0100
0010
0002
0000
,
0200
0000
0000
0303
0000
0M00
M0M1
0000
0010
0100
0000
0100
,
2000
0000
0020
0000
3000
0200
0000
0030
0302
0010
0000
0023
,
0200
0000
0030
2000
0000
3300
0010
0000
0100
0001
0000
0001
,
0010
0000
0100
1000
0000
0100
0010
0000
0001
0200
0000
0002
,
0000
0000
0300
1003
0000
0000
0100
0000
1000
0010
0000
1000
,
0000
0000
0001
0010
0000
0010
0000
0000
0020
0100
0000
0200
,
0000
0030
1000
0000
0300
0000
0200
0000
0000
0010
0300
0001
,
0100
0000
0001
0010
0000
0010
0100
0000
0010
0001
0100
0000
,
0040
0400
0300
2000
3000
0230
0310
0000
0100
0001
0000
0001
,
0010
0000
0020
0000
0000
0002
0030
0003
0100
0010
0000
1000
,
0200
0000
0000
2000
0000
0300
0010
3000
0100
0001
0000
0001
,
0010
0000
0020
0000
0000
0200
0000
0030
0320
0001
0000
0031
,
1000
0000
0000
0010
0000
0000
0100
0000
0001
0010
0000
0020
,
0001
0000
0000
0001
0030
0200
0000
0000
0310
1000
0000
0020
,
0000
0000
0200
0000
0000
0030
0020
0000
0300
1000
0030
0100
,
0010
0000
0001
0200
0000
0020
0000
0030
0310
1000
0000
0100
,
M0MM
MM0M
MMM0
0MMM
,
1000
0100
1000
0100
0000
0100
1000
0010
0100
0010
0100
0001
,
0100
0001
0100
0001
0000
0001
0010
0001
0100
0010
1000
0100
,
1000
0010
1000
0010
0100
0001
0010
0001
0100
0010
1000
0100
,
1000
0010
0100
0001
0010
0001
0010
0001
0010
0001
0100
0010
,
1000
0010
0100
0001
0000
0001
0100
0010
1000
0100
1000
0010
,
0100
0001
0010
0001
0000
0001
0100
0010
1000
0100
0010
0001
,
0010
0001
0100
0010
1000
0010
0100
0001
0010
0001
0010
0001
,
0100
0010
1000
0100
0010
0001
0010
0001
0010
0001
0100
0010
,
1000
0100
1000
0100
1000
0010
1000
0010
1000
0100
0010
0001
,
0100
0000
0001
0000
0100
0000
0001
0000
0000
0000
0001
0000
1000
0100
1000
0000
0010
0000
0100
0000
0001
0000
0010
0000
,
0001
0000
0100
0000
0010
1000
0010
0000
0100
0000
0001
0000
0010
0000
0001
0000
0010
0000
0001
0000
0100
0000
0001
0100
,
0001
1000
0010
0100
0001
0010
0001
0100
0010
1000
0010
0100
,
0010
1000
0010
0100
0010
1000
0100
0010
0100
1000
0100
0010
,
0100
0000
1000
0000
0010
0000
0100
0000
0000
0000
0001
0000
0100
0001
0100
0000
0010
0000
1000
0000
0100
0000
1000
0000
,
0010
0100
0010
0100
0001
0100
0001
0100
0010
1000
0100
0010
,
0100
0000
1000
0000
0010
0000
0100
0000
0000
0000
0001
0100
0001
0000
1000
0000
0100
0000
1000
0000
0010
0000
0100
0000
,
0001
0100
0010
1000
0100
1000
0100
0010
0001
0100
0001
0100
,
0010
0000
1000
0000
0010
0000
0100
0000
0000
0000
0001
0000
0100
0000
0001
1000
0001
0000
0100
0000
0001
0000
0010
0000
,
0100
0000
0010
0001
0010
0000
0001
0000
0100
0000
0001
0000
0100
0000
0010
0000
0100
0000
0001
0000
0010
0000
0001
0000
,
1000
0100
1000
0010
0000
1000
0010
0100
0001
0010
0001
0100
,
0010
0000
0100
0000
0001
0000
1000
0000
0001
0000
1000
0000
0100
0000
1000
0000
0010
0000
0100
0000
0010
0000
0100
0001
,
0100
0000
0010
0000
1000
0000
0010
0000
1000
0000
0100
0000
0010
0001
0010
0000
0001
0000
0100
0000
0001
0000
0010
0000
,
0001
0000
0010
0000
0001
0000
0100
0000
0010
0000
1000
0000
0010
0000
0100
0000
0001
0000
0010
0000
0001
0000
0100
0001
,
0100
0000
0010
0000
1000
0000
0010
0000
0000
0000
1000
0000
0001
0000
0010
0000
0001
0000
1000
0010
1000
0010
1000
0000
,
0001
0100
0001
1000
0100
1000
0010
0100
0001
0010
0001
0100
,
0010
1000
0100
0110
0000
0010
0001
0100
0010
0100
0010
0100
,
0001
0010
0001
1001
1000
0010
0100
0010
0100
0001
0100
0001
,
1000
0100
0010
0011
0000
0001
0100
0010
1000
0010
0100
0001
,
0010
0001
0010
0110
0100
1000
0010
0100
0001
0010
0001
0100
,
0010
1000
0010
1010
0000
1000
0100
1000
0010
0100
0001
0100
,
0010
0100
0001
0011
0010
0100
1000
0100
1000
0100
0010
0100
,
0010
0001
0010
0011
0001
0100
0010
1000
0100
1000
0010
0100
,
0010
0100
0010
0110
0100
0010
0100
0001
1000
0010
1000
0010
,
0100
0001
1000
1010
0000
0010
0100
0001
0010
0001
0100
0010
,
1000
0001
0010
0001
0010
0001
0100
0010
0100
0001
0010
0001
,
1000
0100
1000
1010
0010
0100
0001
0100
0001
0100
0010
1000
,
0100
1000
0010
0100
0001
0010
0001
0010
0001
1000
0001
0100
,
0001
1000
0001
0101
0000
0100
0010
1000
0010
0100
0010
1000
,
0100
1000
0010
0110
0010
0100
0001
0100
0001
0010
0001
1000
,
0001
0010
0001
1000
0100
1000
0010
1000
0010
0100
0001
1000
,
1001
0000
0000
1100
0000
0000
1001
0000
0000
0000
0001
0101
,
0001
0100
0001
0100
0000
0000
1000
0100
1000
0100
0000
0000
,
0010
0100
0010
0100
0000
0000
0010
0001
0010
0001
0000
0000
,
1000
0010
1000
0010
0000
0000
0100
0000
0001
1000
0MM0
0001
,
1000
0MM0
0001
1000
0MM0
0001
1000
0MM0
0001
0010
0200
0000
,
2000
0000
0000
0000
0000
0000
0000
3000
1300
0100
0000
0010
,
0100
0000
0200
0000
0000
0002
0000
0300
2003
0010
3000
0002
,
0200
0000
0000
0000
0000
0000
0000
0003
0310
1000
0000
0100
,
0020
0000
0002
0000
0030
1000
0000
0003
0010
0100
0000
0002
,
0020
0000
0000
0000
0000
0033
000M
00M0
0M01
M010
0M00
00M1
,
100M
00M0
0M00
M001
0M00
10M0
000M
00M0
0M01
M010
0M00
10M0
,
000M
0000
0000
0000
0000
0000
0000
0000
0000
0000
0000
0000
0000
0000
0000
0000
00M0
0000
0000
0000
0000
0000
0000
0000
0000
0000
0000
0000
0000
0000
0000
0000
0M01
0000
0000
0000
0000
0000
0000
0000
0000
0000
0000
0000
0000
0000
0000
0000
M000
0000
0000
0000
0000
0000
0000
0000
0000
0000
0000
0000
0000
0000
0000
0000
0M00
0000
0000
0000
0000
0000
0000
0000
M000
0000
0000
0000
0000
0000
0000
0000
0MM0
0000
0000
0000
0000
0000
0000
0000
00M0
0000
000M
0000
0000
000M
0000
0000
MMMM
0000
0000
0000
0000
0000
0000
0000
0000
0000
0000
0000
0000
0000
0000
0000
0000
0000
0000
0000
0000
0000
0000
0000
0000
0000
0000
0000
0000
0000
0000
0000
0001
0000
0000
0000
0000
0000
0000
0000
0000
0000
0000
0000
0000
0000
0000
0000
0010
0000
0000
0000
0000
0000
0000
0000
0000
0000
0000
0000
0000
0000
0000
0000
0000
0000
0000
0000
0000
0000
0000
0000
0000
0000
0000
0000
0000
0000
0000
0000
0010
0000
0000
0000
0000
0000
0000
0000
0000
0000
0000
0000
0000
0000
0000
0000
,
0001
0000
0100
0010
0000
1000
0001
0000
1000
0001
0020
0000
,
0200
0000
0000
0000
0000
0000
0000
0000
0300
0000
0030
0000
0001
1000
0001
1000
0000
0010
1000
0010
1000
0010
1000
0010
,
2000
0000
0000
0002
0000
3000
0020
0003
0230
0000
0000
2000
0000
0300
0020
0000
3000
0230
0002
0300
0023
0200
0300
0130
,
1000
0000
MMMM
0000
MMMM
0000
MMMM
0000
0002
0020
0003
0230
2000
0300
3200
0020
0300
0032
2000
0003
3020
0200
0030
0301
,
0010
0000
0000
0000
MMMM
0000
0000
0000
MMMM
0000
0000
0000
0000
0000
0000
0001
0000
1000
0000
0000
0000
1000
0000
0001
0000
0000
0000
0001
0000
0010
M000
0000
0000
0010
0000
0100
0000
0000
0000
0100
0000
1000
000M
0000
0000
0200
0000
0000
,
0000
0020
0000
0000
0000
0000
0000
0000
0000
0000
0000
0000
0300
0000
0000
0000
0002
0000
0030
0000
0000
0000
2000
0000
0003
0000
0000
0000
0200
0000
0000
0000
0300
0000
0002
0000
0003
0000
0010
0000
0010
0000
3000
0000
0001
0000
1001
0000
,
0000
0000
0000
0000
0000
0000
M00M
0000
0000
0000
0000
0000
0MM0
0000
0000
0010
0000
0100
M00M
0000
0000
0100
0000
0020
0000
0000
0000
1000
0000
0000
0030
0000
0000
0001
0000
0000
0000
0000
0000
0010
0000
0100
0000
0000
0000
0020
0000
0200
,
0000
0000
M00M
0000
0000
M33M
0000
0000
0001
0010
0000
0100
1000
0000
0100
0010
0000
0001
0100
0000
0010
1000
0000
0100
,
0010
0000
MMMM
0000
MMMM
0000
MMMM
0000
0010
0001
0000
1000
0100
0000
0100
0010
0000
0010
0100
0000
0100
1000
0000
0020
,
0000
0000
0000
0000
0200
0000
0000
0000
0000
0000
0000
0000
0000
0330
0000
0000
0000
0000
0000
0000
0000
0000
0000
0000
0001
0000
0000
0000
0000
0000
0000
0000
1000
0000
0000
0000
0010
0000
0000
0000
0000
0000
0000
0000
0010
0000
0000
0000
,
0100
0000
0001
0010
0000
0100
1000
0001
0010
0200
0000
0300
,
1100
0000
0000
0011
0000
0100
0001
0000
1000
1100
0000
0100
,
0000
0000
0011
0000
0000
0001
0100
0000
0040
4000
0000
0M0M
,
0000
3000
0000
0130
0000
0001
1000
0000
0100
0010
0000
M001
,
0000
0000
0100
0000
000M
0010
1000
0000
4000
0400
0000
0000
,
0000
0000
0300
3001
0000
1000
0001
0000
0100
0110
0000
0000
,
1010
0000
1100
0000
0000
1100
0100
0000
0110
0000
0000
0022
,
0000
0000
0033
00MM
0000
1000
0001
0000
0010
0001
0000
0001
,
0100
0000
0010
1000
0000
0001
0010
0100
0000
4000
0040
0000
,
0000
0000
0000
0000
3000
2030
0020
3000
2030
0200
3000
0020
,
0000
0300
0002
0000
0030
0203
0020
0300
0230
0020
0300
0030
,
M00M
0MM0
M00M
0MM0
M00M
0110
M01M
0000
M10M
0110
M00M
0100
,
M001
0000
M010
0100
M000
0010
M001
0000
M200
0000
M000
00MM
,
M000
03MM
M000
00MM
M000
0010
1000
0000
1100
0000
0000
0010
,
0001
0000
0100
0000
0000
0010
1000
0000
1010
0000
0000
0100
,
0010
0000
0202
0000
03M3
0000
1000
0000
0001
0010
0000
0100
,
100M
0000
0100
0010
M000
0001
0100
0010
0000
4000
0200
0300
,
0020
0030
0200
3300
0000
0010
1000
0000
0100
0020
0000
0002
,
0000
0030
0200
0003
0000
0320
2000
0030
3040
0400
0000
0000
,
M00M
0000
0330
0000
0000
1000
1001
0000
0001
1001
0000
0000
,
1000
0000
0000
0100
0000
0010
0100
0000
0040
0004
MM00
0000
,
MM00
0003
MM00
0031
0000
1000
0001
0000
0001
0010
0000
0010
,
0001
0000
0200
0000
0000
0320
1000
0030
1001
0000
0000
0101
,
0000
0000
M0M0
0000
0M0M
0000
M0M0
0000
1000
0001
0000
0001
,
1000
0000
1000
0001
0000
0001
1000
0000
1000
1001
0000
0001
,
1000
0000
0000
0000
0001
0000
1000
0000
0000
0000
0001
0000
1000
0010
1000
0010
1000
0000
0001
0000
0000
0000
0000
0000
,
0100
0000
0000
0010
0000
1000
0100
1000
0100
0010
0001
0010
,
0001
0100
0010
1000
0010
1000
0010
0100
0004
1000
0000
0100
,
0000
1000
0000
0010
0000
1003
0400
0010
0000
1000
0000
0010
,
0000
1000
0000
0310
0001
4000
0100
0000
0010
0000
0001
0000
,
0010
0000
0100
0000
3001
0010
0400
1000
0000
0010
0000
1300
,
0010
0100
0004
1000
0000
0100
0000
1000
0000
0010
0003
1000
,
0040
0100
0000
0001
0000
0100
0000
1000
0030
0100
0001
0040
,
0001
0000
0430
4000
0000
0300
0020
0030
0002
0003
0020
0030
,
3004
0400
0000
0000
0000
0300
0000
4000
0000
0000
3000
0100
,
0000
0020
0030
0103
0040
1000
0000
0200
0300
0200
0300
0200
,
0300
0200
0330
0400
0004
0000
0000
0000
0300
4000
0000
0003
,
3100
0010
0100
0040
0001
0030
0001
0010
0001
1000
0100
1000
,
0001
0000
0100
0000
0001
0000
1000
0000
0010
0000
1000
0000
0001
1000
0004
0000
4000
0000
0000
0000
0003
0000
0040
0000
,
0000
0000
3000
0000
0400
0000
0030
0004
0000
0300
0040
0030
,
0010
0000
0100
0000
0010
0003
1000
0400
0020
0030
0002
0003
,
0020
0000
0030
0000
2000
0000
3000
0000
0320
0000
0031
0000
1000
0010
1000
0010
1000
0000
0004
0000
0400
0000
0000
0000
,
0300
0000
0000
0000
4000
0000
0000
0000
3003
0000
0010
0100
0040
0000
0100
0000
0000
0000
4000
0000
0000
0000
3030
0000
,
0001
0100
0001
0100
0010
1000
0010
0100
0001
0100
0001
0010
,
0400
4000
0000
0000
3000
0040
0000
0300
0004
0000
0030
0400
,
0000
0300
0000
1000
0000
0100
0000
1003
0040
0400
0000
0330
,
0001
0100
0002
0000
4003
0000
3002
0000
4003
0000
3002
0000
4003
0000
3004
0000
2003
0000
3004
0000
2003
0000
3004
0000
,
2003
3040
0230
0304
0023
0430
2300
3040
0230
0304
0020
0030
,
0200
0300
0020
0030
2000
3000
0403
0020
0030
2000
3000
0020
,
0030
0002
0003
0040
0000
0300
4030
0100
3000
0010
0400
0001
,
0000
0340
4000
0000
0000
0030
3000
0001
0100
0010
1000
0010
,
0100
0001
0010
0001
0010
0100
1000
0010
0100
0001
0100
0010
,
1000
0100
1000
0100
0010
0100
0010
0001
1000
0001
0100
0010
,
1000
0000
0010
0000
0100
0000
0001
0MM0
1000
0MM0
0001
0MM0
1000
0M0M
0010
0M0M
1000
0M0M
0010
M00M
0100
M00M
0010
M00M
,
0100
M0M0
0001
M0M0
0100
M0M0
0001
MM00
0010
MM00
0001
MM00
0010
M00M
0100
M00M
0010
M00M
0100
00MM
1000
00MM
0100
00MM
,
1000
0MM0
0001
0MM0
1000
0MM0
0001
0000
1000
0000
0001
0000
0100
0000
0040
0000
1000
0000
0000
0000
0100
0000
0000
0000
,
1030
0400
0010
0000
1000
0300
0010
0004
0400
0000
0003
0340
,
4000
0000
0030
3400
0040
0000
0300
0031
1000
1010
0000
M0M0
,
0101
0000
0M0M
1010
0000
0000
0000
0001
0101
0001
1000
0002
,
2000
0000
0MM0
0MM0
0000
0MM0
0000
0000
0MM0
3003
0000
0000
,
0MM0
0000
0000
0000
;
