#TITLE:BB Evolution;
#SUBTITLE:;
#ARTIST:AKHT;
#TITLETRANSLIT:;
#SUBTITLETRANSLIT:;
#ARTISTTRANSLIT:;
#CREDIT:;
#BANNER:../bn.png;
#BACKGROUND:../veyron.png;
#LYRICSPATH:;
#CDTITLE:;
#MUSIC:BB Evolution_Cut.ogg;
#OFFSET:1.140;
#SAMPLESTART:102.860;
#SAMPLELENGTH:18.480;
#SELECTABLE:YES;
#BPMS:0.000=210.000;
#STOPS:;
#BGCHANGES:;
// cache tags:
#FIRSTBEAT:4.000;
#LASTBEAT:476.000;
#SONGFILENAME:Songs/Cirque du Veyron/Zaia - BB Evolution/EVOLUTION.SM;
#HASMUSIC:1;
#HASBANNER:1;
#MUSICLENGTH:138.124;
// end cache tags

//---------------dance-single - Zaia----------------
#NOTES:
     dance-single:
     Zaia:
     Challenge:
     14:
     1.000,1.000,0.167,0.767,1.000,1056.000,23.000,106.000,0.000,0.000:
0000
0000
0000
0000
,
1000
0001
0100
0001
1000
0000
0001
0010
0100
0010
0002
0000
0000
0000
0000
0000
,
1003
0010
0100
0010
1000
0000
0001
1000
0010
1000
0002
0000
0000
0000
0000
0000
,
1003
0010
1000
0010
0100
0000
0001
0010
0100
1000
0002
0000
0000
0000
0000
0000
,
0103
0001
0100
0010
0100
0000
0000
0000
0020
0000
0000
0000
0000
0000
0000
0000
,
1030
0100
1000
0001
0100
0001
1000
0010
,
0200
0302
0023
0031
0100
0001
1000
0100
,
0010
0100
1000
0001
0100
0010
0100
0001
1000
0100
0010
0100
1000
0010
0100
0001
,
2000
0000
0000
0000
3002
0203
0302
0000
,
1003
0100
0010
0001
1000
0010
1000
0100
0010
0001
1000
0010
1000
0001
0100
0010
,
1000
0100
1000
0001
0100
0010
1000
0001
0010
0100
1000
0100
0010
0001
1000
0010
,
0200
0000
0000
0000
,
0301
0101
0101
0000
,
2000
0010
3010
0100
0001
0010
0001
0100
,
0010
1000
0100
1000
0010
1000
0001
0010
,
0002
0100
0103
0001
1000
0001
0010
0001
,
0100
0010
1000
0010
0100
0010
1000
0010
,
0100
0001
0010
0001
0100
0001
1000
0001
,
0100
0001
0010
0001
0100
0001
1000
0001
,
0100
0001
0010
0001
0100
0001
1000
0001
,
0100
0001
1000
0100
0010
0100
1000
0001
0100
0001
1000
0100
1000
0001
1000
0001
,
0020
0100
0130
1000
0100
0010
0001
0100
,
0001
0010
0100
1000
0010
1000
0001
0100
,
0020
1000
1030
0001
0010
0100
0010
0001
,
1000
0010
1000
0010
1000
0100
1000
0100
,
1000
0001
0010
0001
1000
0001
0010
0001
,
1000
0010
1000
0001
1000
0010
1000
0001
,
0100
0001
0010
0100
1000
0010
0100
0001
,
0010
0000
0001
0100
0010
0100
0010
1000
0001
0100
0010
0100
0010
1000
0001
1000
,
0100
2100
0000
3001
0100
0201
0000
0310
,
1000
0100
0010
0100
1000
0010
0100
0001
,
1000
2001
0000
3001
0010
0100
1000
0020
,
0000
0000
0000
0000
0100
0000
0000
0000
0100
0000
0000
0000
0130
0001
0100
0001
,
1000
0100
1000
0010
1000
0001
0010
0001
,
2000
3200
2300
3020
2030
3002
0000
2003
,
3002
0203
0302
0023
0032
2003
0000
3001
,
0010
0010
0001
1000
1000
0010
0100
0001
,
1000
0100
1000
0001
1000
0010
1000
0001
0100
0001
1000
0001
0010
0001
1000
0010
,
0100
0001
1000
0100
0010
0001
1000
0010
0100
0010
1000
0100
0010
0001
0010
0100
,
1000
0001
0100
0001
1000
0001
0010
0001
1000
0100
1000
0001
1000
0010
1000
0001
,
0100
0010
1000
0001
0010
0100
1000
0001
0100
0010
0100
0001
0010
0100
1000
0001
,
0100
0010
1000
0100
1000
0010
0100
0001
,
2000
3020
2030
3200
2300
3002
0000
2003
,
3002
0023
0032
0203
0302
2003
0000
3001
,
0100
0100
0001
1000
1000
0100
0010
0001
,
1000
0010
1000
0001
1000
0100
1000
0001
0010
0001
1000
0001
0100
0001
1000
0100
,
0010
0001
1000
0010
0100
0001
1000
0100
0010
0100
1000
0010
0100
0001
0100
0010
,
1000
0001
0010
0001
1000
0001
0100
0001
1000
0010
1000
0001
1000
0100
1000
0001
,
0010
0100
1000
0001
0100
0010
1000
0001
0010
0100
0010
0001
0100
0010
1000
0001
,
0020
0000
0000
0000
0000
0130
1000
0001
,
2000
0000
3010
0010
,
0200
0000
0000
0000
0000
0301
0010
0100
,
2000
0000
3002
0000
,
1003
0000
0010
0000
1000
0000
0001
0000
1000
0000
0100
0000
0010
0000
0001
1000
,
0010
0100
0001
1000
0100
1000
0010
0100
,
0001
1000
0100
1000
0001
0100
0010
1000
,
0100
1000
0010
1000
0100
0010
0001
1000
,
0010
0000
0100
0000
0010
0000
0100
0000
0010
0000
0100
0000
0010
0000
0100
0001
,
0200
0000
0000
0302
0000
0000
2003
0000
,
3010
0100
0001
1000
0100
1000
0001
0100
,
0001
0001
2000
0000
3010
0100
0001
0010
,
0200
0000
0000
0000
0000
0000
0000
0000
0000
0000
0000
0000
0000
0000
1300
0001
,
0020
0000
0000
0032
0000
0000
2003
0000
,
3020
0000
0000
0230
0000
0000
0302
0000
,
0023
0000
0000
0230
0000
0000
2300
0000
,
3020
0000
0000
0000
,
0000
0000
1030
0000
,
0001
0010
0001
0100
0001
1000
0001
0010
,
0100
1000
0010
0100
0001
0100
0010
1000
,
0002
0000
0000
0000
0000
0000
0000
1003
,
2001
0000
0000
3001
,
0120
0000
0000
0000
0000
0000
0000
1030
,
1010
0000
0000
0000
1001
0000
0000
0000
1000
0100
1000
0001
1000
0100
1000
0001
,
0200
0000
0000
0000
0310
0000
0100
0101
,
0000
1000
1001
0000
0000
0001
0000
0010
,
0110
0000
0110
0000
0110
0000
0100
1100
,
0000
0100
0000
0000
1000
0000
0000
0001
,
0010
0001
0100
0001
1000
0010
1000
0100
,
1000
0001
1000
0010
1000
0001
0100
0010
,
1000
0010
1000
0000
0001
0010
0001
0000
1000
0010
1000
0000
0001
0010
0001
0000
,
1000
0100
1000
0000
0001
0100
0001
0000
1000
0100
1000
0000
0001
0100
0001
0000
,
1000
0010
1000
0000
0001
0100
0001
0000
1000
0100
1000
0000
0001
0010
0001
0000
,
1000
0001
1000
0000
0001
0100
0001
0000
2000
0000
0000
0000
0000
0000
0000
0000
,
3001
0100
0001
1000
0100
0010
0001
0100
0010
0100
0001
1000
0100
0010
0100
1000
,
0001
0100
0010
0100
0001
0010
0100
1000
0001
1000
0001
1000
0010
0100
0010
1000
,
0100
0010
0001
0010
0100
1000
0001
0100
0010
1000
0001
0010
0001
1000
0010
1000
,
0100
0010
0100
1000
0001
0010
0100
1000
0001
1000
0010
1000
0001
0010
0100
1000
,
0001
0100
0010
1000
0010
0100
0001
1000
0100
1000
0001
0010
0001
1000
0010
0100
,
0001
1000
0100
0010
0001
0010
0100
1000
0001
0010
0001
1000
0001
0100
0010
1000
,
0001
0000
0001
0000
1000
0100
1000
0000
0001
0000
0001
0000
1000
0010
1000
0000
,
0001
0100
0001
0100
0010
0000
1000
0000
0001
1000
0001
1000
0100
0000
1000
0000
,
0001
0100
0010
1000
0100
1000
0010
0100
,
0002
0023
0032
0203
0302
2003
0000
3010
,
0200
0302
0203
0320
0230
0302
0000
1003
,
0100
0010
0100
1000
0001
0100
0010
1000
,
0100
0010
0001
1000
0010
0100
0010
1000
,
0200
0320
0230
2300
3002
2003
0000
3010
,
2000
3020
2030
3200
2300
3002
0000
1003
,
0001
0100
0001
0010
0100
1000
0010
0100
,
0001
0100
0010
1000
0001
0100
0010
0100
0001
1000
0100
0010
0100
1000
0010
0100
,
0001
1000
0100
1000
0100
0010
0001
1000
0010
0100
0001
0010
0100
0010
0100
1000
,
0001
0100
0001
1000
0100
1000
0010
0100
0001
1000
0100
0010
0001
0010
0100
1000
,
0001
0100
0001
1000
0010
1000
0100
0010
0100
1000
0001
0010
0100
1000
0001
0100
,
0010
1000
0010
0100
0001
1000
0100
1000
0001
0100
0001
1000
0100
0010
0001
1000
,
0010
0100
0001
1000
0100
1000
0010
1000
0001
0100
0010
1000
0100
0010
0001
1000
,
0001
0010
0001
1000
0010
0100
0001
1000
0100
0010
0001
0010
0100
1000
0001
1000
,
0100
0010
0100
0010
0001
1000
0010
0100
0001
0010
0100
1000
0010
0100
0001
0100
,
0010
2010
0000
3010
1000
2001
0000
3001
,
0010
0100
0010
0001
0100
0001
1000
0001
,
0010
0120
0000
0130
1000
1200
0000
1300
,
1000
0001
0100
0020
0000
2000
0000
0030
,
3001
0101
1000
1100
,
0001
1000
0001
1000
0010
0100
0010
0100
0001
1000
0010
1000
0002
0000
0000
0000
,
1003
0010
0100
0001
0010
0100
1000
0001
0100
0010
1000
0001
0010
0100
0010
0100
,
1000
0001
0100
0010
0100
0001
1000
0100
0010
0100
1000
0001
0100
0001
1000
0010
,
1000
0002
0000
1003
0010
0200
0000
0310
,
1000
0100
0010
0001
0010
0100
1000
0001
,
0000
1001
2002
0000
0000
0000
0000
0000
,
0000
0000
0000
0000
,
3003
0000
0000
0000
;
